#TITLE:LOVELY♥BOMB;
#SUBTITLE:;
#ARTIST:P*Light;
#TITLETRANSLIT:;
#SUBTITLETRANSLIT:;
#ARTISTTRANSLIT:;
#CREDIT:;
#BANNER:../Banner.png;
#BACKGROUND:../BG.png;
#LYRICSPATH:;
#CDTITLE:../CDTitleKIRBY.png;
#MUSIC:LOVELYBOMB.ogg;
#OFFSET:-0.517;
#SAMPLESTART:131.317;
#SAMPLELENGTH:29.999;
#SELECTABLE:YES;
#BPMS:0.000=200.000;
#STOPS:;
#BGCHANGES:;
// cache tags:
#FIRSTBEAT:0.000;
#LASTBEAT:612.000;
#SONGFILENAME:Songs/Index Fusion - Part 2/LOVELYBOMB - [Kirby5464]/LOVELYBOMB.sm;
#HASMUSIC:1;
#HASBANNER:1;
#MUSICLENGTH:184.894;
// end cache tags

//---------------dance-single - ----------------
#NOTES:
     dance-single:
     :
     Challenge:
     16:
     1.000,1.000,0.368,0.438,1.000,1735.000,68.000,81.000,31.000,0.000:
0001
1000
0001
0100
0010
0100
0001
1000
0001
0010
0100
1000
0010
0100
0010
1000
,
0100
0010
0001
1000
0100
1000
0001
0100
0001
0010
0100
1000
0010
0100
0010
1000
,
0001
0100
0010
1000
0100
0010
0100
1000
0001
0010
0001
1000
0010
1000
0100
0010
,
0001
1000
0100
1000
0010
0100
0010
1000
0002
0000
2003
0000
3002
0000
0203
0000
,
0320
0000
0030
1000
0000
0000
0100
0000
0000
0010
0000
0000
0001
0000
0000
1000
0000
0000
0100
0000
0000
1000
0000
0000
0001
0000
0000
0100
0000
0000
0001
0000
0000
0010
0000
0000
0100
0000
0000
1000
0000
0000
0010
0000
0000
0100
0000
0000
,
0010
1000
0100
1000
0001
0010
0001
1000
0100
0010
0001
1000
0100
0010
0100
1000
,
0001
0010
0001
1000
0010
0100
0001
0010
0100
0010
0001
1000
0100
1000
0001
0100
,
0002
0023
0230
2300
,
3001
0010
0001
1000
0010
1000
0100
0010
0001
0100
0010
0100
0001
1000
0010
0100
,
0001
0010
0100
0010
0001
1000
0100
1000
0001
0100
0001
0010
0100
1000
0001
0010
,
0001
0100
0010
0100
0001
1000
0100
0010
0001
0100
0010
0100
0001
0010
0100
1000
,
0001
0010
0001
1000
0010
1000
0100
0010
0001
0100
0010
0100
0001
1000
0010
0100
,
0020
0030
0000
0000
0000
0000
0000
0000
1001
0000
0000
0000
0000
0000
0000
0000
,
1100
0000
0011
0000
,
1000
0001
1000
0001
0010
0100
1000
0001
,
1000
0100
0010
0001
1000
0100
1000
0001
0100
0001
0010
0100
1000
0010
0100
0010
,
2000
0000
0000
0000
,
3002
0003
0000
0000
0000
0000
0000
0000
0000
0000
0000
0000
0000
0000
0000
0000
0000
0000
0000
0000
0000
0000
0000
0000
,
0001
0010
0100
1000
0001
0000
0100
0000
0010
0000
1000
0000
0001
0000
1000
0000
,
0010
0100
0010
1000
0001
0010
0100
1000
0001
0010
0001
1000
0020
0000
0000
0000
,
0230
0000
0000
0320
0000
1030
0001
0010
,
0001
1000
0100
0010
0002
0000
2003
0000
3020
0000
0000
0000
0230
0000
0000
0000
,
0302
0003
0000
0000
1000
0000
0000
0000
0010
0000
0000
0000
1000
0000
0000
0000
0100
0000
0000
0000
0010
0000
0000
0000
0001
0000
0000
0000
0100
0000
0000
0000
,
0010
0100
0001
0010
0100
1000
0001
0010
,
0001
1000
0100
0010
0001
1000
0100
1000
,
0000
0000
1001
0000
0000
0110
0000
0000
1020
0000
0000
0000
0M3M
0000
0000
0000
,
1000
0100
0010
0100
1000
0001
0010
0001
,
1000
0010
1000
0100
0010
0001
1000
0100
,
1001
0001
0100
0001
0010
0100
1000
0001
,
0100
0010
1000
0100
0010
0001
0100
0010
,
1010
0100
0010
0100
0001
1000
0001
0100
,
0101
0010
1000
0010
0100
0001
0010
0100
,
1000
0010
1000
0000
0001
0010
0001
0000
1000
0100
1000
0001
0010
0100
1000
0010
,
0100
0000
0110
0000
0000
1010
0000
0000
1001
0000
0000
0000
MMMM
0000
0000
0000
,
1000
0001
1000
0010
0100
0010
1000
0001
1000
0100
0010
0001
0100
0010
0100
0001
,
0010
0100
1000
0001
0010
0001
1000
0010
1000
0100
0010
0001
0100
0010
0100
0001
,
1000
0010
0100
0001
0010
0100
0010
0001
1000
0100
1000
0001
0100
0001
0010
0100
,
1000
0001
0010
0001
0100
0010
0100
0001
1000
0100
0010
0001
1000
0100
1000
0001
,
0100
0001
0010
0100
1000
0010
0100
0010
1000
0100
1000
0001
0010
0001
1000
0100
,
0010
0001
1000
0100
0010
0100
1000
0001
0010
0001
1000
0010
0100
0001
0010
0100
,
0010
0001
1000
0100
1000
0001
0100
0001
2000
3020
2030
3200
0320
0032
0203
0320
,
0230
0300
0001
0000
1000
0000
0001
0000
2000
0000
0000
0000
3000
0000
0000
0000
,
0001
0010
0001
1000
0010
1000
0100
0010
0001
1000
0100
1000
0001
0010
0100
1000
,
0011
0000
0000
0110
0000
0000
1100
0000
0000
1010
0000
0000
1002
0000
0000
0000
,
1003
0100
0010
0001
0100
0010
0100
0001
0010
0100
1000
0001
0010
0001
1000
0010
,
1000
0100
0010
0001
0100
0010
0100
0001
1000
0010
0100
0001
0010
0100
0010
0001
,
1000
0100
1000
0001
0100
0001
0010
0100
1000
0001
0010
0001
0100
0010
0100
0001
,
1000
0100
0010
0001
1000
0100
1000
0001
0010
0100
1000
0010
0100
0010
1000
0001
,
2000
0000
0000
0000
3002
0000
0000
0000
1003
0100
0010
0100
1000
0001
0010
0100
,
1000
0000
1001
0000
0000
1010
0000
0000
0101
0000
0000
0000
MMMM
0000
0000
0000
,
1000
0001
1000
0010
0100
0010
1000
0001
1000
0100
0010
0001
0100
0010
0100
0001
,
0010
0100
1000
0001
0010
0001
1000
0010
1000
0100
0010
0001
0100
0010
0100
0001
,
1000
0010
0100
0001
0010
0100
0010
0001
1000
0100
1000
0001
0100
0001
0010
0100
,
1000
0001
0010
0001
0100
0010
0100
0001
2000
0000
3002
0000
2003
0000
3020
0000
,
0230
0000
0300
0001
0000
0000
0010
0000
0000
0100
0000
0000
1000
0000
0000
0001
0000
0000
0010
0000
0000
0001
0000
0000
1000
0000
0000
0010
0000
0000
1000
0000
0000
0100
0000
0000
0010
0000
0000
0001
0000
0000
0100
0000
0000
0010
0000
0000
,
0100
0001
0010
0001
1000
0100
1000
0001
0010
0100
1000
0001
0010
0100
0010
0001
,
1000
0100
1000
0001
0100
0010
1000
0100
0010
0100
1000
0001
0010
0001
1000
0010
,
2000
3200
0320
0032
,
1003
0100
1000
0001
0100
0001
0010
0100
1000
0010
0100
0010
1000
0001
0100
0010
,
1000
0100
0010
0100
1000
0001
0010
0001
1000
0010
1000
0100
0010
0001
1000
0100
,
1000
0010
0100
0010
1000
0001
0010
0100
1000
0010
0100
0010
1000
0100
0010
0001
,
1000
0100
1000
0001
0100
0001
0010
0100
1000
0010
0100
0010
1000
0001
0100
0010
,
0200
0300
0000
0000
0010
0100
0010
0100
1001
0000
0000
0000
0001
1000
0001
1000
,
0011
0000
0000
0110
0000
0000
1100
0000
0000
0011
0000
0000
1010
0000
0110
0000
,
0001
0000
1000
0000
0001
0000
1000
0000
0001
0010
0100
1000
0001
1000
0002
0003
,
0000
0000
0000
0000
2000
3002
0023
0000
,
0130
0010
0100
0001
1000
0001
0010
0100
1000
0010
0100
0010
1000
0100
0010
0001
,
1000
0100
1000
0001
0100
0001
0010
0100
1000
0010
0100
0010
1000
0001
0100
0010
,
1000
0100
0010
0100
1000
0001
0010
0001
1000
0010
1000
0100
0010
0001
1000
0100
,
1000
0010
0100
0010
1000
0001
0010
0100
1000
0010
0100
0010
1000
0100
0010
0001
,
1000
0100
1000
0001
0100
0001
0010
0100
1000
0010
0100
0010
1000
0001
0100
0010
,
1000
0100
0010
0100
1000
0001
0010
0001
1000
0010
1000
0100
0010
0001
1000
0100
,
1000
0010
0100
0010
1000
0001
0010
0100
1000
0001
0010
0001
1000
0100
0010
0001
,
0000
0000
0000
1001
0000
0000
0101
0000
0010
0000
0100
0000
0010
0000
0100
0000
,
0001
0010
0100
1000
0001
0010
0001
1000
0010
1000
0100
0010
0001
0100
0010
0100
,
0001
0010
0001
1000
0100
1000
0001
0010
0100
1000
0001
0010
0100
0010
0001
1000
,
0100
1000
0001
0100
0010
1000
0100
0010
0100
1000
0001
0010
0001
1000
0010
1000
,
0001
0100
0001
0010
0100
1000
0010
0100
0010
1000
0001
0100
0010
1000
0100
0010
,
0001
1000
0001
1000
0001
1000
0001
1000
,
1001
0010
0100
0010
0100
0010
0100
0010
,
0110
0000
1100
0000
0001
1000
0001
1000
,
0000
0011
0000
1000
0001
0010
0001
0000
,
2000
3000
0000
0000
,
0000
0000
0000
0000
0000
0000
0000
0000
0001
1000
0001
1000
0020
0000
0000
0000
,
1030
0001
0010
0001
1000
0000
0010
0000
0100
0000
0001
0000
1000
0000
0001
0000
,
0100
0010
0100
0001
1000
0100
0010
0001
1000
0100
1000
0001
0200
0000
0000
0000
,
0320
0000
0000
0230
0000
0301
1000
0100
,
1000
0001
0010
0100
2000
0000
3002
0000
0203
0000
0000
0000
0320
0000
0000
0000
,
2030
3001
0100
0001
1000
0000
0001
0000
0100
0000
0010
0000
1000
0000
0010
0000
,
0100
0001
0010
0100
1000
0010
0100
0010
1000
0100
0010
0001
2000
0000
0000
0000
,
3020
0000
0000
0230
0000
0000
0302
0000
1003
0100
0010
1001
0100
1000
0001
0000
,
0000
0000
1001
0000
0000
0110
0000
0000
0102
0000
0000
0000
0003
0000
MMMM
0000
,
1001
0001
0010
0001
1000
0010
1000
0100
,
0110
0000
0001
0000
1000
0000
0100
0000
1010
0000
0000
0110
0000
0000
0011
0000
,
0001
1000
0100
1000
0001
0100
0001
0010
,
1010
0000
0110
0000
1010
1000
0001
1000
,
1100
0010
0001
1000
1001
0010
0100
0010
,
0110
0000
0000
0000
1001
0000
0000
0000
0001
1000
0001
1000
0110
0000
0000
0000
,
0001
0010
0001
1000
0100
0010
0001
1000
0001
0100
0010
0100
0001
0010
0100
1000
,
0001
0000
1001
0000
0000
0110
0000
0000
1010
0000
0000
0000
0200
0000
0000
0000
,
M30M
0000
0110
0000
0000
1010
0000
0000
0101
0000
MMMM
0000
0000
0000
0000
0000
,
0001
0010
0001
1000
0100
0010
0001
1000
,
0010
0100
0001
1000
0001
0010
0100
1000
0010
0100
0010
1000
0100
0010
0001
1000
,
0100
1000
0001
0100
0001
0010
0100
1000
0010
0100
0010
1000
0001
0100
0010
1000
,
0100
0010
0100
1000
0001
0010
0001
1000
0010
1000
0100
0010
0001
1000
0100
1000
,
0010
0100
0010
1000
0001
0010
0100
1000
0010
0100
0010
1000
0100
0010
0001
1000
,
0100
1000
0001
0100
0001
0010
0100
1000
0010
0100
0010
1000
0001
0100
0010
1000
,
0002
0000
0000
0000
2003
0000
0000
0000
3010
0100
0010
1000
0100
0010
0001
0000
,
1000
0001
1000
0010
0200
0000
M3M0
0000
,
0001
0010
0001
1000
0010
1000
0100
0010
0001
1000
0100
1000
0001
0010
0100
1000
,
0011
0000
0000
0110
0000
0000
1100
0000
0000
1010
0000
0000
1002
0000
0000
0000
,
1003
0100
0010
0001
0100
0010
0100
0001
0010
0100
1000
0001
0010
0001
1000
0010
,
1000
0100
0010
0001
0100
0010
0100
0001
1000
0010
0100
0001
0010
0100
0010
0001
,
1000
0100
1000
0001
0100
0001
0010
0100
1000
0001
0010
0001
0100
0010
0100
0001
,
1000
0100
0010
0001
1000
0100
1000
0001
0010
0100
1000
0010
0100
0010
1000
0001
,
2000
0000
0000
0000
3002
0000
0000
0000
1003
0100
0010
0100
1000
0001
0010
0100
,
1000
0001
1000
0001
2000
0000
3000
MMMM
,
0010
0100
0010
1000
0001
1000
0100
0010
0001
0100
0010
0100
0001
0010
0100
1000
,
0001
0010
0001
1000
0010
1000
0100
0010
0001
0100
0010
0100
0001
1000
0010
0100
,
0001
0010
0100
0010
0001
1000
0100
1000
0001
0100
0001
0010
0100
1000
0001
0010
,
0001
0100
0010
0100
0001
1000
0010
1000
0100
0010
0001
1000
0100
1000
0001
0100
,
0001
0010
0100
1000
0010
0100
0010
1000
0100
1000
0001
0010
0001
1000
0100
0010
,
0001
1000
0100
0010
0100
1000
0001
0010
0001
1000
0010
0100
0001
0010
0100
0010
,
0001
1000
0100
1000
0001
0100
0001
1000
0100
0010
0001
0100
0010
0100
0001
0010
,
0100
1000
0001
0010
0001
1000
0010
1000
0100
0010
0001
0100
0020
0000
0000
0000
,
1030
0100
1000
0001
0100
0001
0010
0100
1000
0010
0100
0010
1000
0001
0100
0010
,
2000
3000
0000
0000
1001
0000
0000
0000
0010
0000
0100
0000
0010
0000
0000
0000
,
1000
0010
0100
0010
1000
0001
0100
0001
0010
0100
1000
0001
0010
0001
1000
0010
,
1000
0001
0000
1000
0001
0000
MMMM
0000
,
1000
0001
0010
0100
0010
0001
1000
0100
1000
0001
0100
0010
1000
0000
0000
0000
,
0001
1000
0100
1000
0001
0100
0001
1000
0100
0010
0001
0100
0010
0000
1000
0100
,
0010
0001
1000
0100
1000
0001
0100
0001
0010
0100
1000
0010
0100
0010
1000
0000
,
0000
0110
0000
0000
1010
0000
0000
1002
0000
0000
0000
0003
0000
0000
0000
0000
,
1000
0001
1000
0010
0100
0010
1000
0001
1000
0100
0010
0001
0100
0010
0100
0001
,
0010
0100
1000
0001
0010
0001
1000
0010
1000
0100
0010
0001
0100
0010
0100
0001
,
1000
0010
0100
0001
0010
0100
0010
0001
1000
0100
1000
0001
0100
0001
0010
0100
,
1000
0001
0010
0001
0100
0010
0100
0001
2000
0000
3002
0000
2003
0000
3020
0000
,
0230
0000
0300
0001
0000
0000
0010
0000
0000
0100
0000
0000
1000
0000
0000
0001
0000
0000
0010
0000
0000
0001
0000
0000
1000
0000
0000
0010
0000
0000
1000
0000
0000
0100
0000
0000
0010
0000
0000
0001
0000
0000
0100
0000
0000
0010
0000
0000
,
0100
0001
0010
0001
1000
0100
1000
0001
0010
0100
1000
0001
0010
0100
0010
0001
,
1000
0100
1000
0001
0100
0010
1000
0100
0010
0100
1000
0001
0010
0001
1000
0010
,
1000
0001
0100
0001
0010
0100
1000
0010
0100
0010
1000
0100
0010
0001
0100
0010
,
1000
0100
1000
0001
0100
0001
0010
0100
1000
0010
0100
0010
1000
0001
0100
0010
,
1000
0100
0010
0100
1000
0001
0010
0001
1000
0010
1000
0100
0010
0001
1000
0100
,
1000
0010
0100
0010
1000
0001
0010
0100
1000
0010
0100
0010
1000
0100
0010
0001
,
1000
0100
1000
0001
0100
0001
0010
0100
1000
0010
0100
0010
1000
0001
0100
0010
,
0200
0300
0000
0000
0000
0000
0000
0000
1001
0000
0000
0000
0000
0000
0000
0000
,
0011
0000
1100
0000
,
0001
1000
0001
1000
0100
0010
0001
1000
,
0001
0100
0010
0100
0001
0010
0100
1000
,
0002
0000
0000
0000
,
0003
0000
0000
0000
,
0000
0000
0000
0000
,
0000
0000
0000
0000
,
0M00
0000
0000
0000
;
