#TITLE:Tumbling Xylophone;
#SUBTITLE:;
#ARTIST:Mariko Nanba & Tomoya Ohtani;
#TITLETRANSLIT:;
#SUBTITLETRANSLIT:;
#ARTISTTRANSLIT:;
#CREDIT:ChaosUnown;
#BANNER:tumbling-bn.png;
#BACKGROUND:tumbling.png;
#LYRICSPATH:;
#CDTITLE:chaosunownCD.png;
#MUSIC:tumbling.ogg;
#OFFSET:0.001;
#SAMPLESTART:39.720;
#SAMPLELENGTH:12.000;
#SELECTABLE:YES;
#BPMS:0.000=145.000;
#STOPS:;
#BGCHANGES:;
// cache tags:
#FIRSTBEAT:12.500;
#LASTBEAT:256.000;
#SONGFILENAME:Songs/Omnifarious/(ChaosUnown) Tumbling Xylophone/tumbling.sm;
#HASMUSIC:1;
#HASBANNER:1;
#MUSICLENGTH:113.545;
// end cache tags

//---------------dance-single - P. Mason----------------
#NOTES:
     dance-single:
     P. Mason:
     Challenge:
     10:
     0.786,0.817,0.088,0.484,0.845,560.000,10.000,55.000,38.000,0.000:


0000
0000
0000
0000
,
0000
0000
0000
0000
,
0000
0000
0000
0000
,
0000
0000
0000
1000
0000
0000
0001
0000
0000
0100
0000
0000
0010
0000
0000
1000
0001
1000
0100
0000
0000
0010
0000
0000
,
1MM1
0000
0001
0100
0010
0000
1000
0100
,
0010
0000
0000
0000
0001
0000
0100
0000
0010
0100
0010
0000
0100
0000
0001
0000
,
1000
0000
0100
0020
0031
0000
0100
0010
,
1000
0000
0001
0000
0010
0100
0010
0000
0001
0000
1000
0010
0100
0000
0001
0000
,
1MM1
0000
1000
0000
0100
0010
0001
1000
0010
0100
0000
0001
0000
1000
0100
0010
,
0100
0000
1000
0000
0001
0100
0010
0100
0001
1000
0000
0100
0000
0010
0001
1000
,
0010
0000
0100
0000
0001
0010
0100
0010
0001
1000
0000
0010
0000
0100
0001
1000
,
0100
0000
0000
0000
0000
0000
0000
0000
0000
0000
0000
0000
0000
0000
0000
0000
0000
0000
0000
0000
0000
0000
0000
0000
0010
0000
0000
0000
0000
0000
0000
0000
0000
0000
0000
0000
0000
0000
0000
0000
0000
0000
0000
0000
0000
0000
0000
0000
0001
0000
0000
0000
0000
0000
0000
0000
0000
0000
0000
0000
0100
0000
0000
0000
0000
0000
0000
0000
0000
0000
0000
0000
0010
0000
0000
0000
0000
0000
0000
0000
0000
0000
0000
0000
1000
0000
0000
0000
0000
0000
0000
0000
0000
0000
0000
0000
0001
0000
0000
0000
0000
0000
0000
0000
0010
0000
0000
0000
0000
0000
0000
0000
0100
0000
0000
0000
0000
0000
0000
0000
M02M
0000
0000
0000
0000
0000
0000
0000
0000
0000
0000
0000
0000
0000
0000
0000
0000
0000
0000
0000
0000
0000
0000
0000
0000
0000
0000
0000
0000
0000
0000
0000
0000
0000
0000
0000
0000
0000
0000
0000
0000
0000
0000
0000
0000
0000
0000
0000
0000
0000
0000
0000
0000
0000
0000
0000
0000
0000
0000
0000
0000
0000
0000
0000
0000
0000
0000
0000
0000
0030
0000
0000
,
110M
0000
1000
0000
0001
0010
0000
0010
0100
0000
1000
0000
0001
0100
0000
0100
,
0010
0000
1000
0000
0100
0010
0000
0010
0001
0000
1000
0000
0010
0100
0000
0100
,
0001
0000
0010
0000
0100
1000
0000
1000
0001
0000
0100
0000
0010
1000
0000
1000
,
0001
0010
0001
1000
0000
1000
0010
1000
0001
0010
0001
0100
0000
0100
0010
1000
,
0MM2
0000
1003
0000
0100
0010
0001
0100
0010
1000
0000
0001
0000
1000
0100
0010
,
0001
0000
0100
0000
0010
1000
0001
1000
0100
0010
0000
0001
0000
1000
0010
0100
,
0001
0000
0010
0000
0100
1000
0001
1000
0010
0100
0000
0001
0000
0010
0100
0010
,
0001
0000
1000
0000
0010
0100
0001
0100
0010
1000
0000
0001
0000
0010
0100
1000
,
0001
0200
0320
0032
0013
2000
3200
0320
,
0031
2000
3020
0032
0013
0200
0302
0023
,
0230
1300
0100
0010
0002
0103
0010
1000
,
0002
0000
0013
0000
0001
0000
1000
0000
0020
0000
0130
0001
1000
0000
0100
0000
,
M11M
0000
0010
0000
0001
1000
0010
1000
0001
0100
0000
0001
0000
1000
0100
0010
,
0100
0000
0010
0000
0001
1000
0010
1000
0001
0010
0000
0100
0000
1000
0001
0100
,
0010
0000
1000
0000
0100
0010
0001
1000
0010
0100
0000
0001
0000
0010
0100
1000
,
0001
0000
0000
0000
0000
0000
0000
0000
0000
0000
0000
0000
0000
0000
0000
0000
0000
0000
0000
0000
0000
0000
0000
0000
0100
0000
0000
0000
0000
0000
0000
0000
0000
0000
0000
0000
0000
0000
0000
0000
0000
0000
0000
0000
0000
0000
0000
0000
0010
0000
0000
0000
0000
0000
0000
0000
0000
0000
0000
0000
1000
0000
0000
0000
0000
0000
0000
0000
0000
0000
0000
0000
0001
0000
0000
0000
0000
0000
0000
0000
0000
0000
0000
0000
0010
0000
0000
0000
0000
0000
0000
0000
0000
0000
0000
0000
0100
0000
0000
0000
0000
0000
0000
0000
1000
0000
0000
0000
0000
0000
0000
0000
0001
0000
0000
0000
0000
0000
0000
0000
2MM0
0000
0000
0000
0000
0000
0000
0000
0000
0000
0000
0000
0000
0000
0000
0000
0000
0000
0000
0000
0000
0000
0000
0000
0000
0000
0000
0000
0000
0000
0000
0000
0000
0000
0000
0000
0000
0000
0000
0000
0000
0000
0000
0000
0000
0000
0000
0000
0000
0000
0000
0000
0000
0000
0000
0000
0000
0000
0000
0000
0000
0000
0000
0000
0000
0000
0000
0000
0000
3000
0000
0000
,
01M1
0000
0001
0000
1000
0100
0000
0100
0010
0000
0001
0000
1000
0010
0000
0010
,
0100
0000
0001
0000
0010
0100
0000
0100
1000
0000
0001
0000
1000
0010
0000
0010
,
0100
0001
1000
0100
0000
0010
0001
1000
0000
0010
0100
0001
0000
1000
0100
0010
,
0001
0000
0000
0100
0000
0010
1000
0001
1000
0000
0000
0100
0000
0010
0001
1000
,
0M2M
0000
0130
0001
1000
0000
0100
0010
0100
0010
0001
0000
1000
0000
0020
0000
,
0130
0001
0100
0001
0100
0010
2000
0000
3100
0010
0001
0000
1000
0000
0010
0000
,
0100
0001
0100
0001
1000
0000
0100
0010
0100
0010
0001
0000
2000
0000
3001
0000
,
0020
0230
2300
3002
,
M2M3
0000
0310
0000
0000
2000
3200
0320
,
0000
0000
0000
0000
0000
0000
0230
0000
1300
0001
0100
0000
0010
0000
0100
0000
,
M001
0020
0032
2003
,
3010
0000
0100
0001
0000
0100
0001
0000
4000
0000
3100
0010
0000
0100
20MM
0000
,
0000
0000
0000
0000
0000
3020
0230
2300
,
0000
0000
3400
0310
,
20MM
0000
3100
0000
0000
0020
0032
2003
,
0000
0000
0000
0000
,
30M1
0200
0320
0032
,
0023
0000
0000
2030
0000
0000
3200
0320
,
0031
0000
0000
0000
0100
0010
0000
0010
1000
0001
1000
0000
0100
0010
0000
0010
,
0001
0000
0001
0000
1000
0010
0000
0010
0100
0000
0001
1000
0100
0000
0010
0000
,
1MM1
0000
0001
0100
0010
0000
1000
0100
,
0010
0000
0000
0000
0001
0000
0100
0000
0010
1000
0001
1000
0100
1000
0001
0100
,
M020
0000
0130
0001
1000
0000
0100
1000
,
0001
0000
0000
0100
0000
0000
0010
0000
0000
1000
0000
0000
0001
0000
0000
1000
0100
1000
0001
0000
0000
0100
0000
0000
,
2M1M
0000
3100
0010
0001
0000
1000
0010
,
0100
0000
0000
0000
0001
0000
0010
0000
0100
1000
0001
1000
0010
1000
0001
0010
,
M200
0000
0310
0001
1000
0000
0010
0100
,
0001
0000
0000
0000
1000
0100
1000
0100
0010
0000
0000
0010
0000
0001
1000
0001
,
M2M0
0000
0000
0000
0310
0000
1000
0001
0100
0010
1000
0000
0100
0010
0000
0010
,
0001
0000
1000
0000
0001
0010
0000
0010
0100
1000
0001
1000
0010
1000
0001
0100
,
M010
0100
0001
0000
1000
0000
0100
0010
0001
1000
0010
0000
0100
0001
0000
0001
,
1000
0000
0000
0100
0000
0000
0010
0000
0000
0001
0000
0000
1000
0000
0000
0010
0100
0001
0100
0000
0000
0010
0000
0000
,
1MM1
0000
1000
0000
0010
0000
0100
0001
0100
0010
1000
0000
0100
0010
0000
0010
,
0001
0000
1000
0000
0001
0100
0000
0100
0010
1000
0001
1000
0100
1000
0001
0010
,
M100
0010
0001
0000
1000
0000
0100
0010
0001
1000
0010
0000
0100
0001
1000
0001
,
0010
0000
0100
0000
1000
0001
1000
0001
0100
0000
0010
0100
0000
0001
1000
0100
,
M01M
0000
0000
0000
;
