#TITLE:Sentimental Generation;
#SUBTITLE:- School Rumble Nigakki Opening;
#ARTIST:Ami Tokito;
#TITLETRANSLIT:;
#SUBTITLETRANSLIT:;
#ARTISTTRANSLIT:;
#CREDIT:Jubo;
#BANNER:SchoolRumbleNigakki-OP-Banner.png;
#BACKGROUND:SR - Tenma (800x600).jpg;
#LYRICSPATH:SchoolRumble2-OP-Lyrics.lrc;
#CDTITLE:Jubo.png;
#MUSIC:Ami Tokito - Sentimental Generation (TV Size).mp3;
#OFFSET:1.480;
#SAMPLESTART:53.004;
#SAMPLELENGTH:29.000;
#SELECTABLE:YES;
#BPMS:0.000=142.040;
#STOPS:;
#BGCHANGES:3.500=School Rumble Nigakki OP Video (320x240).avi=1.000=1=0=0,
210.500=SR - Yakumo (800x600).jpg=1.000=1=0=0,
99999=-nosongbg-=1.000=0=0=0 // don't automatically add -songbackground-
;
// cache tags:
#FIRSTBEAT:4.000;
#LASTBEAT:214.500;
#SONGFILENAME:Songs/Otaku's Dream 1st Anime Mix/Jubo - School Rumble Nigakki OP/School Rumble Nigakki OP.sm;
#HASMUSIC:1;
#HASBANNER:1;
#MUSICLENGTH:89.888;
// end cache tags

//---------------dance-single - ----------------
#NOTES:
     dance-single:
     :
     Challenge:
     9:
     0.779,0.713,0.601,0.701,0.122,373.000,54.000,63.000,0.000,0.000:
0000
0000
0000
0000
,
1001
0000
1000
0100
0001
0010
1000
0100
,
0101
0000
0001
0010
1000
0100
0001
0010
,
1010
0000
0010
1000
0100
0001
0010
1000
,
1100
0000
0100
0001
0010
1000
0100
0001
,
0011
0000
1000
0001
0100
0010
1000
0010
,
0001
0100
0001
0010
1000
0100
0001
1000
,
2010
0000
0020
3030
0100
1000
0010
0100
,
0001
0010
0011
0011
2002
0000
0000
3003
,
0110
0110
1010
0001
0100
0001
1000
0001
,
0100
0000
0010
0000
1000
0000
0010
0000
0001
0010
0001
0010
0022
0000
0000
0000
,
0033
0000
2020
3030
2001
0000
3002
0000
,
0013
0100
2000
0000
3001
0000
0110
0110
,
0010
0000
0001
0000
1000
0000
0000
0002
0000
0000
1000
0000
0100
0000
1000
0000
,
0100
1003
1000
0100
0010
0001
0010
0100
,
1000
0001
1000
0001
1001
0000
0000
0000
1000
0000
0001
0000
0100
0000
1000
0000
,
0001
0100
0001
0010
0010
0001
0100
1000
,
0001
0010
0001
1000
0100
0100
1000
0001
,
0010
0100
0202
0000
0303
1000
2000
0000
,
0010
0010
3010
0100
0001
0010
0200
0000
,
0301
0000
0020
0000
0000
0000
0130
0000
2000
0000
0000
0000
3020
0000
0000
0100
,
0030
0000
1000
0000
0010
0100
1000
0200
0000
0000
0000
0000
1300
0000
0001
0000
,
0001
0000
0010
0000
0100
0010
0001
0020
0000
0000
0000
0000
0031
0000
0100
0010
,
0100
0010
0100
0010
0220
0000
0000
0330
2000
0000
0001
0000
0001
0000
3001
0000
,
0200
0301
0020
0031
2000
3001
0200
0301
,
0020
0031
0001
1000
0001
1000
0100
0010
,
0100
0010
1001
1001
2001
0001
0010
0010
,
3100
0100
0220
0300
0032
1000
1000
1003
,
0020
1030
0200
1300
0002
1003
0020
1030
,
0200
1300
1000
0100
0001
0010
1000
0100
,
0001
0000
1000
0010
0002
0000
1000
0000
0100
0000
0100
0000
0010
0000
0010
0000
,
0103
0100
1100
0100
0110
0010
0011
0001
,
1001
0000
1000
0001
0100
0010
1000
0010
,
0001
0100
0001
0010
1000
0100
0001
1000
,
2010
0000
0020
3030
0010
0100
0010
0001
,
1000
0000
0100
0000
1100
0000
0000
0000
2020
0000
3030
0000
0100
0010
0100
0000
,
0110
0110
1010
0001
0100
0001
1000
0001
,
0010
0000
0100
0000
0001
0000
0100
0000
1000
0100
1000
0100
2200
0000
0000
0000
,
3300
0000
2020
3030
2001
0000
3002
0000
,
0013
0000
0100
0000
2000
0000
0000
0000
3001
0000
0000
0000
0001
1000
0001
0000
,
0001
1000
0001
1000
0001
0000
0001
0000
0100
0000
0010
0000
1000
0000
0010
0000
,
0001
0100
0001
0010
1000
0100
0001
1000
,
2010
0000
0020
3030
0100
1000
0010
0100
,
0001
0010
0011
0011
2002
0000
0000
3003
,
0110
0110
1010
0001
0100
0001
1000
0001
,
0100
0000
0010
0000
1000
0000
0010
0000
0001
0010
0001
0010
0022
0000
0000
0000
,
0033
0000
2020
3030
2001
0000
3002
0000
,
0013
0100
2000
0000
3001
0000
0110
0110
,
0010
0001
1000
0100
0001
0010
1000
0100
,
0101
0000
0001
0010
1000
0100
0001
0010
,
1010
0000
0010
1000
0100
0001
0010
1000
,
1100
0000
0010
1000
0100
0001
0010
1000
,
0001
0100
0010
1000
0010
0110
0000
0000
,
2002
0000
0000
3003
0000
0000
0000
0000
;

//---------------dance-single - ----------------
#NOTES:
     dance-single:
     :
     Hard:
     8:
     0.706,0.653,0.623,0.756,0.028,320.000,56.000,68.000,0.000,0.000:
0000
0000
0000
0000
,
1001
0000
1000
0100
0001
0010
1000
0100
,
0101
0000
0001
0010
1000
0100
0001
0010
,
1010
0000
0010
1000
0100
0001
0010
1000
,
1100
0000
0100
0001
0010
1000
0100
0001
,
0011
0000
1000
0001
0100
0010
1000
0010
,
0001
0100
0001
0010
1000
0100
0001
1000
,
2020
0000
0000
3030
0100
1000
0010
0100
,
0001
0010
0011
0011
2002
0000
0000
3003
,
0110
0110
1010
0001
0100
0001
1000
0001
,
0100
0010
1000
0010
0001
0001
0022
0000
,
0033
0000
2020
3030
2001
0000
3002
0000
,
0013
0100
2000
0000
3001
0000
0110
0110
,
0010
0000
0001
0000
1000
0000
0000
2002
0000
0000
0000
0000
0000
0000
0000
0000
,
0000
3003
1000
0100
0010
0001
0010
0100
,
1000
0001
1001
0000
1000
0001
0100
1000
,
0001
0100
0001
0010
0010
0001
0100
1000
,
0001
0010
0001
1000
0100
0100
1000
0001
,
0010
0100
0202
0000
0303
1000
2020
0000
,
0000
0000
3030
0000
2000
3010
0200
0000
,
0301
0000
0020
0000
0000
0000
0130
0000
2000
0000
0000
0000
3020
0000
0000
0100
,
0030
0000
1000
0000
0010
0000
1000
0200
0000
0000
0000
0000
1300
0000
0001
0000
,
0001
0000
0010
0000
0100
0000
0001
0020
0000
0000
0000
0000
0031
0000
0010
0000
,
0100
0000
0010
0000
0220
0000
0000
0330
2000
0000
0000
0000
0000
0000
3001
0000
,
0200
0301
0020
0031
2000
3001
0200
0301
,
0020
0031
0001
1000
0001
1000
0100
0010
,
0100
0010
1001
1001
2002
0000
0000
0000
,
3003
0000
2000
0000
3002
0000
0000
1003
,
0020
1030
0200
1300
0002
1003
0020
1030
,
0200
1300
1000
0100
0001
0010
1000
0100
,
0001
0001
1002
0000
0100
0000
0010
0000
,
0103
0101
1010
0011
,
1001
0000
1000
0001
0100
0010
1000
0010
,
0001
0100
0001
0010
1000
0100
0001
1000
,
2020
0000
0000
3030
0010
0100
0010
0001
,
1000
0100
1100
0000
2020
0000
0000
3030
,
0110
0110
1010
0001
0100
0001
1000
0001
,
0010
0100
0001
0100
1000
1000
2200
0000
,
3300
0000
2020
3030
2001
0000
3002
0000
,
0013
0100
2000
0000
3001
0000
0010
0010
,
0100
0100
1000
0001
0100
0010
1000
0010
,
0001
0100
0001
0010
1000
0100
0001
1000
,
2020
0000
0000
3030
0100
1000
0010
0100
,
0001
0010
0011
0011
2002
0000
0000
3003
,
0110
0110
1010
0001
0100
0001
1000
0001
,
0100
0010
1000
0010
0001
0001
0022
0000
,
0033
0000
2020
3030
2001
0000
3002
0000
,
0013
0100
2000
0000
3001
0000
0110
0110
,
0010
0000
0001
0000
1000
0000
0000
2002
0000
0000
0000
0000
0000
0000
0000
0000
,
3003
0000
0001
0010
1000
0100
0001
0010
,
1010
0000
0010
1000
0100
0001
0010
1000
,
1100
0000
0010
1000
0100
0001
0010
1000
,
0001
0100
0010
1000
0010
0110
0000
0000
,
2002
0000
0000
3003
0000
0000
0000
0000
;

//---------------dance-single - ----------------
#NOTES:
     dance-single:
     :
     Medium:
     6:
     0.520,0.537,0.356,0.812,0.000,222.000,32.000,73.000,0.000,0.000:
0000
0000
0000
0000
,
1001
0000
0001
0001
1000
1000
0100
0100
,
0101
0000
0001
0001
0100
0100
0010
0010
,
1010
0000
1000
1000
0001
0001
1000
1000
,
1001
0000
0100
0100
0010
0010
0001
0001
,
0011
2000
3002
0023
,
0230
0000
2300
0000
3020
0000
0230
0300
,
2002
0000
0000
3003
1000
0000
0001
0000
,
0010
0000
0110
0000
0220
0000
0000
0330
,
0000
1000
0001
0010
,
0100
0000
1000
0000
1000
0001
2000
0000
,
3000
0001
0010
1000
,
0010
0100
2002
0000
0000
3003
0020
0000
,
0100
0100
0200
0000
,
0330
2000
3200
0302
,
2003
0000
0000
0000
0000
0000
0000
0000
0000
0000
0000
0000
0000
0000
0000
0000
0000
0000
0000
0000
0000
0000
0000
0000
0000
0000
0000
0000
0000
0000
0000
0000
0000
0000
0000
0000
0000
0000
0000
0000
0000
0000
0000
0000
0000
0000
0000
0000
0001
3000
0000
0000
0000
0000
0000
0000
0000
0000
0000
0000
0000
0000
0000
0000
0000
0000
0000
0000
0000
0000
0000
0000
0000
0000
0000
0000
0000
0000
0000
0000
0000
0000
0000
0000
0000
0000
0000
0000
0000
0000
0000
0000
0000
0000
0000
0000
1000
0000
0000
0000
0000
0000
0000
0000
0000
0000
0000
0000
0000
0000
0000
0000
0000
0000
0000
0000
0000
0000
0000
0000
0001
0000
0000
0000
0000
0000
0000
0000
0000
0000
0000
0000
0000
0000
0000
0000
0000
0000
0000
0000
0000
0000
0000
0000
1000
0000
0000
0000
0000
0000
0000
0000
0000
0000
0000
0000
0000
0000
0000
0000
0000
0000
0000
0000
0000
0000
0000
0000
0001
0000
0000
0000
0000
0000
0000
0000
0000
0000
0000
0000
0000
0000
0000
0000
0000
0000
0000
0000
0000
0000
0000
0000
,
1000
0001
2000
0000
0000
0000
0000
0000
,
3000
0000
1001
0000
0010
0100
0010
0100
,
0010
0100
0020
0000
0030
1000
0200
0000
,
0000
0300
1001
0010
,
0100
0010
1100
1000
,
0010
0100
0101
0000
,
1000
0010
0100
1000
,
0001
2000
3002
0000
,
0203
0320
2030
3200
,
0320
0000
0031
0001
0001
0001
1000
1000
,
1000
1000
1001
0000
2002
0000
0000
0000
,
3003
2000
3002
0000
,
0023
0230
0302
0023
,
0230
0000
1300
1000
1000
1000
0001
0001
,
0001
0001
2002
0000
0000
0000
0000
0000
,
3003
0101
1010
0011
,
1001
2000
3002
0023
,
0230
0000
2300
0000
3020
0000
0230
0300
,
2002
0000
0000
3003
0001
0000
1000
0000
,
0100
0000
1001
0000
2002
0000
0000
3003
,
0000
1000
0001
0010
,
0100
0000
1000
0000
1000
0001
2000
0000
,
3000
0001
0010
1000
,
0010
0100
2002
0000
0000
3003
0010
0010
,
0100
0100
2000
0000
3002
0000
0023
0000
,
0230
0000
2300
0000
3020
0000
0230
0300
,
2002
0000
0000
3003
1000
0000
0001
0000
,
0010
0000
0110
0000
0220
0000
0000
0330
,
0000
1000
0001
0010
,
0100
0000
1000
0000
1000
0001
2000
0000
,
3000
0001
0010
1000
,
0010
0100
2002
0000
0000
3003
0020
0000
,
0100
0100
0200
0000
,
0330
0000
0010
0010
1000
1000
0001
0001
,
0101
0000
1000
1000
0001
0001
1000
1000
,
1001
0000
1000
1000
0100
0010
0001
0001
,
0010
0100
1000
1000
0001
1001
0000
0000
,
2002
0000
0000
0000
0000
3003
0000
0000
;

//---------------dance-single - ----------------
#NOTES:
     dance-single:
     :
     Easy:
     4:
     0.359,0.388,0.245,0.478,0.000,161.000,22.000,43.000,0.000,0.000:
0000
0000
0000
0000
,
1001
0001
1000
0100
,
0101
0001
1000
0010
,
1010
1000
0001
1000
,
1001
0100
0010
0001
,
0011
0001
0001
0100
,
0100
0010
0010
1000
,
2000
0000
3020
0000
,
0000
0030
0200
0000
0000
0000
0000
0300
,
0000
1000
1000
0010
,
0010
0100
0100
0002
,
0000
0003
0020
0000
0000
0030
0200
0000
,
0000
0300
2000
0000
0000
0000
3001
0000
,
0001
2002
0000
0000
,
3003
2000
3002
0203
,
0320
0130
1000
1000
,
1000
2000
0000
0000
,
3000
1000
0001
0001
,
0001
0002
0000
0023
,
0000
0030
1100
0100
,
1000
0100
1100
0100
,
0010
0100
0110
0010
,
0001
0010
0101
1000
,
0001
2000
3002
0000
,
0103
0010
1000
0100
,
0010
0001
0001
1000
,
1000
1001
2002
0000
,
3003
2000
3002
0000
,
0013
0100
0001
0010
,
0100
1000
1000
0001
,
0001
2002
0000
0000
,
3003
1001
1001
1001
,
1001
0001
0001
0100
,
0100
0010
0010
1000
,
2000
0000
3002
0000
,
0023
0000
0000
0000
2030
0000
0000
3000
,
0000
1000
1000
0010
,
0010
0100
0100
0002
,
0000
0003
0020
0000
0000
0030
0200
0000
,
0000
0300
2000
0000
0000
0000
3001
0000
,
0100
0001
0001
0100
,
0100
0010
0010
1000
,
2000
0000
3020
0000
,
0000
0030
0200
0000
0000
0000
0000
0300
,
0000
1000
1000
0010
,
0010
0100
0100
0002
,
0000
0003
0020
0000
0000
0030
0200
0000
,
0000
0300
2000
0000
0000
0000
3001
0000
,
0001
2002
0000
0000
,
3003
0010
1000
0001
,
0101
1000
0001
1000
,
1001
1000
0100
0001
,
0010
0000
1000
0000
0001
1001
0000
0000
,
2002
0000
0000
0000
0000
3003
0000
0000
;

//---------------dance-single - ----------------
#NOTES:
     dance-single:
     :
     Beginner:
     2:
     0.173,0.209,0.111,0.189,0.000,82.000,10.000,17.000,0.000,0.000:
0000
0000
0000
0000
,
1001
0000
0000
0000
,
1001
0000
0000
0000
,
1001
0000
0000
0000
,
1001
0000
0000
0000
,
1001
0000
1000
0000
,
1000
0000
0010
0000
,
0010
0000
0000
0000
,
0000
1000
1000
0000
,
0000
0010
0000
0010
,
0000
1000
0000
0010
,
0000
0100
0000
0100
,
0000
0020
0000
0000
,
0030
0200
0000
0000
,
0300
1000
0000
0001
,
0000
1001
0000
0000
,
0000
2000
0000
0000
,
3000
0000
0001
0001
,
0001
0002
0000
0023
,
0000
0030
1000
0000
,
0100
0000
0010
0000
,
0001
0000
0100
0000
,
0010
0000
1000
0000
,
0001
0002
0000
0000
,
0003
0000
1000
0000
,
0010
0000
0001
0000
,
1000
0000
2000
0000
,
3000
0002
0000
0000
,
0003
0000
0001
0000
,
0100
0000
1000
0000
,
0001
0002
0000
0000
,
0003
0001
0001
0001
,
0001
0000
0001
0000
,
0100
0000
0010
0000
,
2000
0000
3000
0010
,
0000
0000
0020
0000
0000
0000
0000
0030
,
0000
0010
0000
0010
,
0000
1000
0000
0010
,
0000
0020
0000
0000
,
0030
0200
0000
0300
,
0000
0000
1000
0000
,
1000
0000
0010
0000
,
0010
0000
0000
0000
,
0000
1000
1000
0000
,
0000
0010
0000
0010
,
0000
1000
0000
0010
,
0000
0100
0000
0100
,
0000
0020
0000
0000
,
0030
0200
0000
0000
,
0300
0000
0000
0000
,
1001
0000
0000
0000
,
1001
0000
0000
0000
,
0000
0000
0000
0000
0000
1001
0000
0000
,
2002
0000
0000
0000
0000
3003
0000
0000
;
