#TITLE:Music Pleeze;
#SUBTITLE:;
#ARTIST:B. Dastardly;
#TITLETRANSLIT:;
#SUBTITLETRANSLIT:;
#ARTISTTRANSLIT:;
#CREDIT:;
#BANNER:Music Pleeze-banner.png;
#BACKGROUND:Music Pleeze-bg.png;
#LYRICSPATH:;
#CDTITLE:;
#MUSIC:music.ogg;
#OFFSET:0.007;
#SAMPLESTART:39.680;
#SAMPLELENGTH:11.940;
#SELECTABLE:YES;
#BPMS:0.000=124.000;
#STOPS:;
#BGCHANGES:-10000.000=songbackground=1.000=0=0=1,
0.000=Music Pleeze-bg.png=1.000=0=0=1,
16.000=In The Groove 2/759_JumpBack.mpg=1.000=0=0=1,
32.000=In The Groove 2/957_JumpBack.mpg=1.000=0=0=1,
82.000=In The Groove 2/957_JumpBack.mpg=1.000=0=0=1,
98.000=In The Groove 2/957_JumpBack.mpg=1.000=0=0=1,
112.000=Music Pleeze-bg.png=1.000=0=0=1,
151.000=In The Groove 2/759_JumpBack.mpg=1.000=0=0=1,
153.000=In The Groove 2/759_JumpBack.mpg=1.000=0=0=1,
154.000=In The Groove 2/921_JumpBack.mpg=1.000=0=0=1,
218.000=Music Pleeze-bg.png=1.000=0=0=1,
99999=-nosongbg-=1.000=0=0=0 // don't automatically add -songbackground-
;
// cache tags:
#FIRSTBEAT:14.000;
#LASTBEAT:218.000;
#SONGFILENAME:Songs/In The Groove 2 (Official)/Music Pleeze/Music Pleeze.sm;
#HASMUSIC:1;
#HASBANNER:1;
#MUSICLENGTH:107.419;
// end cache tags

//---------------dance-single - C. Foy----------------
#NOTES:
     dance-single:
     C. Foy:
     Easy:
     4:
     0.293,0.330,0.102,0.279,0.000,179.000,11.000,30.000,0.000,0.000:











0000
0000
0000
0000
,
0000
0000
0000
0000
,
0000
0000
0000
0000
,
0000
0000
0000
0000
,
2000
3000
0001
0001
,
0200
0300
0010
0010
,
2000
3000
0100
0100
,
0020
0030
0001
0001
,
0200
0300
0010
1000
,
0200
0300
0010
0001
,
0200
0300
0010
0100
,
0002
0003
0010
0100
,
2002
3003
0000
1000
,
2200
3300
0000
0001
,
0022
0033
0000
1000
,
2200
3300
1000
0001
,
0022
0033
0000
0000
,
2020
3030
0000
0000
,
0202
0303
0000
0000
,
1000
0100
1000
0100
,
1000
1000
0002
0003
,
1000
1000
1000
0000
0200
0000
0300
0000
,
0010
0010
0010
0000
0002
0000
0003
0000
,
0100
0100
0100
0000
0020
0000
0030
0000
,
1000
1000
1000
0000
0020
0000
0030
0000
,
1000
0010
1000
0000
0002
0000
0003
0000
,
0100
0001
0100
0000
0020
0000
0030
0000
,
1000
0010
1000
0000
0200
0000
0000
0000
,
0010
0010
0310
0000
0001
0000
1000
0000
,
0001
0001
1000
0000
0001
0000
1000
0000
,
0010
0010
0100
0000
0010
0000
0100
0000
,
0001
0010
0001
0000
1000
0000
0010
0000
,
0100
0010
0100
0000
0001
0000
0010
0000
,
0100
1000
0100
0000
0010
0000
0001
0000
,
0100
0001
0100
0000
0010
0000
1000
0000
,
0100
1000
0100
0000
0010
0000
0001
0000
,
0100
0010
1001
0000
,
0000
0000
0000
0000
,
0000
0000
1001
0000
,
1000
0100
1000
0100
0000
0000
0000
0000
,
0010
0001
0010
0001
0000
0000
0000
0000
,
0100
0010
0100
0010
0000
0000
0000
0000
,
1000
0010
1000
0010
0000
0000
0000
0000
,
0100
0001
0100
0001
0000
0000
0000
0000
,
1000
0001
1000
0001
0000
0000
0000
0000
,
1000
0010
1000
0010
0000
0000
0000
0000
,
1001
0110
0010
0000
,
1000
0100
1000
0100
0000
0000
1000
0000
,
0010
0100
0000
0001
,
0010
0100
0010
0100
0000
0000
0000
0000
,
1000
0001
1000
0001
0000
0000
0000
0000
,
1000
0100
1000
0100
0000
0000
0000
0000
,
1000
0010
1000
0010
0000
0000
0000
0000
,
1000
0100
0010
0001
0000
0000
0000
0000
,
0001
0010
0100
1000
1000
0000
0000
0000
;

//---------------dance-single - M. Puls----------------
#NOTES:
     dance-single:
     M. Puls:
     Medium:
     6:
     0.350,0.381,0.158,0.102,0.000,235.000,17.000,11.000,0.000,0.000:

0000
0000
0000
0000
,
0000
0000
0000
0000
,
0000
0000
0000
0000
,
0000
0000
0200
1300
,
1000
0001
0000
0000
0001
1000
0000
0000
,
0001
0000
0100
0010
1000
0000
0001
0001
,
0000
0000
1000
0010
0100
0000
1000
0001
,
0000
0000
0100
0000
0100
0100
0100
0000
,
0100
0000
1000
0000
1000
1000
1000
0000
,
1000
0000
0010
0100
0001
0000
1000
1000
,
0000
0000
0001
0100
0010
0000
0001
1000
,
0000
1001
0100
1001
,
0100
0000
0100
0000
0100
0100
0100
0000
,
0001
0000
0001
0000
0001
0001
0001
0000
,
0010
0000
0100
0000
1000
0100
0010
0000
,
0001
0001
0200
0310
,
1000
0000
0000
1000
0001
0000
0000
0000
,
1000
0000
0000
1000
0001
0000
0000
0000
,
1000
0000
0000
1000
0001
0000
0000
0000
,
1000
0000
1000
0001
1000
0001
1000
0000
,
1020
0130
1001
1001
,
0100
0000
0010
0001
0100
0000
1000
0010
,
0001
0000
0010
0100
0010
0000
0001
0000
,
1000
0000
0001
0010
0000
0000
0010
0000
,
1000
0010
0001
0010
0200
0000
0310
0000
,
0001
0000
1000
0010
,
0011
0000
0100
0000
0110
0000
0000
0001
,
1000
0000
0000
0000
0001
0010
0100
0000
,
0200
0310
0001
1000
,
1000
0100
0010
0000
0001
0010
0001
1000
,
0010
0100
0001
0000
1000
0000
1000
0000
,
0001
0000
0001
0001
0000
0002
0000
1003
,
0100
0010
0001
0000
0010
0000
0000
0000
,
1000
0100
0010
0000
0001
0010
0001
1000
,
0010
0100
0001
0000
1000
0000
1000
0000
,
0001
0000
0001
0001
0000
0002
0000
1003
,
0100
0010
0001
0000
0220
0000
0000
0000
,
0000
0000
0000
0000
0000
0000
0000
0330
,
0100
0010
1001
1001
,
0100
0000
0010
0001
0100
0000
1000
0010
,
0001
0000
0010
0100
0010
0000
0001
0000
,
1000
0000
0001
0010
0000
0000
0010
0000
,
1000
0010
0001
0010
0100
0000
0001
0000
,
0001
1000
1000
0010
,
0011
0000
0100
0000
0110
0000
0000
0001
,
1000
0000
0000
0000
0001
0010
0100
0000
,
0200
0310
0011
1000
,
1000
0100
0010
0000
0001
0010
0001
1000
,
0010
0100
0001
0000
1000
0000
1000
0000
,
0001
0001
1100
0100
,
0010
0010
0010
0000
0000
0000
0010
0000
,
0100
0100
0100
0000
1001
0000
0100
0000
,
1001
0000
0100
0010
0100
0000
0000
0000
,
1000
0001
0010
0100
0000
0000
0100
0010
,
2000
3100
1001
0000
;

//---------------dance-single - C. Foy----------------
#NOTES:
     dance-single:
     C. Foy:
     Challenge:
     9:
     0.594,0.583,0.205,0.056,0.456,419.000,22.000,6.000,0.000,0.000:









0000
0000
0000
0000
,
0000
0000
0000
0000
,
0000
0000
0000
0000
,
0000
0000
1100
0101
,
0000
1000
0001
0000
0100
0010
0100
0000
0001
0000
0010
0000
0100
0000
1000
0000
,
0000
1000
0010
0100
0001
0010
0100
1000
,
0000
0010
0100
0010
0001
0010
0100
0001
,
0000
0001
1000
0000
0010
1000
0010
0000
1000
0000
0100
0000
0010
0000
0001
0000
,
0000
0001
0100
0000
0010
1000
0010
0000
1000
0000
0100
0000
0010
0000
0100
0000
,
0000
0010
1000
0010
0001
0100
0010
1000
,
0000
1000
0100
0001
0100
1000
0010
0100
,
0000
0100
0001
0000
0010
0001
0010
0000
0100
0000
1000
0000
0010
0000
0100
0000
,
0002
0000
0000
0000
1003
0000
0000
0000
0000
0000
0001
0000
1000
0000
0001
0010
,
0100
1000
0100
0010
0001
0000
0001
0000
0000
0000
0100
0000
0010
0000
1000
0100
,
1000
0010
1000
0100
1000
0000
0001
0000
0000
0000
0100
0000
0010
0000
1000
0010
,
0100
0001
0010
0001
0100
0000
0000
0000
0011
0000
0000
0000
1100
0000
0000
0000
,
1000
0000
0000
0001
0100
0000
1000
0000
0100
0000
0010
0000
1000
0000
0000
0000
,
0100
0000
0000
0010
0100
0000
0001
0000
0100
0000
0010
0000
0001
0000
0000
0000
,
0100
0000
0000
0010
1000
0000
0100
0000
0001
0000
0100
0000
1000
0000
0000
0000
,
0000
1000
0100
1000
0100
1000
0001
1000
0001
0010
0100
1000
0100
0010
0001
0010
,
0002
0000
0000
0003
2000
0000
0000
3000
0000
1000
0001
0000
0100
0010
1000
0000
,
0100
0010
1000
0010
0000
0001
0100
0010
,
1000
0010
0100
0001
0000
0010
0001
0100
,
0010
0000
1000
0000
0010
0000
0100
0000
0000
0010
0100
0000
0010
1000
0100
0000
,
0010
0000
1000
0000
0010
0000
0001
0000
0000
0001
0100
0000
0010
1000
0100
0000
,
1000
0010
0001
0010
0000
0100
0010
1000
,
0010
0001
0010
1000
0000
1000
0100
0001
,
0100
0000
0010
0000
0001
0000
0100
0000
0000
0100
0001
0000
0010
0001
1000
0000
,
0200
0000
2000
0300
0020
3000
0000
0030
1000
0000
0001
1000
0100
0010
0000
0001
,
0000
0010
0000
0100
0000
1000
0010
0100
0010
0000
0010
0000
1000
0100
0000
0010
,
0000
0001
0000
0100
0010
1000
0001
0000
0011
0000
0000
0001
1000
0010
0000
0100
,
0000
0010
0000
1000
0000
1000
0100
0010
0001
0000
1001
0000
1000
0010
0000
0110
,
0000
0101
0000
0001
0100
0010
1000
0000
1001
0000
0010
1000
0001
0100
0000
0001
,
0000
0010
0000
0001
0000
0100
0001
1000
0010
0000
1000
0000
1000
0010
0000
0100
,
0000
0010
0000
0100
0001
0010
0100
0000
1000
0000
0000
0000
0000
0100
0000
0010
,
0000
0100
0000
1000
0001
0100
0001
0000
1000
0000
1010
0000
0010
0100
0000
0110
,
0000
1010
0000
1000
0010
0100
0001
0000
1001
0000
0100
0000
0001
0000
0000
0000
,
1000
0100
0001
0000
1100
0000
0101
0000
,
0110
0000
0000
0000
1001
0000
0000
0000
0000
1000
0001
0000
0100
0010
0001
0000
,
0010
0100
0001
0010
0000
0100
1000
0100
,
0001
0100
0010
0001
0000
0100
0010
0001
,
0010
0000
0100
0000
0001
0000
1000
0000
0000
0010
1000
0000
0010
0100
1000
0000
,
0100
0000
0010
0000
1000
0000
0100
0000
0000
0010
0100
0000
0010
0001
0100
0000
,
1000
0100
0010
0001
0000
0010
1000
0010
,
0100
1000
0100
0001
0000
1000
0100
0001
,
0100
0000
1000
0000
0010
0000
0100
0000
0000
0100
0001
0000
1000
0001
0010
0000
,
1001
0000
0100
0000
1001
0000
0100
0000
0000
0001
1000
0000
0010
0100
1000
0000
,
0100
0010
1000
0100
0000
0010
0001
0010
,
1000
0010
0100
1000
0000
0010
0100
1000
,
0100
0000
0010
0000
1000
0000
0001
0000
0000
0100
0001
0000
0100
0010
0001
0000
,
0010
0000
0100
0000
0001
0000
0010
0000
0000
0100
0010
0000
0100
1000
0010
0000
,
0001
0010
0100
1000
0000
0100
0001
0100
,
0010
0001
0010
1000
0000
0001
0010
1000
,
0010
0000
0001
0000
0100
0000
0010
0000
0000
0010
1000
0000
0001
1000
0100
0000
,
1001
0100
1100
1000
0101
0000
0000
0000
;

//---------------dance-single - C. Foy----------------
#NOTES:
     dance-single:
     C. Foy:
     Hard:
     7:
     0.488,0.406,0.093,0.344,0.158,320.000,10.000,37.000,0.000,0.000:

0000
0000
0000
0000
,
0000
0000
0000
0000
,
0000
0000
0000
0000
,
0000
0000
0110
1001
,
0000
0000
0000
0000
1000
0000
0000
0001
0000
0000
0000
0000
0200
0000
0000
0000
0000
0000
0000
0000
0000
0300
0000
0000
0001
0000
0000
0000
0000
0000
0010
0000
0000
0000
0000
0000
0001
0000
0000
0000
0000
0000
0010
0000
0000
0000
0000
0000
,
0000
0100
1000
0100
0010
0100
1000
0100
,
0000
1000
0100
0010
0001
1000
0100
0010
,
0000
0000
0000
0000
0001
0000
0000
1000
0000
0000
0000
0000
0020
0000
0000
0000
0000
0000
0000
0000
0000
0030
0000
0000
1000
0000
0000
0000
0000
0000
0100
0000
0000
0000
0000
0000
1000
0000
0000
0000
0000
0000
0100
0000
0000
0000
0000
0000
,
0000
0000
0000
0000
1000
0000
0000
0100
0000
0000
0000
0000
2000
0000
0000
0000
0000
0000
0000
0000
0000
3000
0000
0000
0010
0000
0000
0000
0000
0000
0100
0000
0000
0000
0000
0000
0010
0000
0000
0000
0000
0000
0100
0000
0000
0000
0000
0000
,
0000
0010
1000
0010
0100
0010
1000
0010
,
0000
0100
0001
0100
0010
0100
0001
0100
,
0000
0000
0000
0000
0001
0000
0000
1000
0000
0000
0000
0000
0020
0000
0000
0000
0000
0000
0000
0000
0000
0030
0000
0000
0100
0000
0000
0000
0000
0000
0001
0000
0000
0000
0000
0000
0100
0000
0000
0000
0000
0000
0001
0000
0000
0000
0000
0000
,
2000
0000
3001
0000
0000
0001
1000
0000
,
0002
0000
1000
0003
0000
0001
0100
0000
,
0200
0000
0010
0300
0000
0100
0010
0000
,
0020
0000
1000
0030
0110
0000
1001
0000
,
1000
0000
0010
0000
0000
0010
1000
0000
,
0100
0000
0010
0000
0000
0010
0100
0000
,
1000
0000
0010
0000
0000
0100
0010
0000
,
0010
0000
0100
0000
0010
0000
0100
0000
0001
0000
1000
0000
0001
1000
0001
1000
,
0002
0000
0000
0000
0000
0000
0000
0000
0000
0003
0000
0000
2000
0000
0000
0000
0000
0000
0000
0000
0000
3000
0000
0000
0000
0000
0000
0000
0001
0000
0000
0100
0000
0000
0000
0000
0020
0000
0000
0000
0000
0000
0000
0000
0000
0030
0000
0000
,
1000
0100
1000
0100
0000
0010
0001
0010
,
0001
1000
0001
1000
0000
0001
0100
0001
,
0100
0000
0000
0000
0000
0000
0001
0000
0000
0000
0000
0000
0010
0000
0000
0000
0000
0000
0001
0000
0000
0000
0000
0000
0000
0000
0000
0000
0001
0000
0000
1000
0000
0000
0000
0000
0020
0000
0000
0000
0000
0000
0000
0000
0000
0030
0000
0000
,
1000
0000
0000
0000
0000
0000
0001
0000
0000
0000
0000
0000
1000
0000
0000
0000
0000
0000
0010
0000
0000
0000
0000
0000
0000
0000
0000
0000
1000
0000
0000
0100
0000
0000
0000
0000
2000
0000
0000
0000
0000
0000
0000
0000
0000
3000
0000
0000
,
0001
0010
0001
0010
0000
0001
1000
0001
,
1000
0010
0100
0010
0000
1000
0100
1000
,
0100
0000
0000
0000
0000
0000
0010
0000
0000
0000
0000
0000
0001
0000
0000
0000
0000
0000
0010
0000
0000
0000
0000
0000
0000
0000
0000
0000
0001
0000
0000
1000
0000
0000
0000
0000
0002
0000
0000
0000
0000
0000
0000
0000
0000
0003
0000
0000
,
2000
0000
0200
3000
0020
0300
0000
0030
0001
0000
0000
0000
0100
0000
0020
0000
,
0000
0030
1000
0000
0010
0000
0000
0000
1000
0000
0100
0000
1000
0000
0002
0000
,
0000
0003
0100
0000
0100
0000
0000
0000
0010
0000
1000
0000
0010
0000
0200
0000
,
0000
0300
0010
0000
0010
0000
0000
0000
1000
0000
0001
0000
1000
0000
0200
0000
,
0000
0300
0010
0000
0010
0000
0000
0000
0001
0000
0010
0000
0001
0000
2000
0000
,
0000
3000
0100
0000
0100
0000
0000
0000
1000
0000
0010
0000
1000
0000
0002
0000
,
0000
0003
0100
0000
0100
0000
0000
0000
0010
0000
0100
0000
0010
0000
2000
0000
,
0000
3000
0100
0000
0100
0000
0000
0000
0010
0000
0001
0000
0010
0000
0200
0000
,
0000
0300
1000
0000
1000
0000
0010
0000
1001
0000
0100
0000
0100
0000
0000
0000
,
1000
0100
1000
0000
1001
0000
1001
0000
,
0110
0000
0000
0000
0000
0000
0000
0000
0000
0000
0000
0000
0110
0000
0000
0000
0000
0000
0000
0000
0000
0000
0000
0000
0000
0000
0000
0000
1000
0000
0000
0001
0000
0000
0000
0000
2000
0000
0000
0000
0000
0000
0000
0000
0000
3000
0000
0000
,
0100
1000
0100
1000
0000
0001
0100
0001
,
0100
0010
1000
0010
0000
1000
0100
1000
,
0001
0000
0000
0000
0000
0000
1000
0000
0000
0000
0000
0000
0100
0000
0000
0000
0000
0000
1000
0000
0000
0000
0000
0000
0000
0000
0000
0000
0100
0000
0000
1000
0000
0000
0000
0000
0200
0000
0000
0000
0000
0000
0000
0000
0000
0300
0000
0000
,
0010
0000
0000
0000
0000
0000
0001
0000
0000
0000
0000
0000
0010
0000
0000
0000
0000
0000
0001
0000
0000
0000
0000
0000
0000
0000
0000
0000
1000
0000
0000
0100
0000
0000
0000
0000
2000
0000
0000
0000
0000
0000
0000
0000
0000
3000
0000
0000
,
0001
0100
0001
0100
0000
0010
0100
0010
,
0100
0001
0100
0001
0000
0010
0100
0010
,
0100
0000
0000
0000
0000
0000
1000
0000
0000
0000
0000
0000
0001
0000
0000
0000
0000
0000
1000
0000
0000
0000
0000
0000
0000
0000
0000
0000
0001
0000
0000
1000
0000
0000
0000
0000
0002
0000
0000
0000
0000
0000
0000
0000
0000
0003
0000
0000
,
2000
0000
0000
0000
0000
0000
0000
0000
0000
0000
0000
0000
3002
0000
0000
0000
0000
0000
0000
0000
0000
0000
0000
0000
0003
0000
0000
0000
0100
0000
0000
0010
0000
0000
0000
0000
2000
0000
0000
0000
0000
0000
0000
0000
0000
3000
0000
0000
,
0100
1000
0100
1000
0000
0001
1000
0001
,
1000
0100
1000
0100
0000
0010
0001
0010
,
0100
0000
0000
0000
0000
0000
1000
0000
0000
0000
0000
0000
0100
0000
0000
0000
0000
0000
1000
0000
0000
0000
0000
0000
0000
0000
0000
0000
0010
0000
0000
0100
0000
0000
0000
0000
0002
0000
0000
0000
0000
0000
0000
0000
0000
0003
0000
0000
,
0100
0000
0000
0000
0000
0000
0001
0000
0000
0000
0000
0000
0100
0000
0000
0000
0000
0000
0001
0000
0000
0000
0000
0000
0000
0000
0000
0000
0100
0000
0000
0010
0000
0000
0000
0000
2000
0000
0000
0000
0000
0000
0000
0000
0000
3000
0000
0000
,
0010
1000
0010
1000
0000
0001
1000
0001
,
0100
0010
0100
0001
0000
1000
0001
1000
,
0010
0000
0000
0000
0000
0000
1000
0000
0000
0000
0000
0000
0001
0000
0000
0000
0000
0000
1000
0000
0000
0000
0000
0000
0000
0000
0000
0000
0010
0000
0000
1000
0000
0000
0000
0000
0200
0000
0000
0000
0000
0000
0000
0000
0000
0300
0000
0000
,
2000
0000
0000
0000
3002
0000
0000
0003
1001
0000
0000
0000
0000
0000
0000
0000
;

//---------------dance-double - C. Emirzian----------------
#NOTES:
     dance-double:
     C. Emirzian:
     Hard:
     7:
     0.391,0.457,0.251,0.000,0.000,267.000,27.000,0.000,0.000,0.000:














00000000
00000000
00000000
00000000
,
00000000
00000000
00000000
00000000
,
00000000
00000000
00000000
00000000
,
00000000
00000000
00000000
00000000
,
10000000
01000000
00010000
00001000
,
00000100
00000001
00000010
00000100
,
00001000
00000010
00001000
00000010
00010000
00001000
00010000
00001000
,
00100000
01000000
00100000
01000000
10000000
00100000
01000000
00010000
,
00011000
00000000
00000100
00000010
00000000
00000100
00000010
00000000
,
00000011
00000000
00001000
00000100
00000000
00001000
00000010
00000000
,
00000100
00000001
00000010
00000000
00000100
00000000
00001000
00000001
,
00000000
00001000
00000010
00001000
00000000
00000010
00010000
00000000
,
00011000
00000000
00100000
01000000
00000000
00100000
01000000
00000000
,
10100000
00000000
00010000
00100000
00000000
00010000
01000000
00000000
,
00100000
10000000
00100000
00000000
10000000
01000000
00100000
00010000
,
10000000
00000000
00100000
01000000
00100000
00000000
00110000
00000000
,
00010000
00000000
00001000
00011000
,
00010000
00000000
00001000
00011000
,
00010000
00000000
00001000
00011000
,
00011000
00000000
00011000
00000000
00010000
00001000
00010000
00001000
,
00011000
00000000
00000100
00000010
00000000
00000001
00000100
00000000
,
00001010
00000000
00001000
00000100
00000000
00000010
00000001
00000000
,
00001000
00000010
00001000
00000000
00000001
00000000
00000010
00000100
,
00000000
00001000
00000001
00000100
00000000
00000010
00010000
00000000
,
01010000
00000000
01000000
00100000
00000000
10000000
01000000
00000000
,
10010000
00000000
00100000
00010000
00000000
01000000
00100000
00000000
,
10000000
00010000
00100000
00000000
01000000
10000000
00100000
01000000
,
00010000
00000000
00100000
01000000
00100000
00000000
10010000
00000000
,
01100000
10000000
00100000
00010000
,
00001000
00000010
00000001
00000110
,
00001000
00000010
00001000
00000010
00010000
00001000
00010000
00001000
,
00100000
01000000
00100000
01000000
10000000
00100000
01000000
00000000
,
10010000
10000000
01000000
00010000
,
00001000
00000010
00000001
00000110
,
00010000
00000100
00010000
00000100
01000000
00010000
01000000
00010000
,
01000000
00001000
01000000
00001000
00000100
00000010
00000100
00000010
,
00000100
00000100
00000100
00000100
,
00000100
00000100
00000100
00000100
,
00000100
00000100
00001001
00001000
,
00000100
00000010
00001001
00000001
,
00000100
00000000
00000010
00000000
00000010
00001000
00000100
00000000
,
00010000
00001000
00010000
00000000
00001000
00100000
01000000
00000000
,
10000000
00100000
01000000
00000000
10010000
00000000
00010000
00000000
,
01000000
00100000
10010000
10000000
,
01000000
00000000
00100000
00000000
00010000
01000000
00010000
00000000
,
01000000
00001000
00010000
00000000
00000100
00000010
00000100
00000000
,
00001000
00000010
00000100
00000001
00001000
00000100
00001000
00000000
,
00000001
00000010
00000000
00000001
00000100
00000010
00001000
00000000
,
00000100
00000010
00000000
00000001
00001000
00000010
00000100
00000000
,
00000001
00000000
00001000
00000100
00000000
00000010
00000000
00011000
,
00000000
01000000
00000000
00100000
10000000
00000000
01000000
00100000
,
00000000
00010000
01000000
00000000
10010000
00000000
10000000
00010000
,
00000000
00100000
01000000
10000000
00100000
00000000
01000000
00000000
,
00010000
00100000
00010000
00000000
01000000
00000000
00100000
10000000
,
01000000
10010000
00011000
00000000
;

//---------------dance-double - M. Emirzian----------------
#NOTES:
     dance-double:
     M. Emirzian:
     Medium:
     5:
     0.294,0.304,0.140,0.000,0.000,206.000,15.000,0.000,0.000,0.000:



00000000
00000000
00000000
00000000
,
00000000
00000000
00000000
00000000
,
00000000
00000000
00000000
00000000
,
00000000
00000000
00000100
00010000
,
00001000
00000000
00010000
00000000
00001000
01000000
00000000
00000000
,
00010000
00000000
10000000
00000000
10000000
00100000
00000000
00000000
,
00010000
00000000
00100000
00000000
00001000
00010000
00000000
00000000
,
00010000
00000000
00000100
00000000
00001000
00000010
00000000
00000000
,
00000001
00000000
00001000
00000000
00000100
00000010
00000000
00000000
,
00000001
00000000
00001000
00000000
00000010
00010000
00000000
00000000
,
00010000
00000000
00001000
00000000
01000000
00010000
00000000
00000000
,
00100000
01000000
10000000
00010000
,
00010000
01000000
00000000
00010000
,
00100000
00100000
00000000
00001000
,
00010000
00000100
00001000
00000000
00000100
00000000
00000100
00000000
,
00000010
00000010
00001001
00000110
,
00001000
00000000
00000000
00000100
00000001
00000010
00000000
00000000
,
00000010
00000000
00000000
00001000
00000100
00010000
00000000
00000000
,
00010000
00000000
00000000
00001000
01000000
00010000
00000000
00000000
,
00001000
01000000
01000000
01000000
,
10010000
01100000
00100000
00010000
,
01000000
00000000
00100000
10000000
00010000
00000000
10000000
00000000
,
01000000
00000000
00100000
00000000
00001000
00000000
00001000
00010000
,
00000000
00000000
00001000
00000000
00000100
00000000
00000010
00000001
,
00000000
00001000
00001001
00000110
,
00000001
00000000
00001000
00000100
,
00010000
00001000
00101000
00000000
,
00010000
00001000
01000000
01000000
,
00100000
10000000
01000000
00100000
,
00010000
10000000
00100000
00000000
01000000
00000000
00010000
00000000
,
00010000
00010000
00100000
00000000
,
00001000
00001000
00010000
00000100
,
00000100
00001000
00000010
00000000
00000100
00000000
00000001
00000000
,
00000010
00000100
00001000
00000000
00000001
00000000
00000001
00000000
,
00000001
00000010
00000100
00000000
,
00010000
00000100
01000000
00001000
,
01000000
00100000
10010000
00000000
,
00000000
00100000
00001000
00010000
,
00000100
00010000
00001000
01000000
,
00001000
00010000
00000000
00000000
00001000
00000000
00000100
00000000
,
00000010
00000001
00000100
00000000
00000010
00000000
00001000
00000000
,
00000100
00010000
00000000
00010000
00001000
00000000
00001000
00000000
,
00010000
00010000
00000000
00001000
,
01000000
00000000
00010000
10000000
00000000
10000000
00100000
00000000
,
01000000
00000000
00010000
00000000
00100000
00000000
00001000
00010000
,
00000100
00000000
00000000
00000000
00000100
00001000
00000010
00000000
,
00011000
00001100
00001000
00010000
,
00000010
00001000
00000100
00000000
00000010
00000000
00000010
00000000
,
00000010
00000000
00000100
00000000
00001000
00000001
00000000
00000001
,
00000100
00000010
00001000
00000100
,
00010000
00010000
00000000
00001000
,
00001000
00001000
00000010
00011000
,
01000000
00010000
00100000
00011000
,
00000100
00001000
00000010
00011000
,
01000000
00011000
00010100
00000000
;

//---------------dance-double - M. Emirzian----------------
#NOTES:
     dance-double:
     M. Emirzian:
     Easy:
     3:
     0.226,0.228,0.177,0.000,0.000,151.000,19.000,0.000,0.000,0.000:




00000000
00000000
00000000
00000000
,
00000000
00000000
00000000
00000000
,
00000000
00000000
00000000
00000000
,
00000000
00000000
00000000
00000000
,
10000000
00000000
00100000
00011000
,
00000010
00000000
00000001
00001000
,
00000100
00000000
00000100
00011000
,
01000000
00000000
00100000
10000000
,
00010000
00000000
00100000
00011000
,
00000100
00000000
00000001
00000100
,
00000010
00000000
00001000
00001100
,
00010000
00000000
00001000
01010000
,
01000000
00000000
00100000
00100000
,
10000000
00000000
00010000
00010000
,
00100000
00000000
00000000
00001000
,
00011000
00000000
00000100
00001000
,
00000001
00000000
00001000
00000000
,
00000010
00001000
00000000
00010000
,
00010000
00001000
00000000
01000000
,
01000000
01000000
00010000
00010000
,
10000000
10000000
00010000
00000000
,
01000000
00011000
00000100
00000000
,
00000010
00000001
00001000
00000000
,
00000010
00011000
01000000
00000000
,
00010000
10000000
00100000
00000000
,
01000000
00010000
00100000
00000000
,
00100000
00011000
00000100
00000000
,
00000001
00000110
00001000
00000000
,
00000001
00001000
00000000
00010000
,
00001000
01000000
00000000
10000000
,
00100000
01000000
00000000
10000000
,
10000000
01000000
00000000
00100000
,
00011000
00000100
00000000
00000010
,
00001000
00000100
00000000
00000001
,
00000001
00000100
00000000
00000001
,
00001000
00000010
00000000
00001000
,
00001000
00010000
01001000
00000000
,
00000000
00000000
01000000
00001000
,
00010000
00000010
00011000
00000000
,
00100000
10000000
01000000
00000000
,
00100000
00011000
00000100
00000000
,
00000100
00011000
00100000
00000000
,
10000000
01000000
00010000
00000000
,
00001000
00000100
00000001
00000000
,
00000010
00001000
00000100
00000000
,
00010000
00001000
01000000
00000000
,
10000000
10000000
00010000
00000000
,
00100000
10010000
01000000
00000000
,
00100000
00010000
00001000
00000000
,
01000000
00011000
00000100
00000000
,
00000010
00001000
00000001
00000000
,
00010000
00000100
00000001
00000000
,
00000100
00011000
01000000
00000000
,
00001000
01000000
10000000
00000000
,
00100000
01000000
00011000
00000000
;

//---------------dance-single - K. Ward----------------
#NOTES:
     dance-single:
     K. Ward:
     Beginner:
     1:
     0.086,0.101,0.019,0.000,0.000,63.000,2.000,0.000,0.000,0.000:







0000
0000
0000
0000
,
0000
0000
0000
0000
,
0000
0000
0000
0000
,
0000
0000
0000
0000
,
0001
0000
0000
0000
,
1000
0000
0000
0000
,
0001
0000
0000
0000
,
1000
0000
0000
0000
,
0010
0000
0000
0000
,
0100
0000
0000
0000
,
0010
0000
0000
0000
,
0100
0000
0000
0000
,
0001
0000
0000
0000
,
0001
0000
0000
0000
,
1000
0000
0000
0000
,
1000
0000
0000
0000
,
0010
0000
0000
0000
,
0010
0000
0000
0000
,
0010
0000
0000
0000
,
0010
0000
0000
0000
,
0100
0000
0001
0000
,
0001
0000
0001
0000
,
0000
0000
1000
0000
,
1000
0000
1000
0000
,
0000
0000
0001
0000
,
0010
0000
0001
0000
,
1000
0000
0100
0000
,
1000
0000
0001
0000
,
0000
0000
0100
0000
,
0000
0000
0010
0000
,
0000
0000
1000
0000
,
0000
0000
0001
0000
,
0000
0000
1000
0000
,
0000
0000
0010
0000
,
0000
0000
0100
0000
,
0000
0000
0001
0000
,
0000
0000
1001
0000
,
0000
0000
0000
0000
,
0000
0000
1000
0000
,
0000
0000
0001
0000
,
0000
0000
1000
0000
,
0000
0000
0001
0000
,
0000
0000
0010
0000
,
0000
0000
0100
0000
,
0000
0000
0010
0000
,
0000
0000
0100
0000
,
0000
0000
0001
0001
,
0000
0000
1000
1000
,
0000
0000
0001
0001
,
0000
0000
1000
1000
,
0000
0000
0010
0010
,
0000
0000
0100
0100
,
0000
0000
0010
0010
,
0000
0000
0000
0000
,
1000
0000
1001
0000
;

//---------------dance-double - M. Emirzian----------------
#NOTES:
     dance-double:
     M. Emirzian:
     Challenge:
     9:
     0.568,0.558,0.177,0.000,0.382,408.000,19.000,0.000,0.000,0.000:





00000000
00000000
00000000
00000000
,
00000000
00000000
00000000
00000000
,
00000000
00000000
00000000
00000000
,
00000000
00000000
01010000
00001100
,
00000000
00000010
00000100
00000000
00001000
00000001
00000100
00000000
00000010
00000000
00010000
00000000
00000100
00000000
00001000
00000000
,
00000000
00000010
00010000
00001000
01000000
00100000
10000000
01000000
,
00000000
00100000
00001000
01000000
00001000
00100000
00001000
00010000
,
00000000
00000010
00001000
00000000
00000100
00000010
00000001
00000000
00001000
00000000
00000010
00000000
00000100
00000000
00000001
00000000
,
00000000
00001000
00000100
00000000
00000010
00000100
00001000
00000000
00000010
00000000
00010000
00000000
00001000
00000000
01000000
00000000
,
00000000
00001000
00100000
00001000
01000000
00001000
00100000
00001000
,
00000000
01000000
00100000
00010000
00001000
01000000
10000000
01000000
,
00000000
00010000
10000000
00000000
01000000
00100000
00010000
00000000
00100000
00000000
00001000
00000000
00010000
00000000
00000100
00000000
,
00001000
00000000
00000000
00000110
00000000
00000000
00001001
00000000
00000000
00000000
00000010
00000000
00000100
00000000
00001000
00000000
,
00000001
00000100
00001000
01000000
00000000
00100000
00010000
00000100
,
00000010
00000100
00010000
00001000
00000000
01000000
00010000
10000000
,
01000000
00100000
00010000
00000000
01010000
00000000
00001100
00000000
,
00000010
00000000
00000000
00000010
00000100
00000000
00000001
00000000
00010000
00000000
00001000
00000000
01000000
00000000
00000000
00000000
,
00100000
00000000
00000000
00100000
01000000
00000000
10000000
00000000
01000000
00000000
00010000
00000000
00100000
00000000
00000000
00000000
,
01000000
00000000
00000000
01000000
00100000
00000000
00001000
00000000
00010000
00000000
00000100
00000000
00001000
00000000
00000000
00000000
,
00000010
00001000
00000100
00000001
00000100
00010000
00001000
01000000
,
00100000
00000000
10000000
00000000
01000000
00000000
00100000
00000000
00010000
10000000
01000000
00000000
00100000
00010000
10000000
00000000
,
00100000
01000000
00001000
00010000
00000000
00000100
00010000
00001000
,
01000000
00000100
00010000
00000010
00000000
00010000
00000100
00010000
,
00000010
00000000
00010000
00000000
00000100
00000000
00010000
00000000
00000000
00000001
00000100
00000000
00000010
00001000
00000001
00000000
,
00000010
00000000
00000100
00000000
00010000
00000000
00001000
00000000
00000000
01000000
00001000
00000000
00010000
00001000
00100000
00000000
,
00010000
01000000
00001000
00100000
00000000
01000000
10000000
00001000
,
10000000
01000000
10000000
00001000
00000000
01000000
00001000
00100000
,
00001000
00000000
01000000
00000000
00001000
00000000
00100000
00000000
00000000
00001000
00010000
00000000
00000100
00001000
00000001
00000000
,
00001100
00000000
00000000
00000000
00110000
00000000
00000000
00000000
00001000
00000000
00010000
00001000
01000000
00001000
00000000
00100000
,
00000000
00010000
00000000
10000000
00000000
01000000
00100000
00010000
00100000
00000000
00001000
00000000
01000000
00001000
00000000
00010000
,
00000000
00000010
00000000
00010000
00001000
00010000
00000100
00000000
00001000
00000000
00000000
00000010
00000100
00000001
00000000
00000010
,
00000000
00000100
00000000
00001000
00000000
00000001
00000100
00000010
00001000
00000000
00000100
00000000
00010000
00001000
00000000
01000100
,
00000000
00011000
00000000
00001000
01000000
00100000
10000000
00000000
01000000
00000000
00010000
01000000
10000000
01000000
00000000
00100000
,
00000000
00001000
00000000
00010000
00000000
00000100
00010000
00001000
01000000
00000000
00001000
00000000
00010000
00000010
00000000
00001000
,
00000000
00000100
00000000
00000010
00000100
00010000
00001000
00000000
00000100
00000000
00000001
00000000
00000010
00000001
00000000
00001000
,
00000000
00000010
00000000
00000100
00000010
00010000
00001000
00000000
01000000
00000000
00001000
00000000
00010000
00001000
00000000
00100010
,
00000000
00011000
00000000
00001000
01000000
00010000
00100000
00000000
01000000
00000000
10000000
00000000
00010000
00000000
00000000
00000000
,
00000010
00000001
00001000
00000000
01100000
00000000
00000110
00000000
,
01100000
00000000
00000000
00000000
00000110
00000000
00000000
00000000
00000000
00000001
00000010
00000000
00000100
00001000
00000001
00000000
,
00000100
00000010
00010000
00001000
00000000
01000000
00000100
00010000
,
00001000
00100000
00001000
01000000
00000000
00100000
10000000
00001000
,
10000000
00000000
01000000
00000000
10000000
00000000
00001000
00000000
00000000
00100000
00001000
00000000
00010000
00000100
00001000
00000000
,
00000010
00000000
00000100
00000000
00000001
00000000
00001000
00000000
00000000
00000100
00010000
00000000
00000100
00001000
00000010
00000000
,
00000100
00000001
00001000
00000100
00000000
00000010
00000001
00010000
,
00000001
00000100
00000001
00010000
00000000
00001000
01000000
00001000
,
00100000
00000000
00001000
00000000
00010000
00000000
00000100
00000000
00000000
00010000
00001000
00000000
01000000
00010000
10000000
00000000
,
01000000
00000000
00100000
00000000
00010000
00000000
01000000
00000000
00000000
00001000
00010000
00000000
00000010
00001000
00000100
00000000
,
00000010
00000001
00010000
00000001
00000000
00000100
00000010
00010000
,
00000100
00010000
00000010
00010000
00000000
00001000
00000100
00001000
,
00100000
00000000
00001000
00000000
00000100
00000000
00001000
00000000
00000000
00010000
00001000
00000000
01000000
00001000
00010000
00000000
,
00100000
00000000
10000000
00000000
00001000
00000000
01000000
00000000
00000000
00100000
10000000
00000000
01000000
00100000
00010000
00000000
,
00100000
01000000
10000000
00010000
00000000
01000000
00001000
00010000
,
00000010
00010000
00000100
00000010
00000000
00000001
00010000
00000001
,
00000100
00000000
00000010
00000000
00010000
00000000
00000100
00000000
00000000
00010000
00001000
00000000
01000000
00010000
00100000
00000000
,
10010000
00100000
01010000
10000000
11000000
00000000
00000000
00000000
;
