#TITLE:Forza Azzuri;
#SUBTITLE:;
#ARTIST:cranky;
#TITLETRANSLIT:;
#SUBTITLETRANSLIT:;
#ARTISTTRANSLIT:;
#CREDIT:;
#BANNER:frozabana.png;
#BACKGROUND:frozabg.png;
#LYRICSPATH:;
#CDTITLE:cdtitle.png;
#MUSIC:Forza Azzuri.mp3;
#OFFSET:-1.600;
#SAMPLESTART:16.140;
#SAMPLELENGTH:12.000;
#SELECTABLE:YES;
#DISPLAYBPM:160.000:330.000;
#BPMS:0.000=159.999,36.000=119.999,37.000=99.999,38.000=79.999,40.000=329.998,147.000=36.979,148.000=329.998;
#STOPS:;
#BGCHANGES:;
// cache tags:
#FIRSTBEAT:16.000;
#LASTBEAT:672.500;
#SONGFILENAME:Songs/Japanese Collaboration Mix/Forza Azzuri/Forza Azzuri.sm;
#HASMUSIC:1;
#HASBANNER:1;
#MUSICLENGTH:137.693;
// end cache tags

//---------------dance-single - ----------------
#NOTES:
     dance-single:
     :
     Challenge:
     12:
     0.852,1.000,0.537,1.000,0.000,580.000,74.000,167.000,0.000,0.000:
0000
0000
0000
0000
,
0000
0000
0000
0000
,
0000
0000
0000
0000
,
0000
0000
0000
0000
,
0010
0010
0010
0010
,
1000
1000
1000
1000
,
0001
0001
0100
0100
,
0010
1000
0001
0100
,
0001
0010
0100
1000
,
0220
0000
0330
0000
,
0001
1000
0100
0010
,
0001
0100
0010
0010
,
0100
0001
0010
0100
,
1000
0010
0100
0100
,
0010
1000
0100
0010
,
0001
2000
0001
3001
,
0010
0100
1000
0010
,
0100
0002
1000
1003
,
0001
0010
0100
1000
,
0010
0100
0001
0001
,
0100
0010
1000
0100
,
0010
0001
1000
1000
,
0001
0100
0010
1000
,
0100
0010
0110
0000
,
1001
0000
0110
0000
,
1001
1100
1001
0101
,
1001
0000
0110
0000
0000
0000
0110
1001
,
0100
0010
0001
0000
,
0110
0000
0000
1010
0000
0000
0000
0000
,
0011
0000
1100
1001
,
0000
0000
0001
0010
0100
0000
1000
0000
,
0110
0000
1001
0000
,
0110
0000
0101
0010
,
1000
0100
0010
0001
,
1000
0000
0000
2000
0002
0000
0000
0000
,
3003
0000
1001
2100
,
0000
0000
0000
0000
0000
0000
0000
0000
0000
0000
0000
0000
0000
0000
0000
0000
3100
0000
0000
0000
0000
0000
0000
0000
0010
0000
0000
0000
0000
0000
0000
0000
0001
0000
0000
0000
0000
0000
0000
0000
0000
0000
0000
0000
0000
0000
0000
0000
2002
0000
0000
0000
0000
0000
0000
0000
0000
0000
0000
0000
0000
3003
0000
0000
,
1001
0001
0100
0010
,
1000
0100
0002
0000
,
0013
1000
0100
0010
,
0001
0100
0020
0000
1030
0100
0020
0000
,
0031
0000
1000
0000
0001
0000
0100
0010
,
0000
0010
2000
0000
3001
0000
0000
0000
,
0001
1000
0100
0010
,
0001
1000
0200
0000
1300
0001
0100
0001
,
1000
0000
0001
0000
0100
0000
0010
1000
,
0000
0001
0010
0000
0200
0000
0000
0000
,
1300
0000
1000
0000
0001
0020
0000
0000
,
0031
1000
0100
0010
0001
0100
0010
0000
,
0001
0000
1000
0000
0010
0000
0100
0001
,
0000
0001
1000
0000
0200
0000
0300
0000
,
1001
0000
1100
0000
2002
0000
0000
3003
,
1001
0011
2002
0003
,
3002
2003
3200
0320
,
0032
0203
0310
0000
,
0002
2003
3020
0230
,
0302
0023
0130
0000
,
0200
0320
0032
0203
,
0320
2030
3200
0320
,
0230
2300
3020
0230
,
0302
2003
3001
0000
,
0002
2003
3200
0320
,
0032
2003
3200
0320
,
0230
2300
3020
0230
,
0302
2003
3002
2003
,
3002
2003
3020
0230
,
0302
0023
0230
2300
,
3020
2030
3200
0320
,
0032
0203
0320
1030
,
2000
3002
2003
3200
,
0320
0032
0203
0300
,
0002
2003
3200
0320
,
0032
2003
3100
0000
,
0200
2300
3020
0230
,
0302
0023
0130
0000
,
0200
0320
0032
0203
,
0320
2030
3001
0000
,
0002
2003
3200
0320
,
0032
2003
3010
0000
,
0010
1000
0200
0000
,
0310
0001
0100
0000
,
2002
0000
0000
0000
,
0000
0000
0000
0000
,
3003
0000
0000
0000
,
0000
0000
0000
0000
,
0002
0000
0000
2003
0000
0000
3100
0000
,
0000
0100
1000
0010
,
0200
0000
0000
0302
0000
0000
0103
0000
,
0000
0010
0100
0001
,
0010
0000
0000
0110
0000
0000
1002
0000
,
0000
0103
0010
0001
,
0110
0000
0000
1001
0000
0000
0210
0000
,
0000
0310
1000
0100
,
1001
0000
0000
0110
0000
0000
2001
0000
,
0000
3001
0000
0010
,
0110
0000
0000
0101
0000
0000
0210
0000
,
0000
0310
1000
0100
,
1100
0000
0000
0110
0000
0000
2100
0000
,
0000
3001
1000
0010
,
0110
0000
0000
1001
0000
0000
0110
0000
,
0000
0010
1000
0100
,
1001
0000
0100
0000
0010
0000
0001
0100
,
0000
0100
0010
0000
1000
0000
0001
0000
,
1000
0100
1000
0001
,
1000
0100
0000
1000
0100
0000
1000
0000
,
0001
0000
0100
0000
0001
0000
1000
0010
,
0000
0100
0010
0000
0100
0000
0010
0000
,
1000
0100
0010
0100
,
1000
0001
1000
0100
0010
0001
1000
0000
,
0010
0000
0100
0000
0001
0000
0010
0001
,
0000
0001
0010
0000
0100
0000
1000
0000
,
0010
1000
0100
1000
,
0001
1000
0000
0001
1000
0000
0001
0000
,
0100
0000
0010
0000
1000
0000
0001
1000
,
0000
0001
1000
0000
0000
0000
0001
0000
,
1000
0100
0010
0001
,
1000
0100
0010
0001
1000
0100
0010
0001
,
2000
0000
0000
3200
0000
0000
0320
0000
,
0000
0032
0023
0230
,
2300
0000
0000
3200
0000
0000
0320
0000
,
0000
0032
0023
0230
,
2300
0000
0000
3200
0000
0000
0320
0000
,
0000
0032
0023
0230
,
2300
0000
0000
3200
0000
0000
0320
0000
,
0000
0032
0203
0320
,
2030
0000
0000
3200
0000
0000
0320
0000
,
0032
0000
0000
0203
0000
0000
0320
0000
,
2030
0000
0000
3200
0000
0000
0320
0000
,
0032
0000
0000
0023
0000
0000
0130
0000
,
1001
0000
0000
1001
1100
0000
0000
1001
,
0101
0000
0000
1001
1010
0000
0000
0101
,
2002
0000
0000
0000
,
0000
0000
3003
0000
,
1001
0100
0010
0001
,
0100
0000
0010
0000
1000
0001
0000
0001
,
1000
0100
0010
0001
,
1000
0000
0010
0000
0100
0010
0000
0100
,
0010
1000
0001
0010
,
0100
0000
1000
0000
0001
1000
0000
0001
,
1000
0001
0100
0010
,
1000
0000
0010
0000
0001
1000
0000
1000
,
0001
0010
0100
1000
,
0010
0000
0100
0000
0001
1000
0000
0001
,
1000
0100
0010
0001
,
0100
0000
0010
1000
0000
0010
1000
0000
,
0001
1000
0010
0100
,
0001
0000
1000
0001
0000
1000
0001
0000
,
0010
0100
1000
0010
,
0100
0001
1000
0000
0100
0010
0001
1000
,
1001
0000
1100
0000
0000
0000
0001
1000
,
0010
0100
1001
0000
,
0110
0000
1001
0000
,
0110
0000
0001
1010
,
0000
0000
0001
0010
0100
0000
1000
0000
,
1001
0000
0110
0000
,
1001
0000
0001
0100
,
0010
1000
0100
0010
,
0001
0000
0000
0002
2000
0000
0000
0000
,
0000
3003
1001
0210
,
0000
0000
0310
1000
0100
0000
0010
0000
,
1001
0000
0120
0000
0000
0000
0031
0100
,
2000
3001
0100
0010
,
2000
0000
3001
0100
,
0020
0000
0031
1000
,
0200
0000
0020
0000
,
0000
0000
0000
0000
,
0000
0000
0000
0000
,
0000
0000
0000
0000
,
0000
0330
0000
0000
0000
0000
0000
0000
;
