#TITLE:Mad Mechanism;
#SUBTITLE:Kirby Canvas Curse;
#ARTIST:Jun Ishikawa;
#TITLETRANSLIT:;
#SUBTITLETRANSLIT:;
#ARTISTTRANSLIT:;
#CREDIT:;
#BANNER:Mad Mechanism-banner.png;
#BACKGROUND:Mad Mechanism-bg.png;
#LYRICSPATH:;
#CDTITLE:cdtitle =).png;
#MUSIC:Mad Mechanism.mp3;
#OFFSET:0.465;
#SAMPLESTART:64.420;
#SAMPLELENGTH:11.440;
#SELECTABLE:YES;
#BPMS:0.000=109.960,66.000=219.920,68.000=109.960,69.000=109.960,104.000=109.960,183.000=219.920,185.000=109.960,221.000=109.960;
#STOPS:;
#BGCHANGES:;
// cache tags:
#FIRSTBEAT:1.000;
#LASTBEAT:237.000;
#SONGFILENAME:Songs/KBU/Mad Mechanism (~Zero~)/Mad Mechanism.sm;
#HASMUSIC:1;
#HASBANNER:1;
#MUSICLENGTH:133.224;
// end cache tags

//---------------dance-single - ----------------
#NOTES:
     dance-single:
     :
     Challenge:
     11:
     1.000,1.000,1.000,0.631,1.000,904.000,211.000,84.000,0.000,18.000:
0000
0000
0000
0000
0000
0000
0000
0000
1001
0000
0000
0000
0001
0010
0001
0010
1100
0000
0010
0000
0100
0000
1000
0000
0101
0000
0011
0000
1100
0000
0110
0000
,
1001
0000
0100
0000
0100
0000
1000
0000
0010
0000
0100
0000
0011
0000
0110
0000
0011
0000
0100
0000
0011
1000
0010
0100
1001
0000
0011
0000
1100
0000
0011
0000
,
1001
0000
0100
0000
0100
0000
1000
0000
0010
0000
0100
0000
1001
0000
0110
0000
0011
0000
0100
0000
1001
0010
0100
0010
1001
0000
0011
0000
1100
0000
0110
0000
,
1001
0000
0100
0000
0001
0000
1000
0000
0010
0000
1100
0000
0000
0000
1010
0000
0100
0000
0100
0000
0011
0100
1000
0001
1010
0000
0101
0000
1001
0000
0110
0000
,
1000
0011
0010
0100
0010
1100
0000
1010
0110
0011
1001
0001
1010
0110
1100
0011
,
0100
0000
0011
0000
1000
0000
0100
0000
0010
0000
0100
0000
1001
0000
0011
0000
1001
0000
0100
0000
0011
1000
0100
0010
1001
0000
0110
0000
1100
0000
1001
0000
,
0100
0000
1001
0000
0100
0000
0010
0000
1000
0000
0100
0000
0011
0000
0101
0000
0011
0000
1000
0000
0110
1000
0100
0010
1001
0000
0011
0000
1100
0000
1001
0000
,
0100
0000
0011
0000
1000
0000
0100
0000
0010
0000
1100
0000
0000
0000
1010
0000
0100
0000
0100
0000
0011
0100
1001
0000
0110
0000
0101
0000
1001
0000
0000
0000
,
0100
0000
0011
0000
0001
0000
0100
0000
0010
0000
1000
0000
0011
0000
0110
0000
1100
0000
1010
0000
0110
0000
1001
0000
0020
0000
0000
0000
1001
0030
1001
0000
,
0010
0000
0000
0000
0000
0000
0000
0000
0000
0000
0000
0000
1000
0000
0000
0000
0000
0000
0000
0000
0000
0000
0000
0000
1100
0000
0000
0000
0000
0000
0000
0000
0000
0000
0000
0000
0011
0000
0000
0000
0000
0000
0100
0000
0000
0000
0000
0000
0020
0000
0000
0000
0000
0000
0000
0000
0000
0000
0000
0000
0100
0000
0000
0000
0000
0000
0000
0000
0000
0000
0000
0000
1130
0000
0000
0000
0000
0000
0000
0000
0000
0000
0000
0000
0011
0000
0000
0000
0000
0000
0100
0000
0000
0000
0000
0000
0020
0000
0000
0000
0000
0000
0000
0000
0000
0000
0000
0000
0100
0000
0000
0000
0000
0000
0000
0000
0000
0000
0000
0000
1030
0000
0000
0000
0100
0000
0000
0000
0010
0000
0000
0000
0001
0000
0000
0000
1000
0000
0100
0000
0000
0000
0000
0000
0020
0000
0000
0000
0000
0000
0000
0000
0000
0000
0000
0000
0101
0000
0000
0000
0000
0000
0000
0000
0000
0000
0000
0000
1031
0000
0000
0000
0000
0000
0000
0000
0000
0000
0000
0000
0000
0000
0000
0000
0000
0000
0000
0000
0000
0000
0000
0000
,
0110
0000
0000
0000
0000
0000
0000
0000
0000
0000
0000
0000
0101
0000
0000
0000
0000
0000
0000
0000
0000
0000
0000
0000
1100
0000
0000
0000
0000
0000
0000
0000
0000
0000
0000
0000
0011
0000
0000
0000
0000
0000
0100
0000
0000
0000
0000
0000
0020
0000
0000
0000
0000
0000
0000
0000
0000
0000
0000
0000
1100
0000
0000
0000
0000
0000
0000
0000
0000
0000
0000
0000
0000
0000
0000
0000
0000
0000
0030
0000
0000
0000
0000
0000
1001
0000
0000
0000
0000
0000
0100
0000
0000
0000
0000
0000
0020
0000
0000
0000
0000
0000
0000
0000
0000
0000
0000
0000
0101
0000
0000
0000
0000
0000
0000
0000
0000
0000
0000
0000
1030
0000
0000
0000
0100
0000
0000
0000
0010
0000
0000
0000
0001
0000
0000
0000
1000
0000
0100
0000
0000
0000
0000
0000
0020
0000
0000
0000
0000
0000
0000
0000
0000
0000
0000
0000
0100
0000
0000
0000
0000
0000
1000
0000
0000
0000
0000
0000
0131
0000
0000
0000
0000
0000
0000
0000
0000
0000
0000
0000
0011
0000
0000
0000
0000
0000
0000
0000
0000
0000
0000
0000
,
0020
0000
0000
0000
0000
0000
0000
0000
0000
0000
0000
0000
1000
0000
0000
0000
0000
0000
0000
0000
0000
0000
0000
0000
0130
0000
0000
0000
0001
0000
0000
0000
0010
0000
0000
0000
0100
0000
0000
0000
0000
0000
0000
0000
0000
0000
0000
0000
0020
0000
0000
0000
0000
0000
0000
0000
0000
0000
0000
0000
0101
0000
0000
0000
0000
0000
0000
0000
0000
0000
0000
0000
0030
0000
0000
0000
0000
0000
0000
0000
0000
0000
0000
0000
1001
0000
0000
0000
0000
0000
0000
0000
0000
0000
0000
0000
1020
0000
0000
0000
0000
0000
0000
0000
0000
0000
0000
0000
1100
0000
0000
0000
0000
0000
0000
0000
0000
0000
0000
0000
0031
0000
0000
0000
0010
0000
0000
0000
0100
0000
0000
0000
1000
0000
0000
0000
0001
0000
0000
0000
0010
0000
0000
0000
0200
0000
0000
0000
0000
0000
0000
0000
0000
0000
0000
0000
1000
0000
0000
0000
0300
0000
0001
0000
0000
0000
0000
0000
0110
0000
0000
0000
0000
0000
0000
0000
0000
0000
0000
0000
0100
0000
0000
0000
0000
0000
0000
0000
0000
0000
0000
0000
,
1000
0000
0000
0010
0000
0000
0001
0010
0100
1001
0000
0000
1100
0000
0000
1100
0000
0000
0000
0000
0000
1100
0000
0010
0001
0000
0000
0100
0000
0000
0001
0000
0000
0010
0000
0000
0200
0000
0000
0000
0000
0000
1000
0000
0000
0000
0000
0000
,
1000
0000
0000
0000
0000
0000
0000
0000
0000
0000
0000
0000
0000
0000
0000
0000
0000
0000
0000
0000
0000
0000
0000
0000
0010
0000
0000
0000
0000
0000
0000
0000
0000
0000
0000
0000
0310
0000
0000
0000
0000
0000
1000
0000
0000
0000
0000
0000
0200
0000
0000
0000
0000
0000
0000
0000
0000
0000
0000
0000
0001
0000
0000
0000
0000
0000
0000
0000
0000
0000
0000
0000
0001
0000
0000
0000
0000
0000
0000
0000
0000
0000
0000
0000
0310
0000
0000
0000
0000
0000
1000
0000
0000
0000
0000
0000
0200
0000
0000
0000
0000
0000
0000
0000
0000
0000
0000
0000
0010
0000
0000
0000
0000
0000
0000
0000
0000
0000
0000
0000
0001
0000
0000
0000
0010
0000
0000
0000
1000
0000
0000
0000
0301
0000
0000
0000
0010
0000
1000
0000
0000
0000
0000
0000
0200
0000
0000
0000
0000
0000
0000
0000
0000
0000
0000
0000
0000
0000
0000
0000
0000
0000
0000
0000
0000
0000
0000
0000
0001
0000
0000
0000
0000
0000
0000
0000
0000
0000
0000
0000
0300
0000
0000
0000
0000
0000
0000
0000
0000
0000
0000
0000
,
0100
0000
0000
0000
0000
0000
0000
0000
0000
0000
0000
0000
0000
0000
0000
0000
0000
0000
0000
0000
0000
0000
0000
0000
0010
0000
0000
0000
0000
0000
0000
0000
0000
0000
0000
0000
0010
0000
0000
0000
0000
0000
1000
0000
0000
0000
0000
0000
0200
0000
0000
0000
0000
0000
0000
0000
0000
0000
0000
0000
0001
0000
0000
0000
0000
0000
0000
0000
0000
0000
0000
0000
0000
0000
0000
0000
0000
0000
0300
0000
0000
0000
0000
0000
0010
0000
0000
0000
0000
0000
1000
0000
0000
0000
0000
0000
0200
0000
0000
0000
0000
0000
0000
0000
0000
0000
0000
0000
0010
0000
0000
0000
0000
0000
0000
0000
0000
0000
0000
0000
0301
0000
0000
0000
0010
0000
0000
0000
0100
0000
0000
0000
0001
0000
0000
0000
0010
0000
1000
0000
0000
0000
0000
0000
0200
0000
0000
0000
0000
0000
0000
0000
0000
0000
0000
0000
0000
0000
0000
0000
0000
0000
0000
0000
0000
0000
0000
0000
0010
0000
0000
0000
0000
0000
0300
0000
0000
0000
0000
0000
0000
0000
0000
0000
0000
0000
0000
0000
0000
0000
0000
0000
,
0020
0000
0000
0001
0000
0000
0100
0000
0000
1030
0000
0000
0200
0000
0000
0001
0000
0000
0000
0000
0000
0301
0000
0000
0020
0000
0000
0100
0000
0000
1000
0100
0001
1030
0100
0010
0001
0000
0000
0000
0000
0000
0100
0000
0000
0000
0000
0000
,
0001
0000
0000
0010
0000
0000
0100
1000
0001
0010
0100
1000
0001
0000
0000
0000
0000
0000
0010
0000
0000
0000
0000
0000
1000
0000
0000
0000
0000
0000
1000
0000
0000
0000
0000
0000
0100
0000
0000
0010
0000
0000
0001
0000
0000
0100
0000
0000
,
0010
0000
0000
0000
1001
0000
0000
0000
0001
0000
0010
0000
0100
0000
1000
0000
0010
0000
0100
0000
0000
0000
0000
0000
0010
0000
1000
0000
0100
0010
1000
0000
,
0001
0000
0010
0000
0100
0000
1000
0000
0010
0000
0100
0000
0000
0000
0100
0000
0001
0000
0010
0000
0100
0000
1000
0000
0010
0100
0010
0100
0010
0100
0010
0100
,
1001
0000
0000
0000
0010
0000
0000
0000
0001
0000
0010
0000
0100
0000
1000
0000
0010
0000
0100
0000
0000
0000
0100
0000
0010
0100
0010
0000
0100
0010
0100
0000
,
0110
0000
0000
0000
0010
0000
0000
0000
0001
0000
0010
0000
0100
0000
1000
0000
0010
0000
0100
0000
0020
0030
0000
0000
0200
0000
0000
0000
2300
0000
0000
0000
,
3020
0000
0000
0000
0001
0000
1000
0000
0230
0000
0010
0000
0000
0000
0001
0000
0320
0000
0100
0000
2030
0000
0010
0000
3002
0010
0100
0010
0203
0010
1000
0010
,
2300
0000
0000
0000
0001
0000
3010
0000
0200
0000
0001
0000
0000
0000
1000
0000
0320
0000
0100
0000
0000
0000
0001
0000
2030
0000
0100
0001
3200
0001
0010
0001
,
0320
0000
0001
0000
2030
0010
0000
0001
3200
0010
0000
1000
0320
0000
0001
1000
,
0230
0000
0010
0000
0010
1000
0000
0001
0000
0010
1000
0010
0001
1000
0001
0000
,
0320
0000
0000
0000
0100
0000
0001
0000
1000
0000
0100
0000
1000
0000
0001
0000
0000
0000
0100
0000
1000
0000
0100
1000
0001
0000
0000
0000
0001
0000
0000
0000
,
0032
0000
0010
0000
0013
0000
0100
0010
0000
1000
0000
0001
0010
0000
0100
0000
,
1000
0000
0001
0000
0100
0000
0010
0100
0000
0010
1000
0000
0100
0000
0010
0000
,
0001
0000
0000
0100
0000
0000
0011
0000
0000
0100
0000
0000
0000
1000
0000
0010
0000
0000
0000
0000
0000
0100
0000
0100
,
0000
0000
0010
0000
0000
0000
0000
0000
0110
0000
0000
0000
0000
1000
0100
0010
,
1001
0000
0011
0000
1100
0000
0110
0000
1001
0000
0100
0000
0100
0000
1000
0000
0010
0000
0100
0000
0011
0000
0110
0000
0011
0000
0100
0000
0011
1000
0010
0100
,
1001
0000
0011
0000
1100
0000
0011
0000
1001
0000
0100
0000
0100
0000
1000
0000
0010
0000
0100
0000
1001
0000
0110
0000
0011
0000
0100
0000
1001
0010
0100
0010
,
1001
0000
0011
0000
1100
0000
0110
0000
1001
0000
0100
0000
0001
0000
1000
0000
0010
0000
1100
0000
0000
0000
1010
0000
0100
0000
0100
0000
0011
0100
1000
0001
,
1010
0101
1001
0110
1000
0011
0010
0100
0010
1100
0000
1010
0110
0011
1001
0001
,
1010
0000
0110
0000
1100
0000
0011
0000
0100
0000
0011
0000
1000
0000
0100
0000
0010
0000
0100
0000
1001
0000
0011
0000
1001
0000
0100
0000
0011
1000
0100
0010
,
1001
0000
0110
0000
1100
0000
1001
0000
0100
0000
1001
0000
0100
0000
0010
0000
1000
0000
0100
0000
0011
0000
0101
0000
0011
0000
1000
0000
0110
1000
0100
0010
,
1001
0000
0011
0000
1100
0000
1001
0000
0100
0000
0011
0000
1000
0000
0100
0000
0010
0000
1100
0000
0000
0000
1010
0000
0100
0000
0100
0000
0011
0100
1001
0000
,
0110
0101
1001
0000
0100
0011
0001
0100
0010
1000
0011
0110
1100
1010
0110
1001
,
0020
0000
0000
0000
0000
0000
0000
0000
0000
0000
0000
0000
0000
0000
0000
0000
0000
0000
0000
0000
0000
0000
0000
0000
1001
0000
0000
0000
0000
0000
0030
0000
0000
0000
0000
0000
1001
0000
0000
0000
0000
0000
0000
0000
0000
0000
0000
0000
0010
0000
0000
0000
0000
0000
0000
0000
0000
0000
0000
0000
1000
0000
0000
0000
0000
0000
0000
0000
0000
0000
0000
0000
1100
0000
0000
0000
0000
0000
0000
0000
0000
0000
0000
0000
0011
0000
0000
0000
0000
0000
0100
0000
0000
0000
0000
0000
0020
0000
0000
0000
0000
0000
0000
0000
0000
0000
0000
0000
0100
0000
0000
0000
0000
0000
0000
0000
0000
0000
0000
0000
1130
0000
0000
0000
0000
0000
0000
0000
0000
0000
0000
0000
0011
0000
0000
0000
0000
0000
0100
0000
0000
0000
0000
0000
0020
0000
0000
0000
0000
0000
0000
0000
0000
0000
0000
0000
0100
0000
0000
0000
0000
0000
0000
0000
0000
0000
0000
0000
1030
0000
0000
0000
0100
0000
0000
0000
0010
0000
0000
0000
0001
0000
0000
0000
1000
0000
0100
0000
0000
0000
0000
0000
,
0020
0000
0000
0000
0000
0000
0000
0000
0000
0000
0000
0000
0101
0000
0000
0000
0000
0000
0000
0000
0000
0000
0000
0000
1031
0000
0000
0000
0000
0000
0000
0000
0000
0000
0000
0000
0000
0000
0000
0000
0000
0000
0000
0000
0000
0000
0000
0000
0110
0000
0000
0000
0000
0000
0000
0000
0000
0000
0000
0000
0101
0000
0000
0000
0000
0000
0000
0000
0000
0000
0000
0000
1100
0000
0000
0000
0000
0000
0000
0000
0000
0000
0000
0000
0011
0000
0000
0000
0000
0000
0100
0000
0000
0000
0000
0000
0020
0000
0000
0000
0000
0000
0000
0000
0000
0000
0000
0000
1100
0000
0000
0000
0000
0000
0000
0000
0000
0000
0000
0000
0000
0000
0000
0000
0000
0000
0030
0000
0000
0000
0000
0000
1001
0000
0000
0000
0000
0000
0100
0000
0000
0000
0000
0000
0020
0000
0000
0000
0000
0000
0000
0000
0000
0000
0000
0000
0101
0000
0000
0000
0000
0000
0000
0000
0000
0000
0000
0000
1030
0000
0000
0000
0100
0000
0000
0000
0010
0000
0000
0000
0001
0000
0000
0000
1000
0000
0100
0000
0000
0000
0000
0000
,
0020
0000
0000
0000
0000
0000
0000
0000
0000
0000
0000
0000
0100
0000
0000
0000
0000
0000
1000
0000
0000
0000
0000
0000
0131
0000
0000
0000
0000
0000
0000
0000
0000
0000
0000
0000
0011
0000
0000
0000
0000
0000
0000
0000
0000
0000
0000
0000
0020
0000
0000
0000
0000
0000
0000
0000
0000
0000
0000
0000
1000
0000
0000
0000
0000
0000
0000
0000
0000
0000
0000
0000
0130
0000
0000
0000
0001
0000
0000
0000
0010
0000
0000
0000
0100
0000
0000
0000
0000
0000
0000
0000
0000
0000
0000
0000
0020
0000
0000
0000
0000
0000
0000
0000
0000
0000
0000
0000
0101
0000
0000
0000
0000
0000
0000
0000
0000
0000
0000
0000
0030
0000
0000
0000
0000
0000
0000
0000
0000
0000
0000
0000
1001
0000
0000
0000
0000
0000
0000
0000
0000
0000
0000
0000
1020
0000
0000
0000
0000
0000
0000
0000
0000
0000
0000
0000
1100
0000
0000
0000
0000
0000
0000
0000
0000
0000
0000
0000
0031
0000
0000
0000
0010
0000
0000
0000
0100
0000
0000
0000
1000
0000
0000
0000
0001
0000
0000
0000
0010
0000
0000
0000
,
0200
0000
0000
0000
0000
0000
0000
0000
0000
0000
0000
0000
1000
0000
0000
0000
0300
0000
0001
0000
0000
0000
0000
0000
0110
0000
0000
0000
0000
0000
0000
0000
0000
0000
0000
0000
0100
0000
0000
0000
0000
0000
0000
0000
0000
0000
0000
0000
1000
0000
0000
0000
0000
0000
0000
0000
0000
0000
0000
0000
0010
0000
0000
0000
0000
0000
0000
0000
0000
0000
0000
0000
0001
0000
0000
0000
0010
0000
0000
0000
0100
0000
0000
0000
1001
0000
0000
0000
0000
0000
0000
0000
0000
0000
0000
0000
1100
0000
0000
0000
0000
0000
0000
0000
0000
0000
0000
0000
1100
0000
0000
0000
0000
0000
0000
0000
0000
0000
0000
0000
0000
0000
0000
0000
0000
0000
0000
0000
0000
0000
0000
0000
1100
0000
0000
0000
0000
0000
0000
0000
0010
0000
0000
0000
0001
0000
0000
0000
0000
0000
0000
0000
0000
0000
0000
0000
0100
0000
0000
0000
0000
0000
0000
0000
0000
0000
0000
0000
0001
0000
0000
0000
0000
0000
0000
0000
0000
0000
0000
0000
0010
0000
0000
0000
0000
0000
0000
0000
0000
0000
0000
0000
,
0200
0000
0000
0000
0000
0000
0000
0000
0000
0000
0000
0000
0000
0000
0000
0000
0000
0000
0000
0000
0000
0000
0000
0000
1000
0000
0000
0000
0000
0000
0000
0000
0000
0000
0000
0000
0000
0000
0000
0000
0000
0000
0000
0000
0000
0000
0000
0000
1000
0000
0000
0000
0000
0000
0000
0000
0000
0000
0000
0000
0000
0000
0000
0000
0000
0000
0000
0000
0000
0000
0000
0000
0010
0000
0000
0000
0000
0000
0000
0000
0000
0000
0000
0000
0310
0000
0000
0000
0000
0000
1000
0000
0000
0000
0000
0000
0200
0000
0000
0000
0000
0000
0000
0000
0000
0000
0000
0000
0001
0000
0000
0000
0000
0000
0000
0000
0000
0000
0000
0000
0001
0000
0000
0000
0000
0000
0000
0000
0000
0000
0000
0000
0310
0000
0000
0000
0000
0000
1000
0000
0000
0000
0000
0000
0200
0000
0000
0000
0000
0000
0000
0000
0000
0000
0000
0000
0010
0000
0000
0000
0000
0000
0000
0000
0000
0000
0000
0000
0001
0000
0000
0000
0010
0000
0000
0000
1000
0000
0000
0000
0301
0000
0000
0000
0010
0000
1000
0000
0000
0000
0000
0000
,
0200
0000
0000
0000
0000
0000
0000
0000
0000
0000
0000
0000
0000
0000
0000
0000
0000
0000
0000
0000
0000
0000
0000
0000
0001
0000
0000
0000
0000
0000
0000
0000
0000
0000
0000
0000
0300
0000
0000
0000
0000
0000
0000
0000
0000
0000
0000
0000
0100
0000
0000
0000
0000
0000
0000
0000
0000
0000
0000
0000
0000
0000
0000
0000
0000
0000
0000
0000
0000
0000
0000
0000
0010
0000
0000
0000
0000
0000
0000
0000
0000
0000
0000
0000
0010
0000
0000
0000
0000
0000
1000
0000
0000
0000
0000
0000
0200
0000
0000
0000
0000
0000
0000
0000
0000
0000
0000
0000
0001
0000
0000
0000
0000
0000
0000
0000
0000
0000
0000
0000
0000
0000
0000
0000
0000
0000
0300
0000
0000
0000
0000
0000
0010
0000
0000
0000
0000
0000
1000
0000
0000
0000
0000
0000
0200
0000
0000
0000
0000
0000
0000
0000
0000
0000
0000
0000
0010
0000
0000
0000
0000
0000
0000
0000
0000
0000
0000
0000
0301
0000
0000
0000
0010
0000
0000
0000
0100
0000
0000
0000
0001
0000
0000
0000
0010
0000
1000
0000
0000
0000
0000
0000
,
0200
0000
0000
0000
0000
0000
0000
0000
0000
0000
0000
0000
0000
0000
0000
0000
0000
0000
0000
0000
0000
0000
0000
0000
0010
0000
0000
0000
0000
0000
0300
0000
0000
0000
0000
0000
0000
0000
0000
0000
0000
0000
0000
0000
0000
0000
0000
0000
0020
0000
0000
0000
0000
0000
0000
0000
0000
0000
0000
0000
0001
0000
0000
0000
0000
0000
0000
0000
0000
0000
0000
0000
0100
0000
0000
0000
0000
0000
0000
0000
0000
0000
0000
0000
1030
0000
0000
0000
0000
0000
0000
0000
0000
0000
0000
0000
0200
0000
0000
0000
0000
0000
0000
0000
0000
0000
0000
0000
0001
0000
0000
0000
0000
0000
0000
0000
0000
0000
0000
0000
0000
0000
0000
0000
0000
0000
0000
0000
0000
0000
0000
0000
0301
0000
0000
0000
0000
0000
0000
0000
0000
0000
0000
0000
0020
0000
0000
0000
0000
0000
0000
0000
0000
0000
0000
0000
0100
0000
0000
0000
0000
0000
0000
0000
0000
0000
0000
0000
1000
0000
0000
0000
0100
0000
0000
0000
0001
0000
0000
0000
1030
0000
0000
0000
0100
0000
0000
0000
0010
0000
0000
0000
,
0001
0000
0000
0000
0000
0000
0100
0000
0000
0000
0000
0000
0001
0000
0000
0010
0000
0000
0100
1000
0001
0010
0100
1000
0001
0000
0000
0000
0000
0000
0010
0000
0000
0000
0000
0000
1000
0000
0000
0000
0000
0000
1000
0000
0000
0000
0000
0000
,
0100
0010
0001
0100
0010
0000
1001
0000
0001
0010
0100
1000
0010
0100
0000
0000
,
0010
0000
1000
0000
0100
0010
1000
0000
0001
0000
0010
0000
0100
0000
1000
0000
0010
0000
0100
0000
0000
0000
0100
0000
0001
0000
0010
0000
0100
0000
1000
0000
,
0010
0100
0010
0100
0010
0100
0010
0100
1001
0000
0000
0000
0010
0000
0000
0000
0001
0000
0010
0000
0100
0000
1000
0000
0010
0000
0100
0000
0000
0000
0100
0000
,
0010
0100
0010
0000
0100
0010
0100
0000
0110
0000
0000
0000
0010
0000
0000
0000
0001
0000
0010
0000
0100
0000
1000
0000
0010
0000
0100
0000
0020
0030
0000
0000
,
0200
0000
2300
0000
3020
0000
0001
1000
0230
0010
0000
0001
0320
0100
2030
0010
,
3002
0010
0100
0010
0203
0010
1000
0010
2300
0000
0000
0000
0001
0000
3010
0000
0200
0000
0001
0000
0000
0000
1000
0000
0320
0000
0100
0000
0000
0000
0001
0000
,
2030
0000
0100
0001
3200
0001
0010
0001
0320
0000
0000
0000
0001
0000
0000
0000
2030
0000
0010
0000
0000
0000
0001
0000
3200
0000
0010
0000
0000
0000
1000
0000
,
0320
0000
0001
1000
0230
0000
0010
0000
0010
1000
0000
0001
0000
0010
1000
0010
,
0001
0000
1000
0000
0001
0000
0000
0000
0320
0000
0000
0000
0100
0000
0001
0000
1000
0000
0100
0000
1000
0000
0001
0000
0000
0000
0100
0000
1000
0000
0100
1000
,
0001
0000
0001
0000
0032
0000
0010
0000
0013
0000
0100
0010
0000
1000
0000
0001
,
0010
0000
0100
0000
1000
0000
0001
0000
0100
0000
0010
0100
0000
0010
1000
0000
,
0100
0000
0000
0010
0000
0000
0001
0000
0000
0100
0000
0000
0011
0000
0000
0100
0000
0000
0000
1000
0000
0010
0000
0000
,
0000
0000
0000
0100
0000
0100
0000
0000
0000
0010
0000
0000
0000
0000
0000
0000
0000
0000
0110
0000
0000
0000
0000
0000
,
0000
1000
0100
0010
1001
0000
0000
0000
0000
0000
0000
0000
0000
0000
0000
0000
;
