#TITLE:Break Beat;
#SUBTITLE:;
#ARTIST:DJ Baby Anne;
#TITLETRANSLIT:;
#SUBTITLETRANSLIT:;
#ARTISTTRANSLIT:;
#CREDIT:;
#BANNER:breakbeat.png;
#BACKGROUND:breakbeat-bg.png;
#LYRICSPATH:;
#CDTITLE:;
#MUSIC:breakbeat.mp3;
#OFFSET:-0.150;
#SAMPLESTART:11.300;
#SAMPLELENGTH:11.580;
#SELECTABLE:YES;
#BPMS:0.000=135.100;
#STOPS:;
#BGCHANGES:;
// cache tags:
#FIRSTBEAT:16.000;
#LASTBEAT:302.500;
#SONGFILENAME:Songs/Community Keyboard Megapack - Volume 2/(SeanH) Break Beat/breakbeat.sm;
#HASMUSIC:1;
#HASBANNER:1;
#MUSICLENGTH:134.635;
// end cache tags

//---------------dance-single - ----------------
#NOTES:
     dance-single:
     :
     Hard:
     10:
     0.807,1.000,0.951,0.163,0.992,611.000,128.000,22.000,0.000,0.000:  // measure 1
0000
0000
0000
0000
,  // measure 2
0000
0000
0000
0000
,  // measure 3
0000
0000
0000
0000
,  // measure 4
0000
0000
0000
0000
,  // measure 5
1000
0001
0000
0001
1000
0000
0100
0010
0000
0010
0100
0000
0001
1000
0001
0000
,  // measure 6
1000
0100
0010
0100
1000
0000
0001
1000
0000
1000
0001
0000
0100
0010
0100
0000
,  // measure 7
1000
0001
0000
1000
0001
0000
0100
0010
0000
0100
0010
0000
1000
0001
1000
0000
,  // measure 8
0010
0100
0000
0100
0010
0000
0100
0001
0000
0100
1000
0000
0010
0001
0010
0000
,  // measure 9
1000
0100
0000
1000
0010
0000
1000
0001
0000
1000
0010
0000
1000
0100
1000
0000
,  // measure 10
0001
0010
0100
0010
0001
0000
1000
0100
0000
0100
1000
0000
0001
0010
0001
0000
,  // measure 11
1000
0010
0000
0010
1000
0000
0100
0001
0000
0001
0100
0000
0010
1000
0010
0000
,  // measure 12
1000
1000
0000
0001
0001
0000
0100
0100
0000
0010
0010
0000
0001
1000
0001
0000
,  // measure 13
1000
0100
0000
0010
0001
0000
1000
0010
0000
0100
0001
0000
1000
0100
0001
0000
,  // measure 14
1000
0100
0010
0001
1000
0000
0001
0010
0000
0100
1000
0000
0001
0100
1000
0000
,  // measure 15
0001
0010
0000
0010
0100
0000
0100
1000
0000
1000
0001
0000
0001
0100
0001
0000
,  // measure 16
1000
0010
0000
0100
0001
0000
1000
0010
0000
0100
0001
0000
1000
0001
1000
0000
,  // measure 17
0100
0010
0000
0010
0100
0000
0100
0010
0000
0010
0100
0000
0010
0100
0010
0000
,  // measure 18
1000
0001
1000
0001
1000
0000
0001
1000
0000
1000
0001
0000
1000
0001
1000
0000
,  // measure 19
0001
0010
0000
1000
0100
0000
0001
0100
0000
1000
0010
0100
0010
0001
1000
0100
,  // measure 20
2002
0000
0000
3003
,  // measure 21
1100
0000
0000
0000
0000
0011
0000
0000
0000
0000
0000
1010
0000
0101
0000
0000
,  // measure 22
1001
0000
0000
0110
0000
0000
1001
0000
,  // measure 23
1100
0000
0000
0110
0000
0000
0011
0000
,  // measure 24
0001
1000
0011
0000
,  // measure 25
0110
0000
0000
0110
0000
0000
0000
0000
,  // measure 26
1100
0000
0000
1100
0000
0000
1100
0000
,  // measure 27
0011
0000
0000
0011
0000
0000
0011
0000
,  // measure 28
1001
0000
0000
1001
0000
0000
1001
0000
,  // measure 29
2000
0000
0000
0000
3200
0000
0000
0300
0000
0000
0002
0000
0003
0000
0020
0000
,  // measure 30
0000
0030
0000
0000
0000
0000
0000
0000
0000
0000
0000
0000
0000
0000
0000
0000
,  // measure 31
0200
0000
0000
0000
0320
0000
0000
0000
0030
0000
2000
0000
0000
3000
0002
0000
,  // measure 32
0000
0003
0000
0000
0000
0000
0000
0000
0000
0000
0000
0000
0000
0000
0000
0000
,  // measure 33
0002
0000
0000
0000
0023
0000
0000
0000
0030
0000
0200
0000
0000
0300
2000
0000
,  // measure 34
0000
3000
0000
0000
0000
0000
0000
0000
0000
0000
0000
0000
0000
0000
0000
0000
,  // measure 35
2002
3003
0220
0330
0000
2200
3300
0022
,  // measure 36
0033
0000
0000
0000
,  // measure 37
1000
0010
0100
0001
1010
0100
0001
1000
0010
0100
1000
0001
0110
0000
0000
0000
,  // measure 38
0001
0100
0010
1000
0101
0010
1000
0001
0100
0010
0001
1000
0110
0000
0000
0000
,  // measure 39
1000
0001
0100
0010
1001
0010
0100
0001
1000
0010
0100
0010
1001
0000
0000
0000
,  // measure 40
0001
1000
0010
0100
1001
0100
0010
1000
0001
0100
0010
0100
1001
0000
0000
0000
,  // measure 41
1000
0001
0100
0010
1100
0001
0100
0010
1000
0100
1000
0001
0110
0000
0000
0000
,  // measure 42
0100
0001
1000
0010
0101
1000
0010
0100
0010
1000
0001
0100
1010
0000
0000
0000
,  // measure 43
0010
1000
0100
1000
0011
1000
0010
0100
0001
1000
0100
1000
0110
0000
0000
0000
,  // measure 44
0001
1000
0010
0001
1100
0010
1000
0100
0001
0100
1000
0010
0101
0000
0000
0000
,  // measure 45
1000
0010
0100
1000
0101
0000
1010
0100
0000
0011
1000
0000
0101
0000
0000
0000
,  // measure 46
0001
0100
0010
0001
1010
0000
0101
0010
0000
1010
0100
0000
0011
0000
0000
0000
,  // measure 47
1000
0001
1000
0100
0011
0000
1100
0001
0000
1100
0010
0000
1001
0000
0000
0000
,  // measure 48
0100
0010
1000
0001
0110
0000
1001
0100
0000
0011
1000
0000
0011
0000
0000
0000
,  // measure 49
0100
1000
0010
0100
0011
0000
0101
0010
0000
1010
0100
0000
1001
0000
0000
0000
,  // measure 50
1000
0010
0001
0010
1100
0000
1010
0100
0000
0101
0010
0000
1001
0000
0000
0000
,  // measure 51
0010
0001
1000
0100
0011
0000
0011
0100
0000
1100
0010
0000
0101
0000
0000
0000
,  // measure 52
0001
0100
0010
1000
0101
0000
1010
0100
0000
0101
0010
0000
1001
0000
0000
0000
,  // measure 53
1000
0100
0010
0001
1100
0001
0110
1000
0001
0100
0010
1000
0011
0100
0011
1000
,  // measure 54
0001
0100
0010
1000
0101
0010
0101
1000
0010
0100
0001
0100
1010
0100
1010
0001
,  // measure 55
0100
0010
1000
0001
0110
0001
1010
0100
0001
1000
0010
0100
1010
0001
0110
1000
,  // measure 56
0001
0100
0010
1000
0110
1000
0011
0100
1000
0010
0100
1000
0011
0100
1010
0001
,  // measure 57
1000
0010
0100
0010
1001
0100
1001
0010
1000
0010
0100
0001
1010
0100
0011
0100
,  // measure 58
1000
0010
1000
0010
0101
0010
0101
0010
0001
0100
0001
0100
1010
0100
1010
0100
,  // measure 59
0001
0010
1000
0100
0011
0100
1010
0001
0100
0010
1000
0100
0011
1000
0011
0100
,  // measure 60
0000
0000
0000
0000
0000
0000
0000
0000
0000
0000
0000
0000
0000
0000
0000
1010
,  // measure 61
0000
0000
0000
0000
0000
1010
0000
0000
0000
0000
0000
1010
0000
0000
0000
0101
,  // measure 62
0000
0000
0000
0000
0000
0101
0000
0000
0000
0000
0000
0101
0000
0000
0000
1100
,  // measure 63
0000
0000
0000
0000
0000
1100
0000
0000
0000
0000
0000
1100
0000
0000
0000
0011
,  // measure 64
0000
0000
0000
0000
0000
0011
0000
0000
0000
0000
0000
0011
0000
0000
0000
1001
,  // measure 65
0000
0000
0000
0000
0000
0110
0000
0000
0000
0000
0000
1001
0000
0000
0000
1100
,  // measure 66
0000
0000
0000
0000
0000
0011
0000
0000
0000
0000
0000
1100
0000
0000
0000
0101
,  // measure 67
0000
0000
0000
0000
0000
1010
0000
0000
0000
0000
0000
0101
0000
0000
0000
0110
,  // measure 68
0000
0000
0000
0000
0000
0110
0000
0000
0000
0000
0000
0110
0000
0000
1000
0000
,  // measure 69
0000
0100
0000
0010
0000
0001
0000
0010
,  // measure 70
0000
1000
0000
0001
0000
0100
0000
1000
,  // measure 71
0100
0001
0010
0100
1000
0010
0001
1000
,  // measure 72
0010
0000
0001
0000
0010
0000
0100
0000
1000
0000
0001
0000
0000
0000
1000
0010
,  // measure 73
1000
0100
0001
0010
1000
0100
1000
0001
1000
0010
0001
0100
0010
1000
0001
0100
,  // measure 74
0010
1000
0010
0100
0001
0100
1000
0001
0100
0010
1000
0100
0010
0001
1000
0010
,  // measure 75
1000
0100
0001
0100
0001
0010
0100
1000
0001
0100
0010
0000
0000
0000
0000
0000
,  // measure 76
0010
1000
0100
0001
0100
0010
1000
0001
0100
1000
0011
0000
0000
0000
0000
0000
;
