#TITLE:Basscadet;
#SUBTITLE:;
#ARTIST:Autechre;
#TITLETRANSLIT:;
#SUBTITLETRANSLIT:;
#ARTISTTRANSLIT:;
#CREDIT:;
#BANNER:Basscadet.png;
#BACKGROUND:Basscadetbg.png;
#LYRICSPATH:;
#CDTITLE:!therairaicdtitle.png;
#MUSIC:Basscadet.mp3;
#OFFSET:0.000;
#SAMPLESTART:147.660;
#SAMPLELENGTH:18.860;
#SELECTABLE:YES;
#BPMS:0.000=125.146,44.000=62.573,46.000=125.146,74.000=62.573,76.000=125.146,104.000=62.573,106.000=125.146,134.000=62.573,154.000=125.146,218.000=62.573,234.000=125.152,346.000=62.571,354.000=125.151;
#STOPS:;
#BGCHANGES:;
// cache tags:
#FIRSTBEAT:0.250;
#LASTBEAT:478.000;
#SONGFILENAME:Songs/Fresh Flock of Fantastic Files F4/(The Rai Rai) Basscadet/Basscadet.sm;
#HASMUSIC:1;
#HASBANNER:1;
#MUSICLENGTH:255.352;
// end cache tags

//---------------dance-single - ----------------
#NOTES:
     dance-single:
     :
     Hard:
     14:
     1.000,1.000,1.000,1.000,1.000,1628.000,436.000,815.000,0.000,0.000:
0000
0010
0000
0010
0000
0000
0000
0000
0000
0000
0000
0010
0000
0000
1000
0000
,
0000
0010
0000
0010
0000
0000
0000
0000
0000
0000
0000
0010
0000
0000
1000
0000
,
0000
0010
0000
0010
0000
0000
0000
0000
0000
0000
0000
0010
0000
0000
1000
0000
,
0000
0010
0000
0010
0000
0000
0000
0000
0000
0000
0000
0010
0000
0000
1000
0000
,
0100
0000
0000
0000
0010
0000
0000
0000
1000
0000
0000
0000
0010
0000
0000
0000
0100
0000
0000
0000
0000
0000
0000
0000
0010
0000
0000
0000
0000
0000
0000
0000
0010
0000
0000
0000
0100
0000
0000
0000
1000
0000
0000
0000
0010
0000
0000
0000
0100
0000
0000
0000
0000
0000
0000
0000
2000
0000
0000
3000
0200
0000
0000
0300
,
0100
0000
0000
0000
0010
0000
0000
0000
1000
0000
0000
0000
0010
0000
0000
0000
0100
0000
0000
0000
0000
0000
0000
0000
0010
0000
0000
0000
0000
0000
0000
0000
0010
0000
0000
0000
0100
0000
0000
0000
1000
0000
0000
0000
0010
0000
0000
0000
0100
0000
0000
0000
0000
0000
0000
0000
2000
0000
0000
3000
0200
0000
0000
0300
,
0100
0000
0000
0000
0010
0000
0000
0000
1000
0000
0000
0000
0010
0000
0000
0000
0100
0000
0000
0000
0000
0000
0000
0000
0010
0000
0000
0000
0000
0000
0000
0000
0010
0000
0000
0000
0100
0000
0000
0000
1000
0000
0000
0000
0010
0000
0000
0000
0100
0000
0000
0000
0000
0000
0000
0000
2000
0000
0000
3000
0200
0000
0000
0300
,
0100
0000
0000
0000
0010
0000
0000
0000
1000
0000
0000
0000
0010
0000
0000
0000
0100
0000
0000
0000
0000
0000
0000
0000
0010
0000
0000
0000
0000
0000
0000
0000
0010
0000
0000
0000
0100
0000
0000
0000
1000
0000
0000
0000
0010
0000
0000
0000
0100
0000
0000
0000
0000
0000
0000
0000
2000
0000
0000
3000
0200
0000
0000
0300
,
0100
0000
0000
0000
0010
0000
0000
0000
1000
0000
0000
0000
0010
0000
0000
0000
0100
0000
0000
0000
0000
0000
0000
0000
0010
0000
0000
0000
0000
0000
0000
0000
0010
0000
0000
0000
0100
0000
0000
0000
1000
0000
0000
0000
0010
0000
0000
0000
0100
0000
0000
0000
0000
0000
0000
0000
2000
0000
0000
3000
0200
0000
0000
0300
,
0100
0000
0000
0000
0010
0000
0000
0000
1000
0000
0000
0000
0010
0000
0000
0000
0100
0000
0000
0000
0000
0000
0000
0000
0010
0000
0000
0000
0000
0000
0000
0000
0010
0000
0000
0000
0100
0000
0000
0000
1000
0000
0000
0000
0010
0000
0000
0000
0100
0000
0000
0000
0000
0000
0000
0000
2000
0000
0000
3000
0200
0000
0000
0300
,
0100
0000
0000
0000
0010
0000
0000
0000
1000
0000
0000
0000
0010
0000
0000
0000
0100
0000
0000
0000
0000
0000
0000
0000
0010
0000
0000
0000
0000
0000
0000
0000
0010
0000
0000
0000
0100
0000
0000
0000
1000
0000
0000
0000
0010
0000
0000
0000
0100
0000
0000
0000
0000
0000
0000
0000
2000
0000
0000
3000
0200
0000
0000
0300
,
0000
0000
0000
0000
0000
0000
2000
0000
0000
0000
3000
0000
0200
0000
0000
0000
0300
0000
0000
0000
0000
0000
0000
0000
2000
0000
0000
0000
3000
0000
0200
0000
0000
0000
0300
0000
0000
0000
0000
0000
0000
0000
2000
0000
0000
0000
3000
0000
0200
0000
0000
0000
0300
0000
0000
0000
0000
0000
0000
0000
2000
0000
0000
0000
3000
0000
0200
0000
0000
0000
0300
0000
0000
0000
0000
0000
0000
0000
0000
0000
0000
0000
0000
0000
0000
0000
0000
0000
0000
0000
0000
0000
0000
0000
0000
0000
0100
0000
0000
0000
0000
0000
0000
0000
0000
0000
0000
0000
0010
0000
0000
0000
0000
0000
0000
0000
0000
0000
0000
0000
1000
0000
0000
0000
0000
0000
0000
0000
0000
0000
0000
0000
0010
0000
0000
0000
0000
0000
0000
0000
0000
0000
0000
0000
0100
0000
0000
0000
0000
0000
0000
0000
0000
0000
0000
0000
0000
0000
0000
0000
0000
0000
0000
0000
0000
0000
0000
0000
0010
0000
0000
0000
0000
0000
0000
0000
0000
0000
0000
0000
0100
0000
0000
0000
0000
0000
0000
0000
0000
0000
0000
0000
,
0010
0000
0000
0000
0001
0000
0000
0000
1000
0000
0000
0000
0010
0000
0000
0000
1000
0000
0000
0000
0000
0000
0000
0000
2000
0000
0000
3000
0200
0000
0000
0300
0100
0000
0000
0000
0010
0000
0000
0000
0001
0000
0000
0000
0010
0000
0000
0000
0100
0000
0000
0000
0000
0000
0000
0000
0010
0000
0000
0000
0100
0000
0000
0000
,
0010
0000
0000
0000
1000
0000
0000
0000
0001
0000
0000
0000
0010
0000
0000
0000
0001
0000
0000
0000
0000
0000
0000
0000
0002
0000
0000
0003
0200
0000
0000
0300
0100
0000
0000
0000
0010
0000
0000
0000
1000
0000
0000
0000
0010
0000
0000
0000
0100
0000
0000
0000
0000
0000
0000
0000
0010
0000
0000
0000
0100
0000
0000
0000
,
0010
0000
0000
0000
0001
0000
0000
0000
1000
0000
0000
0000
0010
0000
0000
0000
1000
0000
0000
0000
0000
0000
0000
0000
2000
0000
0000
3000
0200
0000
0000
0300
0100
0000
0000
0000
0010
0000
0000
0000
0001
0000
0000
0000
0010
0000
0000
0000
0100
0000
0000
0000
0000
0000
0000
0000
0010
0000
0000
0000
0100
0000
0000
0000
,
0010
0000
0000
0000
1000
0000
0000
0000
0001
0000
0000
0000
0010
0000
0000
0000
0001
0000
0000
0000
0000
0000
0000
0000
0002
0000
0000
0003
0200
0000
0000
0300
0100
0000
0000
0000
0010
0000
0000
0000
1000
0000
0000
0000
0010
0000
0000
0000
0100
0000
0000
0000
0000
0000
0000
0000
0010
0000
0000
0000
0100
0000
0000
0000
,
0010
0000
0000
0000
0001
0000
0000
0000
1000
0000
0000
0000
0010
0000
0000
0000
1000
0000
0000
0000
0000
0000
0000
0000
2000
0000
0000
3000
0200
0000
0000
0300
0100
0000
0000
0000
0010
0000
0000
0000
0001
0000
0000
0000
0010
0000
0000
0000
0100
0000
0000
0000
0000
0000
0000
0000
0010
0000
0000
0000
0100
0000
0000
0000
,
0010
0000
0000
0000
1000
0000
0000
0000
0001
0000
0000
0000
0010
0000
0000
0000
0001
0000
0000
0000
0000
0000
0000
0000
0002
0000
0000
0003
0200
0000
0000
0300
0100
0000
0000
0000
0010
0000
0000
0000
1000
0000
0000
0000
0010
0000
0000
0000
0100
0000
0000
0000
0000
0000
0000
0000
0010
0000
0000
0000
0100
0000
0000
0000
,
0010
0000
0000
0000
0000
0000
0000
0000
0000
0000
0000
0000
0001
0000
0000
0000
0000
0000
0000
0000
0000
0000
0000
0000
1000
0000
0000
0000
0000
0000
0000
0000
0000
0000
0000
0000
0010
0000
0000
0000
0000
0000
0000
0000
0000
0000
0000
0000
1000
0000
0000
0000
0000
0000
0000
0000
0000
0000
0000
0000
0000
0000
0000
0000
0000
0000
0000
0000
0000
0000
0000
0000
2000
0000
0000
0000
0000
0000
0000
0000
0000
3000
0000
0000
0200
0000
0000
0000
0000
0000
0000
0000
0000
0300
0000
0000
0000
0000
0000
0000
0000
0000
2000
0000
0000
0000
3000
0000
0200
0000
0000
0000
0300
0000
0000
0000
0000
0000
0000
0000
2000
0000
0000
0000
3000
0000
0200
0000
0000
0000
0300
0000
0000
0000
0000
0000
0000
0000
2000
0000
0000
0000
3000
0000
0200
0000
0000
0000
0300
0000
0000
0000
0000
0000
0000
0000
2000
0000
0000
0000
3000
0000
0200
0000
0000
0000
0300
0000
0000
0000
0000
0000
0000
0000
0000
0000
0000
0000
0000
0000
0000
0000
0000
0000
0000
0000
0000
0000
0000
0000
0000
0000
,
0100
0000
0000
0000
0010
0000
0000
0000
1000
0000
0000
0000
0010
0000
0000
0000
0100
0000
0000
0000
0000
0000
0000
0000
0010
0000
0000
0000
0100
0000
0000
0000
0010
0000
0000
0000
0001
0000
0000
0000
2200
3300
0000
0000
0010
0000
0000
0000
1000
0000
0000
0000
0000
0000
0000
0000
0022
0030
0000
0003
0200
0000
0000
0300
,
0100
0000
0000
0000
0010
0000
0000
0000
0001
0000
0000
0000
0010
0000
0000
0000
0100
0000
0000
0000
0000
0000
0000
0000
0010
0000
0000
0000
0100
0000
0000
0000
0010
0000
0000
0000
1000
0000
0000
0000
0202
0303
0000
0000
0010
0000
0000
0000
0001
0000
0000
0000
0000
0000
0000
0000
2020
0030
0000
3000
0200
0000
0000
0300
,
0100
0000
0000
0000
0010
0000
0000
0000
1000
0000
0000
0000
0010
0000
0000
0000
0100
0000
0000
0000
0000
0000
0000
0000
0010
0000
0000
0000
0100
0000
0000
0000
0010
0000
0000
0000
0001
0000
0000
0000
2200
3300
0000
0000
0010
0000
0000
0000
1000
0000
0000
0000
0000
0000
0000
0000
0022
0030
0000
0003
0200
0000
0000
0300
,
0100
0000
0000
0000
0010
0000
0000
0000
0001
0000
0000
0000
0010
0000
0000
0000
0100
0000
0000
0000
0000
0000
0000
0000
0010
0000
0000
0000
0100
0000
0000
0000
0010
0000
0000
0000
1000
0000
0000
0000
0202
0303
0000
0000
0010
0000
0000
0000
0001
0000
0000
0000
0000
0000
0000
0000
2020
0030
0000
3000
0200
0000
0000
0300
,
0100
0000
0000
0000
0010
0000
0000
0000
1000
0000
0000
0000
0010
0000
0000
0000
0100
0000
0000
0000
0000
0000
0000
0000
0010
0000
0000
0000
0100
0000
0000
0000
0010
0000
0000
0000
0001
0000
0000
0000
2200
3300
0000
0000
0010
0000
0000
0000
1000
0000
0000
0000
0000
0000
0000
0000
0022
0030
0000
0003
0200
0000
0000
0300
,
0100
0000
0000
0000
0010
0000
0000
0000
0001
0000
0000
0000
0010
0000
0000
0000
0100
0000
0000
0000
0000
0000
0000
0000
0010
0000
0000
0000
0100
0000
0000
0000
0010
0000
0000
0000
1000
0000
0000
0000
0202
0303
0000
0000
0010
0000
0000
0000
0001
0000
0000
0000
0000
0000
0000
0000
2020
0030
0000
3000
0200
0000
0000
0300
,
0100
0000
0000
0000
0010
0000
0000
0000
1000
0000
0000
0000
0010
0000
0000
0000
0100
0000
0000
0000
0000
0000
0000
0000
0010
0000
0000
0000
0100
0000
0000
0000
0010
0000
0000
0000
0001
0000
0000
0000
2200
3300
0000
0000
0010
0000
0000
0000
1000
0000
0000
0000
0000
0000
0000
0000
0022
0030
0000
0003
0200
0000
0000
0300
,
0000
0000
0000
0000
0000
0000
0000
0000
0000
0000
0000
0000
0000
0000
0000
0000
0000
0000
0220
0330
0000
0000
0000
0000
0022
0033
0000
0000
0000
0000
2200
3300
0000
0000
0000
0000
0000
0000
0000
0000
0000
0000
0000
0000
0000
0000
0000
0000
0000
0000
0000
0000
0000
0000
0000
0000
0000
0000
0000
0000
2200
3300
0000
0000
0000
0000
0000
0000
0000
0000
0000
0000
0000
0000
0000
0000
0000
0000
0000
0000
0000
0000
0000
0000
0022
0033
0000
0000
0000
0000
0000
0000
0000
0000
0000
0000
0100
0000
0000
0000
0000
0000
0000
0000
0000
0000
0000
0000
0010
0000
0000
0000
0000
0000
0000
0000
0000
0000
0000
0000
1000
0000
0000
0000
0000
0000
0000
0000
0000
0000
0000
0000
0220
0000
0000
0330
0000
0000
0000
0000
0000
0000
0000
0000
0022
0000
0000
0033
0000
0000
0000
0000
0000
0000
0000
0000
2200
0000
0000
3300
0000
0000
0000
0000
0000
0000
0000
0000
0010
0000
0000
0000
0000
0000
0000
0000
0000
0000
0000
0000
0100
0000
0000
0000
0000
0000
0001
0000
0000
0000
0000
0000
,
0010
0000
0000
0000
0001
0000
0000
0000
2200
3300
0000
0000
0010
0000
0000
0000
1000
0000
0000
0000
0000
0000
0000
0000
0022
0030
0000
0003
0200
0000
0000
0300
0100
0000
0000
0000
0010
0000
0000
0000
0001
0000
0000
0000
0220
0330
0000
0000
2020
3030
0000
0000
0202
0303
0000
0000
0010
0000
0000
0000
0100
0000
1000
0000
,
0010
0000
0000
0000
1000
0000
0000
0000
0202
0303
0000
0000
0010
0000
0000
0000
0001
0000
0000
0000
0000
0000
0000
0000
2020
0030
0000
3000
0200
0000
0000
0300
0100
0000
0000
0000
0010
0000
0000
0000
1000
0000
0000
0000
0220
0330
0000
0000
0022
0033
0000
0000
2200
3300
0000
0000
0010
0000
0000
0000
0100
0000
0001
0000
,
0010
0000
0000
0000
0001
0000
0000
0000
2200
3300
0000
0000
0010
0000
0000
0000
1000
0000
0000
0000
0000
0000
0000
0000
0022
0030
0000
0003
0200
0000
0000
0300
0100
0000
0000
0000
0010
0000
0000
0000
0001
0000
0000
0000
0220
0330
0000
0000
2020
3030
0000
0000
0202
0303
0000
0000
0010
0000
0000
0000
0100
0000
1000
0000
,
0010
0000
0000
0000
1000
0000
0000
0000
0202
0303
0000
0000
0010
0000
0000
0000
0001
0000
0000
0000
0000
0000
0000
0000
2020
0030
0000
3000
0200
0000
0000
0300
0100
0000
0000
0000
0010
0000
0000
0000
1000
0000
0000
0000
0220
0330
0000
0000
0022
0033
0000
0000
2200
3300
0000
0000
0010
0000
0000
0000
0100
0000
0001
0000
,
0010
0000
0000
0000
0001
0000
0000
0000
2200
3300
0000
0000
0010
0000
0000
0000
1000
0000
0000
0000
0000
0000
0000
0000
0022
0030
0000
0003
0200
0000
0000
0300
0100
0000
0000
0000
0010
0000
0000
0000
0001
0000
0000
0000
0220
0330
0000
0000
2020
3030
0000
0000
0202
0303
0000
0000
0010
0000
0000
0000
0100
0000
1000
0000
,
0010
0000
0000
0000
1000
0000
0000
0000
0202
0303
0000
0000
0010
0000
0000
0000
0001
0000
0000
0000
0000
0000
0000
0000
2020
0030
0000
3000
0200
0000
0000
0300
0100
0000
0000
0000
0010
0000
0000
0000
1000
0000
0000
0000
0220
0330
0000
0000
0022
0033
0000
0000
2200
3300
0000
0000
0010
0000
0000
0000
0100
0000
0001
0000
,
0010
0000
0000
0000
0000
0000
0000
0000
0000
0000
0000
0000
0001
0000
0000
0000
0000
0000
0000
0000
0000
0000
0000
0000
2200
0000
0000
3300
0000
0000
0000
0000
0000
0000
0000
0000
0010
0000
0000
0000
0000
0000
0000
0000
0000
0000
0000
0000
1000
0000
0000
0000
0000
0000
0000
0000
0000
0000
0000
0000
0000
0000
0000
0000
0000
0000
0000
0000
0000
0000
0000
0000
0022
0000
0000
0030
0000
0000
0000
0000
0000
0003
0000
0000
0200
0000
0000
0000
0000
0000
0000
0000
0000
0300
0000
0000
0000
0000
0000
0000
0000
0000
0010
0000
0000
0000
0000
0000
0000
0000
0000
0000
0000
0000
1000
0000
0000
0000
0000
0000
0100
0000
0000
0000
0000
0000
0000
0000
0000
0000
0000
0000
0001
0000
0000
1000
0000
0000
0001
0000
0000
1000
0000
0000
0000
0000
0000
0000
0000
0000
1000
0000
0000
0000
0000
0000
0000
0000
0000
0000
0000
0000
0010
0000
0000
0000
0000
0000
0100
0000
0000
0000
0000
0000
0000
0000
0010
0000
0000
0000
1000
0000
0000
0000
0001
0000
0000
0000
0000
0000
0000
0000
,
0200
0000
0000
0000
0000
0000
0000
0000
0000
0000
0000
0000
0300
0000
0000
0000
0000
0000
0220
0330
0000
0000
0000
0000
0022
0033
0000
0000
0000
0000
2200
3300
0000
0000
0000
0000
0000
0000
0000
0000
0000
0000
0000
0000
0000
0000
0000
0000
0000
0000
0000
0000
0000
0000
0000
0000
0000
0000
0000
0000
2200
3300
0000
0000
0000
0000
0000
0000
0000
0000
0000
0000
0000
0000
0000
0000
0000
0000
0000
0000
0000
0000
0000
0000
0022
0033
0000
0000
0000
0000
0000
0000
0000
0000
0000
0000
0000
0000
0000
0000
0000
0000
0000
0000
0000
0000
0000
0000
0000
0000
0000
0000
0000
0000
2200
3300
0000
0000
0000
0000
2020
3030
0000
0000
0000
0000
0202
0303
0000
0000
0000
0000
0000
0000
0000
0000
0000
0000
0000
0000
0000
0000
0000
0000
0000
0000
0000
0000
0000
0000
0000
0000
0000
0000
0000
0000
2200
3300
0000
0000
0000
0000
0000
0000
0000
0000
0000
0000
0000
0000
0000
0000
0000
0000
0000
0000
0000
0000
0000
0000
2020
3030
0000
0000
0000
0000
0000
0000
0000
0000
0000
0000
,
0000
0000
0000
0000
0000
0000
0000
0000
0000
0000
0000
0000
0000
0000
0000
0000
0000
0000
0202
0303
0000
0000
0000
0000
2002
3003
0000
0000
0000
0000
2200
3300
0000
0000
0000
0000
0000
0000
0000
0000
0000
0000
0000
0000
0000
0000
0000
0000
0000
0000
0000
0000
0000
0000
0000
0000
0000
0000
0000
0000
0202
0303
0000
0000
0000
0000
0000
0000
0000
0000
0000
0000
0000
0000
0000
0000
0000
0000
0000
0000
0000
0000
0000
0000
2002
3003
0000
0000
0000
0000
0000
0000
0000
0000
0000
0000
0000
0000
0000
0000
0000
0000
0000
0000
0000
0000
0000
0000
0000
0000
0000
0000
0000
0000
2200
3300
0000
0000
0000
0000
0022
0033
0000
0000
0000
0000
0220
0330
0000
0000
0000
0000
2200
3300
0000
0000
0000
0000
0220
0330
0000
0000
0000
0000
0202
0303
0000
0000
0000
0000
0000
0000
0000
0000
0000
0000
2020
3030
0000
0000
0000
0000
0000
0000
0000
0000
0000
0000
0000
0000
0000
0000
0000
0000
0000
0000
0000
0000
0000
0000
0202
0303
0000
0000
0000
0000
0000
0000
0000
0000
0000
0000
,
0000
0000
0000
0000
0000
0000
0000
0000
0000
0000
0000
0000
0000
0000
0000
0000
0000
0000
0220
0330
0000
0000
0000
0000
0022
0033
0000
0000
0000
0000
2200
3300
0000
0000
0000
0000
0000
0000
0000
0000
0000
0000
0000
0000
0000
0000
0000
0000
0000
0000
0000
0000
0000
0000
0000
0000
0000
0000
0000
0000
2200
3300
0000
0000
0000
0000
0000
0000
0000
0000
0000
0000
0000
0000
0000
0000
0000
0000
0000
0000
0000
0000
0000
0000
0022
0033
0000
0000
0000
0000
0000
0000
0000
0000
0000
0000
0000
0000
0000
0000
0000
0000
0000
0000
0000
0000
0000
0000
0000
0000
0000
0000
0000
0000
2200
3300
0000
0000
0000
0000
2020
3030
0000
0000
0000
0000
0202
0303
0000
0000
0000
0000
0000
0000
0000
0000
0000
0000
0000
0000
0000
0000
0000
0000
0000
0000
0000
0000
0000
0000
0000
0000
0000
0000
0000
0000
2200
3300
0000
0000
0000
0000
0000
0000
0000
0000
0000
0000
0000
0000
0000
0000
0000
0000
0000
0000
0000
0000
0000
0000
2020
3030
0000
0000
0000
0000
0000
0000
0000
0000
0000
0000
,
0000
0000
0000
0000
0000
0000
0000
0000
0000
0000
0000
0000
0000
0000
0000
0000
0000
0000
0202
0303
0000
0000
0000
0000
2002
3003
0000
0000
0000
0000
2200
3300
0000
0000
0000
0000
0000
0000
0000
0000
0000
0000
0000
0000
0000
0000
0000
0000
0000
0000
0000
0000
0000
0000
0000
0000
0000
0000
0000
0000
0202
0303
0000
0000
0000
0000
0000
0000
0000
0000
0000
0000
0000
0000
0000
0000
0000
0000
0000
0000
0000
0000
0000
0000
2002
3003
0000
0000
0000
0000
0000
0000
0000
0000
0000
0000
0000
0000
0000
0000
0000
0000
0000
0000
0000
0000
0000
0000
0000
0000
0000
0000
0000
0000
2200
3300
0000
0000
0000
0000
0022
0033
0000
0000
0000
0000
0220
0330
0000
0000
0000
0000
2200
3300
0000
0000
0000
0000
0220
0330
0000
0000
0000
0000
0202
0303
0000
0000
0000
0000
0000
0000
0000
0000
0000
0000
2020
3030
0000
0000
0000
0000
0000
0000
0000
0000
0000
0000
0000
0000
0000
0000
0000
0000
0000
0000
0000
0000
0000
0000
0202
0303
0000
0000
0000
0000
0000
0000
0000
0000
0000
0000
,
0220
0330
0000
0000
0000
0000
0000
0000
0000
0000
0000
0000
2020
3030
0000
0000
0000
0000
0000
0000
0000
0000
0000
0000
0000
0000
0000
0000
0000
0000
0000
0000
0000
0000
0000
0000
0202
0303
0000
0000
0000
0000
0000
0000
0000
0000
0000
0000
0000
0000
0000
0000
0000
0000
0000
0000
0000
0000
0000
0000
0000
0000
0000
0000
0000
0000
2200
3300
0000
0000
0000
0000
0022
0033
0000
0000
0000
0000
0220
0330
0000
0000
0000
0000
2200
3300
0000
0000
0000
0000
0220
0330
0000
0000
0000
0000
2200
0000
0000
3300
0000
0000
0000
0000
0000
0000
0000
0000
0010
0000
0000
0000
0000
0000
0000
0000
0000
0000
0000
0000
0022
0000
0000
0033
0000
0000
0000
0000
0000
0000
0000
0000
0100
0000
0000
0000
0000
0000
0000
0000
0000
0000
0000
0000
0010
0000
0000
0000
0000
0000
0000
0000
0000
0000
0000
0000
0000
0000
0000
0000
0000
0000
0000
0000
0000
0000
0000
0000
2200
0000
0000
3300
0000
0000
0000
0000
0000
0000
0000
0000
1000
0000
0000
0000
0000
0000
0001
0000
0000
0000
0000
0000
,
1000
0000
0000
0000
0001
0000
0000
0000
1000
0000
0000
0000
0010
0000
0000
0000
1000
0000
0000
0000
0000
0000
0000
0000
2000
0000
0000
3000
0200
0000
0000
0300
0202
0303
0000
0000
0010
0000
0000
0000
2020
3030
0000
0000
0100
0000
0000
0000
0010
0000
0000
0000
0000
0000
0000
0000
0202
0303
0000
0000
0001
0000
1000
0000
,
0001
0000
0000
0000
1000
0000
0000
0000
0001
0000
0000
0000
0010
0000
0000
0000
0001
0000
0000
0000
0000
0000
0000
0000
0002
0000
0000
0003
0200
0000
0000
0300
2200
3300
0000
0000
0010
0000
0000
0000
0022
0033
0000
0000
0100
0000
0000
0000
0010
0000
0000
0000
0000
0000
0000
0000
2200
3300
0000
0000
1000
0000
0001
0000
,
1000
0000
0000
0000
0001
0000
0000
0000
1000
0000
0000
0000
0010
0000
0000
0000
1000
0000
0000
0000
0000
0000
0000
0000
2000
0000
0000
3000
0200
0000
0000
0300
0202
0303
0000
0000
0010
0000
0000
0000
2020
3030
0000
0000
0100
0000
0000
0000
0010
0000
0000
0000
0000
0000
0000
0000
0202
0303
0000
0000
0001
0000
1000
0000
,
0001
0000
0000
0000
1000
0000
0000
0000
0001
0000
0000
0000
0010
0000
0000
0000
0001
0000
0000
0000
0000
0000
0000
0000
0002
0000
0000
0003
0200
0000
0000
0300
2200
3300
0000
0000
0010
0000
0000
0000
0022
0033
0000
0000
0100
0000
0000
0000
0010
0000
0000
0000
0000
0000
0000
0000
2200
3300
0000
0000
1000
0000
0001
0000
,
1000
0000
0000
0000
0001
0000
0000
0000
1000
0000
0000
0000
0010
0000
0000
0000
1000
0000
0000
0000
0000
0000
0000
0000
2000
0000
0000
3000
0200
0000
0000
0300
0202
0303
0000
0000
0010
0000
0000
0000
2020
3030
0000
0000
0100
0000
0000
0000
0010
0000
0000
0000
0000
0000
0000
0000
0202
0303
0000
0000
0001
0000
1000
0000
,
0001
0000
0000
0000
1000
0000
0000
0000
0001
0000
0000
0000
0010
0000
0000
0000
0001
0000
0000
0000
0000
0000
0000
0000
0002
0000
0000
0003
0200
0000
0000
0300
2200
3300
0000
0000
0010
0000
0000
0000
0022
0033
0000
0000
0100
0000
0000
0000
0010
0000
0000
0000
0000
0000
0000
0000
2200
3300
0000
0000
1000
0000
0001
0000
,
1000
0000
0000
0000
0001
0000
0000
0000
1000
0000
0000
0000
0010
0000
0000
0000
1000
0000
0000
0000
0000
0000
0000
0000
2000
0000
0000
3000
0200
0000
0000
0300
0202
0303
0000
0000
0010
0000
0000
0000
2020
3030
0000
0000
0100
0000
0000
0000
0010
0000
0000
0000
0000
0000
0000
0000
0202
0300
0000
0003
0001
0000
1000
0000
,
0001
0000
0000
0000
0100
0000
0000
0000
0001
0000
0000
0000
0100
0000
0000
0000
0001
0000
0000
0000
0100
0000
0000
0000
0010
0000
0000
0000
0200
0000
0000
0300
2200
3300
0000
0000
0010
0000
0000
0000
0022
0033
0000
0000
0100
0000
0000
0000
0010
0000
0000
0000
0000
0000
0000
0000
2200
3300
0000
0000
1000
0000
0001
0000
,
1000
0000
0000
0000
0001
0000
0000
0000
1000
0000
0000
0000
0010
0000
0000
0000
1000
0000
0000
0000
0000
0000
0000
0000
2000
0000
0000
3000
0200
0000
0000
0300
0202
0303
0000
0000
0010
0000
0000
0000
2020
3030
0000
0000
0100
0000
0000
0000
0010
0000
0000
0000
0000
0000
0000
0000
0202
0303
0000
0000
0001
0000
1000
0000
,
0001
0000
0000
0000
1000
0000
0000
0000
0001
0000
0000
0000
0010
0000
0000
0000
0001
0000
0000
0000
0000
0000
0000
0000
0002
0000
0000
0003
0200
0000
0000
0300
2200
3300
0000
0000
0010
0000
0000
0000
0022
0033
0000
0000
0100
0000
0000
0000
0010
0000
0000
0000
0000
0000
0000
0000
2200
3300
0000
0000
1000
0000
0001
0000
,
1000
0000
0000
0000
0001
0000
0000
0000
1000
0000
0000
0000
0010
0000
0000
0000
1000
0000
0000
0000
0000
0000
0000
0000
2000
0000
0000
3000
0200
0000
0000
0300
0202
0303
0000
0000
0010
0000
0000
0000
2020
3030
0000
0000
0100
0000
0000
0000
0010
0000
0000
0000
0000
0000
0000
0000
0202
0303
0000
0000
0001
0000
1000
0000
,
0001
0000
0000
0000
1000
0000
0000
0000
0001
0000
0000
0000
0010
0000
0000
0000
0001
0000
0000
0000
0000
0000
0000
0000
0002
0000
0000
0003
0200
0000
0000
0300
2200
3300
0000
0000
0010
0000
0000
0000
0022
0033
0000
0000
0100
0000
0000
0000
0010
0000
0000
0000
0000
0000
0000
0000
2200
3300
0000
0000
1000
0000
0001
0000
,
1000
0000
0000
0000
0001
0000
0000
0000
1000
0000
0000
0000
0010
0000
0000
0000
1000
0000
0000
0000
0000
0000
0000
0000
2000
0000
0000
3000
0200
0000
0000
0300
0202
0303
0000
0000
0010
0000
0000
0000
2020
3030
0000
0000
0100
0000
0000
0000
0010
0000
0000
0000
0000
0000
0000
0000
0202
0303
0000
0000
0001
0000
1000
0000
,
0001
0000
0000
0000
1000
0000
0000
0000
0202
0303
0000
0000
0010
0000
0000
0000
0001
0000
0000
0000
2002
3003
0000
0000
0002
0000
0000
0003
0200
0000
0000
0300
2200
3300
0000
0000
0010
0000
0000
0000
0022
0033
0000
0000
0100
0000
0000
0000
0010
0000
0000
0000
0000
0000
0000
0000
2200
3300
0000
0000
1000
0000
0001
0000
,
1000
0000
0000
0000
0001
0000
0000
0000
1000
0000
0000
0000
0010
0000
0000
0000
1000
0000
0000
0000
0000
0000
0000
0000
2000
0000
0000
3000
0200
0000
0000
0300
0202
0303
0000
0000
0010
0000
0000
0000
2020
3030
0000
0000
0100
0000
0000
0000
0010
0000
0000
0000
0000
0000
0000
0000
0202
0303
0000
0000
0001
0000
1000
0000
,
0001
0000
0000
0000
1000
0000
0000
0000
0202
0303
0000
0000
0010
0000
0000
0000
0001
0000
0000
0000
2002
3003
0000
0000
0002
0000
0000
0003
0200
0000
0000
0300
1100
0000
0010
0000
1000
0000
0100
0000
0010
0000
1000
0000
0100
0000
0010
0000
0101
0000
0010
0000
0001
0000
1000
0000
0001
0000
0010
0000
0100
0000
1000
0000
,
0011
1000
0010
1000
0001
0010
0001
1000
0000
1000
0001
0010
0000
0100
0000
1000
0101
0010
0001
0100
0010
0001
0100
0010
1100
0010
1000
0001
1000
0010
0100
0001
,
1010
0001
0010
0001
1000
0010
1000
0001
0000
0001
1000
0010
0000
0100
0000
0001
1100
0010
1000
0100
0010
1000
0100
0010
0101
0010
0001
1000
0001
0010
0100
1000
,
0011
1000
0010
1000
0001
0010
0001
1000
0000
1000
0001
0010
0000
0100
0000
1000
0101
0010
0001
0100
0010
0001
0100
0010
1100
0010
1000
0001
1000
0010
0100
0001
,
1010
0001
0010
0001
1000
0010
1000
0001
0000
0001
1000
0010
0000
0100
0000
0001
1100
0000
0010
0000
1000
0000
0100
0000
1001
0000
1000
0000
0100
0000
0010
0000
,
0101
0010
0001
1000
1001
0010
0100
1000
0011
1000
0010
1000
1001
0010
0001
1000
,
0000
1000
0001
0010
1001
0100
0000
1000
0101
0010
0001
0100
1001
0001
0100
0010
,
1100
0010
1000
0001
1001
0010
0100
0001
1010
0001
0010
0001
1001
0010
1000
0001
,
0000
0001
1000
0010
1001
0100
0000
0001
1100
0010
1000
0100
1001
1000
0100
0010
,
0101
0010
0001
1000
1001
0010
0100
1000
0011
1000
0010
1000
1001
0010
0001
1000
,
0000
1000
0001
0010
1001
0100
0000
1000
0101
0010
0001
0100
1001
0001
0100
0010
,
1100
0010
1000
0001
1001
0010
0100
0001
1010
0001
0010
0001
1001
0010
1000
0001
,
0000
0000
0000
0000
0001
0000
0000
0000
1000
0000
0000
0000
0010
0000
0000
0000
1001
0000
0000
0000
0100
0000
0000
0000
0000
0000
0000
0000
0001
0000
0000
0000
1100
0000
0000
0000
0010
0000
0000
0000
1000
0000
0000
0000
0022
0033
0000
0000
2002
3003
0000
0000
2200
3300
0000
0000
0100
0000
0000
0000
0010
0000
0000
0000
,
0101
0000
0000
0000
0010
0000
0000
0000
0202
0303
0000
0000
1000
0000
0000
0000
1001
0000
0000
0000
0100
0000
0000
0000
2020
3030
0000
0000
0100
0000
0000
0000
0011
0000
0000
0000
1000
0000
0000
0000
0100
0000
0000
0000
2020
3030
0000
0000
2002
3003
0000
0000
0202
0303
0000
0000
0010
0000
0000
0000
1000
0000
0000
0000
,
0000
0000
0000
0000
0010
0000
0000
0000
2200
3300
0000
0000
0010
0000
0000
0000
1001
0000
0000
0000
0100
0000
0000
0000
0022
0033
0000
0000
1000
0000
0000
0000
0101
0000
0000
0000
0010
0000
0000
0000
0100
0000
0000
0000
0022
0033
0000
0000
2002
3003
0000
0000
2200
3300
0000
0000
0001
0000
0000
0000
0010
0000
0000
0000
,
1100
0000
0000
0000
0010
0000
0000
0000
0202
0303
0000
0000
0010
0000
0000
0000
1001
0000
0000
0000
0100
0000
0000
0000
2020
3030
0000
0000
0001
0000
0000
0000
1010
0000
0000
0000
0001
0000
0000
0000
0100
0000
0000
0000
2020
3030
0000
0000
2002
3003
0000
0000
0202
0303
0000
0000
1000
0000
0000
0000
0001
0000
0000
0000
,
0000
0000
0000
0000
0001
0000
0000
0000
2200
3300
0000
0000
0010
0000
0000
0000
1001
0000
0000
0000
0100
0000
0000
0000
0022
0033
0000
0000
0100
0000
0000
0000
1100
0000
0000
0000
0010
0000
0000
0000
1000
0000
0000
0000
0022
0033
0000
0000
2002
3003
0000
0000
2200
3300
0000
0000
0100
0000
0000
0000
0010
0000
0000
0000
,
0101
0000
0000
0000
0010
0000
0000
0000
0202
0303
0000
0000
1000
0000
0000
0000
1001
0000
0000
0000
0100
0000
0000
0000
2020
3030
0000
0000
0100
0000
0000
0000
0011
0000
0000
0000
1000
0000
0000
0000
0100
0000
0000
0000
2020
3030
0000
0000
2002
3003
0000
0000
0202
0303
0000
0000
0010
0000
0000
0000
1000
0000
0000
0000
,
0000
0000
0000
0000
0010
0000
0000
0000
2200
3300
0000
0000
0010
0000
0000
0000
1001
0000
0000
0000
0100
0000
0000
0000
0022
0033
0000
0000
1000
0000
0000
0000
0101
0000
0000
0000
0010
0000
0000
0000
0100
0000
0000
0000
0022
0033
0000
0000
2002
3003
0000
0000
2200
3300
0000
0000
0001
0000
0000
0000
0010
0000
0000
0000
,
1100
0000
0000
0000
0010
0000
0000
0000
0202
0303
0000
0000
0010
0000
0000
0000
1001
0000
0000
0000
0100
0000
0000
0000
2020
3030
0000
0000
0001
0000
0000
0000
1010
0000
0000
0000
0001
0000
0000
0000
0100
0000
0000
0000
2020
3030
0000
0000
2002
3003
0000
0000
0202
0303
0000
0000
1000
0000
0000
0000
0001
0000
0000
0000
,
0000
0000
0000
0000
0001
0000
0000
0000
2200
3300
0000
0000
0010
0000
0000
0000
1001
0000
0000
0000
0100
0000
0000
0000
0022
0033
0000
0000
1000
0000
0000
0000
0100
0000
0000
0000
0010
0000
0000
0000
1000
0000
0000
0000
0220
0330
0000
0000
0022
0033
0000
0000
2200
3300
0000
0000
0010
0000
0000
0000
0100
0000
0001
0000
,
0010
0000
0000
0000
0001
0000
0000
0000
2200
3300
0000
0000
0010
0000
0000
0000
1000
0000
0000
0000
0000
0000
0000
0000
0022
0030
0000
0003
0200
0000
0000
0300
0100
0000
0000
0000
0010
0000
0000
0000
0001
0000
0000
0000
0220
0330
0000
0000
2020
3030
0000
0000
0202
0303
0000
0000
0010
0000
0000
0000
0100
0000
1000
0000
,
0010
0000
0000
0000
1000
0000
0000
0000
0202
0303
0000
0000
0010
0000
0000
0000
0001
0000
0000
0000
0000
0000
0000
0000
2020
0030
0000
3000
0200
0000
0000
0300
0100
0000
0000
0000
0010
0000
0000
0000
1000
0000
0000
0000
0220
0330
0000
0000
0022
0033
0000
0000
2200
3300
0000
0000
0010
0000
0000
0000
0100
0000
0001
0000
,
0010
0000
0000
0000
0001
0000
0000
0000
2200
3300
0000
0000
0010
0000
0000
0000
1000
0000
0000
0000
0000
0000
0000
0000
0022
0030
0000
0003
0200
0000
0000
0300
0100
0000
0000
0000
0010
0000
0000
0000
0001
0000
0000
0000
0220
0330
0000
0000
2020
3030
0000
0000
0202
0303
0000
0000
0010
0000
0000
0000
0100
0000
1000
0000
,
0010
0000
0000
0000
1000
0000
0000
0000
0202
0303
0000
0000
0010
0000
0000
0000
0001
0000
0000
0000
0000
0000
0000
0000
2020
0030
0000
3000
0200
0000
0000
0300
0100
0000
0000
0000
0010
0000
0000
0000
1000
0000
0000
0000
0220
0330
0000
0000
0022
0033
0000
0000
2200
3300
0000
0000
0010
0000
0000
0000
0100
0000
0001
0000
,
0010
0000
0000
0000
0001
0000
0000
0000
2200
3300
0000
0000
0010
0000
0000
0000
1000
0000
0000
0000
0000
0000
0000
0000
0022
0030
0000
0003
0200
0000
0000
0300
0100
0000
0000
0000
0010
0000
0000
0000
0001
0000
0000
0000
0220
0330
0000
0000
2020
3030
0000
0000
0202
0303
0000
0000
0010
0000
0000
0000
0100
0000
1000
0000
,
0010
0000
0000
0000
1000
0000
0000
0000
0202
0303
0000
0000
0010
0000
0000
0000
0001
0000
0000
0000
0000
0000
0000
0000
2020
0030
0000
3000
0200
0000
0000
0300
0100
0000
0000
0000
0010
0000
0000
0000
1000
0000
0000
0000
0220
0330
0000
0000
0022
0033
0000
0000
2200
3300
0000
0000
0010
0000
0000
0000
0100
0000
0001
0000
,
0010
0000
0000
0000
0001
0000
0000
0000
2200
3300
0000
0000
0010
0000
0000
0000
1000
0000
0000
0000
0000
0000
0000
0000
0022
0030
0000
0003
0200
0000
0000
0300
0100
0000
0000
0000
0010
0000
0000
0000
0001
0000
0000
0000
0220
0330
0000
0000
2020
3030
0000
0000
0202
0303
0000
0000
0010
0000
0000
0000
0100
0000
1000
0000
,
0010
0000
0000
0000
1000
0000
0000
0000
0202
0303
0000
0000
0010
0000
0000
0000
0001
0000
0000
0000
0000
0000
0000
0000
2020
0030
0000
3000
0200
0000
0000
0300
0100
0000
0000
0000
0010
0000
0000
0000
1000
0000
0000
0000
0220
0330
0000
0000
0022
0033
0000
0000
2200
3300
0000
0000
0010
0000
0000
0000
0100
0000
0001
0000
,
0010
0000
0000
0000
0001
0000
0000
0000
2200
3300
0000
0000
0010
0000
0000
0000
1000
0000
0000
0000
0000
0000
0000
0000
0022
0030
0000
0003
0200
0000
0000
0300
0100
0000
0000
0000
0010
0000
0000
0000
0001
0000
0000
0000
0220
0330
0000
0000
2020
3030
0000
0000
0202
0303
0000
0000
0010
0000
0000
0000
0100
0000
1000
0000
,
0010
0000
0000
0000
1000
0000
0000
0000
0202
0303
0000
0000
0010
0000
0000
0000
0001
0000
0000
0000
0000
0000
0000
0000
2020
0030
0000
3000
0200
0000
0000
0300
0100
0000
0000
0000
0010
0000
0000
0000
1000
0000
0000
0000
0220
0330
0000
0000
0022
0033
0000
0000
2200
3300
0000
0000
0010
0000
0000
0000
0100
0000
0001
0000
,
0010
0000
0000
0000
0001
0000
0000
0000
2200
3300
0000
0000
0010
0000
0000
0000
1000
0000
0000
0000
0000
0000
0000
0000
0022
0030
0000
0003
0200
0000
0000
0300
0100
0000
0000
0000
0010
0000
0000
0000
0001
0000
0000
0000
0220
0330
0000
0000
2020
3030
0000
0000
0202
0303
0000
0000
0010
0000
0000
0000
0100
0000
1000
0000
,
0010
0000
0000
0000
0000
0000
0000
0000
0000
0000
0000
0000
1000
0000
0000
0000
0000
0000
0000
0000
0000
0000
0000
0000
0202
0000
0000
0303
0000
0000
0000
0000
0000
0000
0000
0000
0010
0000
0000
0000
0000
0000
0000
0000
0000
0000
0000
0000
0001
0000
0000
0000
0000
0000
0000
0000
0000
0000
0000
0000
0000
0000
0000
0000
0000
0000
0000
0000
0000
0000
0000
0000
2020
0000
0000
0030
0000
0000
0000
0000
0000
3000
0000
0000
0200
0000
0000
0000
0000
0000
0000
0000
0000
0300
0000
0000
0000
0000
0000
0000
0000
0000
0000
0000
0000
0000
0000
0000
0000
0000
0000
0000
0000
0000
0220
0330
0000
0000
0000
0000
0022
0033
0000
0000
0000
0000
2200
3300
0000
0000
0000
0000
0000
0000
0000
0000
0000
0000
0000
0000
0000
0000
0000
0000
0000
0000
0000
0000
0000
0000
0000
0000
0000
0000
0000
0000
2200
3300
0000
0000
0000
0000
0000
0000
0000
0000
0000
0000
0000
0000
0000
0000
0000
0000
0000
0000
0000
0000
0000
0000
0022
0033
0000
0000
0000
0000
0000
0000
0000
0000
0000
0000
,
0000
0000
0000
0000
0000
0000
0000
0000
0000
0000
0000
0000
0000
0000
0000
0000
0000
0000
0220
0330
0000
0000
0000
0000
0022
0033
0000
0000
0000
0000
2200
3300
0000
0000
0000
0000
0000
0000
0000
0000
0000
0000
0000
0000
0000
0000
0000
0000
0000
0000
0000
0000
0000
0000
0000
0000
0000
0000
0000
0000
2200
3300
0000
0000
0000
0000
0000
0000
0000
0000
0000
0000
0000
0000
0000
0000
0000
0000
0000
0000
0000
0000
0000
0000
0022
0033
0000
0000
0000
0000
0000
0000
0000
0000
0000
0000
0000
0000
0000
0000
0000
0000
0000
0000
0000
0000
0000
0000
0000
0000
0000
0000
0000
0000
0220
0330
0000
0000
0000
0000
0022
0033
0000
0000
0000
0000
2200
3300
0000
0000
0000
0000
0000
0000
0000
0000
0000
0000
0000
0000
0000
0000
0000
0000
0000
0000
0000
0000
0000
0000
0000
0000
0000
0000
0000
0000
2200
3300
0000
0000
0000
0000
0000
0000
0000
0000
0000
0000
0000
0000
0000
0000
0000
0000
0000
0000
0000
0000
0000
0000
0022
0033
0000
0000
0000
0000
0000
0000
0000
0000
0000
0000
,
0000
0000
0000
0000
0000
0000
0010
0000
0000
0000
0000
0000
0000
0000
0000
0000
0000
0000
1000
0000
0000
0000
0000
0000
0100
0000
0000
0000
0000
0000
0000
0000
0000
0000
0000
0000
0001
0000
0000
1000
0000
0000
0001
0000
0000
1000
0000
0000
0000
0000
0000
0000
0000
0000
1000
0000
0000
0000
0000
0000
0000
0000
0000
0000
0000
0000
0010
0000
0000
0000
0000
0000
0100
0000
0000
0000
0000
0000
0000
0000
0010
0000
0000
0000
1000
0000
0000
0000
0001
0000
0000
0000
0000
0000
0000
0000
2100
0000
0000
0000
0000
0000
0000
0000
0000
0000
0000
0000
0010
0000
0000
0000
0000
0000
0000
0000
0000
0000
0000
0000
3100
0000
0000
0000
0000
0000
0000
0000
0000
0000
0000
0000
0022
0000
0000
0033
0000
0000
0000
0000
0000
0000
0000
0000
2002
0000
0000
3003
0000
0000
0000
0000
0000
0000
0000
0000
2200
0000
0000
3300
0000
0000
0000
0000
0000
0000
0000
0000
0100
0000
0000
0000
0000
0000
0000
0000
0000
0000
0000
0000
0001
0000
0000
0000
0000
0000
1000
0000
0000
0000
0000
0000
,
0001
0000
0000
0000
0010
0000
0000
0000
0202
0303
0000
0000
1000
0000
0000
0000
1001
0000
0000
0000
0100
0000
0000
0000
2020
3030
0000
0000
0100
0000
0000
0000
0011
0000
0000
0000
1000
0000
0000
0000
0100
0000
0000
0000
2020
3030
0000
0000
2002
3003
0000
0000
0202
0303
0000
0000
0010
0000
0000
0000
1000
0000
0001
0000
,
1000
0000
0000
0000
0010
0000
0000
0000
2200
3300
0000
0000
0010
0000
0000
0000
1001
0000
0000
0000
0100
0000
0000
0000
0022
0033
0000
0000
1000
0000
0000
0000
0101
0000
0000
0000
0010
0000
0000
0000
0100
0000
0000
0000
0022
0033
0000
0000
2002
3003
0000
0000
2200
3300
0000
0000
0001
0000
0000
0000
1000
0000
0001
0000
,
1000
0000
0000
0000
0010
0000
0000
0000
0202
0303
0000
0000
0010
0000
0000
0000
1001
0000
0000
0000
0100
0000
0000
0000
2020
3030
0000
0000
0001
0000
0000
0000
1010
0000
0000
0000
0001
0000
0000
0000
0100
0000
0000
0000
2020
3030
0000
0000
2002
3003
0000
0000
0202
0303
0000
0000
1000
0000
0000
0000
0001
0000
1000
0000
,
0001
0000
0000
0000
1000
0000
0000
0000
2200
3300
0000
0000
0010
0000
0000
0000
1001
0000
0000
0000
0100
0000
0000
0000
0022
0033
0000
0000
0100
0000
0000
0000
1100
0000
0000
0000
0010
0000
0000
0000
0100
0000
0000
0000
0022
0033
0000
0000
2002
3003
0000
0000
2200
3300
0000
0000
0100
0000
0000
0000
0001
0000
1000
0000
,
0001
0000
0000
0000
0010
0000
0000
0000
0202
0303
0000
0000
1000
0000
0000
0000
1001
0000
0000
0000
0100
0000
0000
0000
2020
3030
0000
0000
0100
0000
0000
0000
0011
0000
0000
0000
1000
0000
0000
0000
0100
0000
0000
0000
2020
3030
0000
0000
2002
3003
0000
0000
0202
0303
0000
0000
0010
0000
0000
0000
1000
0000
0001
0000
,
1000
0000
0000
0000
0010
0000
0000
0000
2200
3300
0000
0000
0010
0000
0000
0000
1001
0000
0000
0000
0100
0000
0000
0000
0022
0033
0000
0000
1000
0000
0000
0000
0101
0000
0000
0000
0010
0000
0000
0000
0100
0000
0000
0000
0022
0033
0000
0000
2002
3003
0000
0000
2200
3300
0000
0000
0001
0000
0000
0000
1000
0000
0001
0000
,
1000
0000
0000
0000
0010
0000
0000
0000
0202
0303
0000
0000
0010
0000
0000
0000
1001
0000
0000
0000
0100
0000
0000
0000
2020
3030
0000
0000
0001
0000
0000
0000
1010
0000
0000
0000
0001
0000
0000
0000
0100
0000
0000
0000
2020
3030
0000
0000
2002
3003
0000
0000
0202
0303
0000
0000
1000
0000
0000
0000
0001
0000
1000
0000
,
0001
0000
0000
0000
0010
0000
0000
0000
2200
3300
0000
0000
0010
0000
0000
0000
1001
0000
0000
0000
0100
0000
0000
0000
0022
0033
0000
0000
0100
0000
0000
0000
2020
3030
0000
0000
0100
0000
0000
0000
0022
0033
0000
0000
0100
0000
0000
0000
1001
0000
0000
0000
0010
0000
0000
0000
2200
3300
0000
0000
0001
0000
1000
0000
,
0001
0000
0000
0000
0010
0000
0000
0000
0100
0000
0000
0000
1000
0000
0000
0000
1001
0000
0000
0000
0100
0000
0000
0000
1000
0000
0000
0000
0010
0000
0000
0000
0202
0303
0000
0000
0010
0000
0000
0000
2200
3300
0000
0000
0010
0000
0000
0000
1001
0000
0000
0000
0100
0000
0000
0000
0022
0033
0000
0000
1000
0000
0001
0000
,
1000
0000
0000
0000
0010
0000
0000
0000
0100
0000
0000
0000
0001
0000
0000
0000
1001
0000
0000
0000
0100
0000
0000
0000
0010
0000
0000
0000
1000
0000
0000
0000
0022
0033
0000
0000
0100
0000
0000
0000
2020
3030
0000
0000
0100
0000
0000
0000
1001
0000
0000
0000
0010
0000
0000
0000
0202
0303
0000
0000
1000
0000
0001
0000
,
1000
0000
0000
0000
0010
0000
0000
0000
0100
0000
0000
0000
1000
0000
0000
0000
1001
0000
0000
0000
0100
0000
0000
0000
0010
0000
0000
0000
0001
0000
0000
0000
2200
3300
0000
0000
0010
0000
0000
0000
0202
0303
0000
0000
0010
0000
0000
0000
1001
0000
0000
0000
0100
0000
0000
0000
2020
3030
0000
0000
0001
0000
1000
0000
,
0001
0000
0000
0000
0010
0000
0000
0000
0100
0000
0000
0000
1000
0000
0000
0000
1001
0000
0000
0000
0100
0000
0000
0000
0001
0000
0000
0000
0100
0000
0000
0000
2020
3030
0000
0000
0100
0000
0000
0000
0022
0033
0000
0000
0100
0000
0000
0000
1001
0000
0000
0000
0010
0000
0000
0000
2200
3300
0000
0000
0001
0000
1000
0000
,
0001
0000
0000
0000
0010
0000
0000
0000
0100
0000
0000
0000
1000
0000
0000
0000
1001
0000
0000
0000
0100
0000
0000
0000
1000
0000
0000
0000
0010
0000
0000
0000
0202
0303
0000
0000
0010
0000
0000
0000
2200
3300
0000
0000
0010
0000
0000
0000
1001
0000
0000
0000
0100
0000
0000
0000
0022
0033
0000
0000
1000
0000
0001
0000
,
1000
0000
0000
0000
0010
0000
0000
0000
0100
0000
0000
0000
0001
0000
0000
0000
1001
0000
0000
0000
0100
0000
0000
0000
0010
0000
0000
0000
1000
0000
0000
0000
0022
0033
0000
0000
0100
0000
0000
0000
2020
3030
0000
0000
0100
0000
0000
0000
1001
0000
0000
0000
0010
0000
0000
0000
0202
0303
0000
0000
1000
0000
0001
0000
,
1000
0000
0000
0000
0010
0000
0000
0000
0100
0000
0000
0000
1000
0000
0000
0000
1001
0000
0000
0000
0100
0000
0000
0000
0010
0000
0000
0000
0001
0000
0000
0000
2200
3300
0000
0000
0010
0000
0000
0000
0202
0303
0000
0000
0010
0000
0000
0000
1001
0000
0000
0000
0100
0000
0000
0000
2020
3030
0000
0000
0001
0000
1000
0000
,
0001
0000
0000
0000
0010
0000
0000
0000
0100
0000
0000
0000
1000
0000
0000
0000
1001
0000
0000
0000
0100
0000
0000
0000
0001
0000
0000
0000
0010
0000
0000
0000
2200
0300
0000
0000
0000
0000
0000
0000
0020
0030
0000
0000
0000
0000
0000
0000
0000
0000
0000
0000
0000
0000
0000
0000
0002
0003
0000
0000
0000
0000
0000
0000
,
0000
0000
0000
0000
0000
0000
0000
0000
0000
0000
0000
0000
0000
0000
0000
0000
0000
0000
0000
0000
0000
0000
0000
0000
0000
0000
0000
0000
0000
0000
0000
0000
3200
0300
0000
0000
0000
0000
0000
0000
0020
0030
0000
0000
0000
0000
0000
0000
0000
0000
0000
0000
0000
0000
0000
0000
0002
0003
0000
0000
0000
0000
0000
0000
,
0000
0000
0000
0000
0000
0000
0000
0000
0000
0000
0000
0000
0000
0000
0000
0000
0000
0000
0000
0000
0000
0000
0000
0000
0000
0000
0000
0000
0000
0000
0000
0000
0202
0300
0000
0000
0000
0000
0000
0000
0020
0030
0000
0000
0000
0000
0000
0000
0000
0000
0000
0000
0000
0000
0000
0000
2000
3000
0000
0000
0000
0000
0000
0000
,
0000
0000
0000
0000
0000
0000
0000
0000
0000
0000
0000
0000
0000
0000
0000
0000
0000
0000
0000
0000
0000
0000
0000
0000
0000
0000
0000
0000
0000
0000
0000
0000
0203
0300
0000
0000
0000
0000
0000
0000
0020
0030
0000
0000
0000
0000
0000
0000
0000
0000
0000
0000
0000
0000
0000
0000
2000
3000
0000
0000
0000
0000
0000
0000
,
0000
0000
0000
0000
0000
0000
0000
0000
0000
0000
0000
0000
0000
0000
0000
0000
0000
0000
0000
0000
0000
0000
0000
0000
0000
0000
0000
0000
0000
0000
0000
0000
0202
0003
0000
0000
0000
0000
0000
0000
2000
3000
0000
0000
0000
0000
0000
0000
0000
0000
0000
0000
0000
0000
0000
0000
0020
0030
0000
0000
0000
0000
0000
0000
,
0000
0000
0000
0000
0000
0000
0000
0000
0000
0000
0000
0000
0000
0000
0000
0000
0000
0000
0000
0000
0000
0000
0000
0000
0000
0000
0000
0000
0000
0000
0000
0000
0302
0003
0000
0000
0000
0000
0000
0000
2000
3000
0000
0000
0000
0000
0000
0000
0000
0000
0000
0000
0000
0000
0000
0000
0020
0030
0000
0000
0000
0000
0000
0000
,
0000
0000
0000
0000
0000
0000
0000
0000
0000
0000
0000
0000
0000
0000
0000
0000
0000
0000
0000
0000
0000
0000
0000
0000
0000
0000
0000
0000
0000
0000
0000
0000
0022
0003
0000
0000
0000
0000
0000
0000
2000
3000
0000
0000
0000
0000
0000
0000
0000
0000
0000
0000
0000
0000
0000
0000
0200
0300
0000
0000
0000
0000
0000
0000
,
0000
0000
0000
0000
0000
0000
0000
0000
0000
0000
0000
0000
0000
0000
0000
0000
0000
0000
0000
0000
0000
0000
0000
0000
0000
0000
0000
0000
0000
0000
0000
0000
0032
0003
0000
0000
0000
0000
0000
0000
2000
3000
0000
0000
0000
0000
0000
0000
0000
0000
0000
0000
0000
0000
0000
0000
0200
0300
0000
0000
0000
0000
0000
0000
,
0000
0000
0000
0000
0000
0000
0000
0000
0000
0000
0000
0000
0000
0000
0000
0000
0000
0000
0000
0000
0000
0000
0000
0000
0000
0000
0000
0000
0000
0000
0000
0000
2200
0300
0000
0000
0000
0000
0000
0000
0020
0030
0000
0000
0000
0000
0000
0000
0000
0000
0000
0000
0000
0000
0000
0000
0000
0000
0000
0000
0000
0000
0000
0000
,
0000
0000
3000
0000
,
0000
0000
0200
0000
,
0000
0000
0300
0000
,
0000
0000
0002
0000
,
0000
0000
0003
0000
,
0000
0000
0020
0000
,
0000
0000
0030
0000
;
