#TITLE:Blooddrunk;
#SUBTITLE:;
#ARTIST:Children Of Bodom;
#TITLETRANSLIT:;
#SUBTITLETRANSLIT:;
#ARTISTTRANSLIT:;
#CREDIT:;
#BANNER:Blooddrunk.png;
#BACKGROUND:bg.png;
#LYRICSPATH:;
#CDTITLE:Rhapthorne-Reincarnate.png;
#MUSIC:Blooddrunk.mp3;
#OFFSET:-1.020;
#SAMPLESTART:104.460;
#SAMPLELENGTH:12.000;
#SELECTABLE:YES;
#BPMS:0.000=120.000;
#STOPS:;
#BGCHANGES:;
// cache tags:
#FIRSTBEAT:4.000;
#LASTBEAT:484.750;
#SONGFILENAME:Songs/toune 5/Blooddrunk/Blooddrunk.sm;
#HASMUSIC:1;
#HASBANNER:1;
#MUSICLENGTH:244.114;
// end cache tags

//---------------dance-single - ----------------
#NOTES:
     dance-single:
     :
     Hard:
     12:
     1.000,1.000,1.000,0.840,1.000,1376.000,299.000,205.000,0.000,20.000:
0000
0000
0000
0000
,
2200
0000
0000
3300
0000
0000
2020
0000
0000
3030
0000
0000
0011
0000
1000
0100
1000
0000
0010
0000
1000
0000
0010
0000
,
0000
0000
0000
0000
0000
0000
0000
0000
2002
0000
0000
0000
0000
0000
0000
3003
,
0220
0000
0000
0000
0000
0000
0000
0000
0000
0000
0000
0000
0000
0000
0000
0330
0000
0000
0000
0000
0000
0000
0000
0000
1001
0000
0000
0000
0100
0000
0000
0000
0010
0000
0000
0000
1100
0000
0000
0000
0100
0000
0000
0000
0010
0000
0000
0000
,
1001
0010
1000
0100
0001
0010
1001
0100
0010
1100
0100
0010
,
1001
0010
0100
1000
0001
0010
1001
0100
0010
1100
0100
0010
,
1001
0010
1000
0100
0001
0010
2001
0000
0000
0100
0000
3000
,
0012
0000
0000
0100
0000
0003
1001
0100
0010
1100
0100
0010
,
1001
0010
0100
1000
0001
0010
1001
0100
0010
1100
0010
0100
,
1001
0001
0010
1000
0001
0010
1001
0100
0010
1100
0100
0010
,
1001
0010
1000
0100
0001
0010
2001
0000
0000
0100
0000
3000
,
0012
0000
0000
0000
0000
0000
0100
0000
0000
0000
0003
0000
1010
0000
0100
1000
0100
0000
0001
0000
1000
0000
0001
0000
,
0100
0000
0100
0000
0200
0000
0320
0000
2030
0000
3002
0000
1103
0000
0010
1000
0010
0000
0100
0000
0001
0000
0100
0000
,
0000
0000
0020
0000
0230
0000
0302
0000
2003
0000
3020
0000
0131
0000
0010
1000
0010
0000
0100
0000
1000
0000
0001
0000
,
0100
0000
0100
0000
0200
0000
0320
0000
2030
0000
3002
0000
0113
0000
0001
1000
0001
0000
1000
0000
0010
0000
0100
0000
,
0001
0000
1000
0000
0010
0000
2002
0000
3003
0000
1001
0000
1010
0000
0100
1000
0100
0000
0001
0000
1000
0000
0001
0000
,
0100
0000
0100
0000
0200
0000
0320
0000
2030
0000
3002
0000
1103
0000
0010
1000
0010
0000
0100
0000
0001
0000
0100
0000
,
0000
0000
0020
0000
0230
0000
0302
0000
2003
0000
3020
0000
0131
0000
0010
1000
0010
0000
0100
0000
1000
0000
0001
0000
,
0100
0000
0100
0000
0200
0000
0320
0000
2030
0000
3002
0000
0113
0000
0001
1000
0001
0000
0010
0000
1000
0000
0100
0000
,
0001
0000
1000
0000
0010
0000
1100
0000
1100
0000
1010
0000
1010
0000
0100
1000
0100
0000
0001
0000
1000
0000
0001
0000
,
0100
0000
0100
0000
0200
0000
0320
0000
2030
0000
3002
0000
1103
0000
0010
1000
0010
0000
0100
0000
0001
0000
0100
0000
,
0000
0000
0020
0000
0230
0000
0302
0000
2003
0000
3020
0000
0131
0000
0010
1000
0010
0000
0100
0000
1000
0000
0001
0000
,
0100
0000
0100
0000
0200
0000
0320
0000
2030
0000
3002
0000
0113
0000
0001
1000
0001
0000
1000
0000
0010
0000
0100
0000
,
0001
0000
1000
0000
0010
0000
2002
0000
3003
0000
1001
0000
1010
0000
0100
1000
0100
0000
0001
0000
1000
0000
0001
0000
,
0100
0000
0100
0000
0200
0000
0320
0000
2030
0000
3002
0000
1103
0000
0010
1000
0010
0000
0100
0000
0001
0000
0100
0000
,
0000
0000
0020
0000
0230
0000
0302
0000
2003
0000
3020
0000
0131
0000
0010
1000
0010
0000
0100
0000
1000
0000
0001
0000
,
0100
0000
0100
0000
0200
0000
0320
0000
2030
0000
3002
0000
0113
0000
0001
1000
0001
0000
0010
0000
1000
0000
0100
0000
,
1000
0100
0010
2200
0000
3300
2020
3030
2020
3030
1010
1010
,
1010
0101
0101
0101
0101
0101
2020
3030
2020
3030
1010
1010
,
1010
0101
0101
0101
0101
0101
0022
0033
0022
0033
0011
0011
,
0011
1100
1100
1100
1100
1100
0022
0033
0022
0033
0011
0011
,
0011
1000
0002
0203
2300
3002
2023
3030
2020
3030
1010
1010
,
1010
0101
0101
0101
0101
0101
2020
3030
2020
3030
1010
1010
,
1010
0101
0101
0101
0101
0101
0022
0033
0022
0033
0011
0011
,
0011
1100
1100
1100
1100
1100
0022
0033
0022
0033
0011
0011
,
0011
0100
2000
3200
2300
3002
0203
0000
0000
0000
0000
0300
,
1001
0100
0010
1100
0100
0010
1001
0010
1000
0100
0001
0010
,
1001
0100
0010
1100
0100
0010
1001
0010
0100
1000
0001
0010
,
1001
0100
0010
1100
0100
0010
1001
0010
1000
0100
0001
0010
,
2001
0000
0000
0100
0000
3000
0012
0000
0000
0100
0000
0003
,
1001
0100
0010
1100
0100
0010
1001
0010
1000
0100
0001
0010
,
1001
0100
0010
1100
0100
0010
1001
0010
0100
1000
0001
0010
,
1001
0100
0010
1100
0100
0010
1001
0010
1000
0100
0001
0010
,
2001
0000
0000
0100
0000
3000
0012
0000
0000
0100
0000
0003
,
1010
0000
0100
1000
0100
0000
0001
0000
1000
0000
0001
0000
0100
0000
0100
0000
0200
0000
0320
0000
2030
0000
3002
0000
,
1103
0000
0010
1000
0010
0000
0100
0000
0001
0000
0100
0000
0000
0000
0020
0000
0230
0000
0302
0000
2003
0000
3020
0000
,
0131
0000
0010
1000
0010
0000
0100
0000
1000
0000
0001
0000
0100
0000
0100
0000
0200
0000
0320
0000
2030
0000
3002
0000
,
0113
0000
0001
1000
0001
0000
1000
0000
0010
0000
0100
0000
0001
0000
1000
0000
0010
0000
2002
0000
3003
0000
1001
0000
,
1010
0000
0100
1000
0100
0000
0001
0000
1000
0000
0001
0000
0100
0000
0100
0000
0200
0000
0320
0000
2030
0000
3002
0000
,
1103
0000
0010
1000
0010
0000
0100
0000
0001
0000
0100
0000
0000
0000
0020
0000
0230
0000
0302
0000
2003
0000
3020
0000
,
0131
0000
0010
1000
0010
0000
0100
0000
1000
0000
0001
0000
0100
0000
0100
0000
0200
0000
0320
0000
2030
0000
3002
0000
,
0203
0000
0320
0000
2030
0000
3200
0000
0320
0000
2030
0000
3002
0000
0000
0000
0003
0000
1000
0010
1000
0010
1000
0010
,
1000
0000
0000
0000
0110
0000
0000
0000
0000
0000
0110
0000
1001
0000
0000
0000
0110
0000
1000
0001
1000
0001
1000
0001
,
1000
0000
1010
0000
0000
1010
0101
0000
1010
0100
0010
1000
,
0001
0100
0010
1000
0001
0100
0010
1000
0001
0010
0100
1000
,
0100
0000
0010
0000
0100
0000
1000
0000
0100
0000
0001
0000
0100
0000
1000
0000
0100
0000
0001
0100
0001
0100
0001
0100
,
0001
0000
0000
0000
1001
0000
0000
0000
0000
0000
0110
0000
1001
0000
0000
0000
0110
0000
0001
1000
0001
1000
0001
1000
,
0001
0000
0101
0000
0000
0101
1010
0000
0101
0010
0100
0001
,
1000
0010
0100
0001
1000
0010
0100
0001
1000
0100
0010
0001
,
0010
0100
0010
0001
0100
1000
0100
0001
0100
0001
0010
0100
,
1000
0100
0010
0100
1000
0100
0001
0100
1000
0001
0100
0010
,
1000
0001
0100
0010
1000
0001
0100
0010
1000
0100
0010
1000
,
0001
0100
0010
1000
0001
0100
0010
1000
0001
0010
1000
0100
,
0001
0010
1000
0100
0001
0010
1000
0100
0001
1000
0100
0010
,
1000
0100
0010
1000
0100
0001
1000
0100
0010
0001
0100
0010
,
1000
0001
0100
0010
1000
0001
0100
0010
1000
0100
0010
1000
,
0001
0100
0010
1000
0001
0100
0010
1000
0001
0010
1000
0100
,
0001
0010
1000
0100
0001
0010
1000
0100
0001
1000
0100
0010
,
1000
0000
0100
0000
0010
0000
1000
0000
0100
0000
0001
0000
1000
0000
0100
0000
0001
0000
1010
0000
0100
1000
0100
0000
,
1000
0000
0010
0000
1000
0000
0101
0000
0010
1000
0010
1000
0010
1000
0100
0001
0100
0000
1010
0000
0100
1000
0100
0000
,
1000
0000
0010
0000
1000
0000
0101
0000
0010
1000
0010
1000
0010
1000
0100
0001
0100
0000
1010
0000
0100
1000
0100
0000
,
1000
0000
0010
0000
1000
0000
0101
0000
1000
0100
0010
0001
0010
0100
1000
0100
0010
0000
1100
0000
0010
1000
0010
0000
,
1000
0000
0001
0000
1000
0000
0011
0000
0100
1000
0100
1000
0100
1000
0100
0010
0001
0000
1100
0000
0010
1000
0010
0000
,
1000
0000
0001
0000
1000
0000
0011
0000
0100
1000
0100
1000
0100
1000
0100
0010
0001
0000
1010
0000
0100
1000
0100
0000
,
1000
0000
0010
0000
1000
0000
0101
0000
0010
1000
0010
1000
0010
1000
0100
0001
0100
0000
1010
0000
0100
1000
0100
0000
,
1000
0000
0010
0000
1000
0000
0101
0000
1000
0100
0010
0001
0010
0100
1000
0100
0010
0000
1100
0000
0010
1000
0010
0000
,
1000
0000
0001
0000
1000
0000
0011
0000
0100
1000
0100
1000
0100
1000
0100
0010
0001
0000
1010
0000
0100
1000
0100
0000
,
1000
0000
0010
0000
0100
0000
1001
0000
0100
0010
0100
1000
0100
0010
0100
1000
0000
0000
0110
0000
0000
0000
1000
0000
,
0100
0010
0100
2020
3030
2020
0000
0000
3030
0202
0303
0010
,
1000
0100
0010
1000
0100
0001
0010
0100
1000
0100
0010
1000
,
0010
0000
0100
0000
0010
0000
2200
0000
3300
0000
2200
0000
0000
0000
0000
0000
3310
0000
1001
0000
0100
0010
1000
0000
,
0100
0010
1000
0010
0100
1000
0001
0010
1000
0022
0033
0100
,
0010
0000
1000
0000
0010
0000
0100
0000
0010
0000
1000
0000
0001
0000
0010
0000
0001
0000
1000
0100
0010
0100
1000
0100
,
0010
0001
0010
0100
1000
0100
0010
0100
1000
0100
0010
0001
0010
0100
1000
0100
0010
0100
1000
0100
0010
0001
0010
0100
,
1000
0100
0010
1000
0100
0010
0001
0100
0010
0001
0010
0100
,
1000
0010
0100
1000
0001
0100
1000
0100
0001
2020
0000
0000
,
0000
0000
0200
0000
0000
3330
0022
0000
,
0000
0000
0000
0033
0000
0000
2200
0000
0000
0000
0000
0000
0000
0000
0000
3300
0000
0000
2002
0000
0000
0000
3003
0000
,
0100
0000
0010
0000
1000
0000
0202
0000
0000
0000
0303
0000
0010
0000
1000
0000
0001
0000
0100
0000
1000
0100
0010
0000
,
1000
0000
0010
0000
1000
0000
0100
0000
0001
0010
0100
0000
1000
0000
0100
0000
0001
0000
2020
0000
0000
0000
0000
0000
,
0000
0000
0000
0000
3030
0000
0100
0000
0010
0000
1000
0000
0220
0000
0000
0000
0330
0000
1000
0100
0010
1000
0100
0010
,
0100
1000
0100
0010
0001
0100
1000
0100
1000
0100
0010
0001
1000
0100
0010
0100
0010
0002
0000
0000
0000
0000
0000
0000
,
0000
0000
0000
0013
0100
1000
0010
0100
1000
0100
0001
0100
,
1000
0100
0001
0100
0010
1000
0001
0100
0010
1000
0001
0100
,
0010
1000
0001
0010
0100
1000
0001
0100
0010
1001
0000
1001
,
0000
1001
0000
0010
0010
0010
0010
0010
0010
1100
1010
1100
,
1010
1100
1010
0100
0100
0100
0100
0011
1100
0022
0033
0022
,
0033
0011
0011
0011
1100
1100
1100
1100
1100
0202
0303
0202
,
0303
0101
0101
0101
0010
1000
0001
0010
0100
2020
3030
2020
,
3030
1010
1010
1010
0101
0101
0101
0101
0101
2020
3030
2020
,
3030
1010
1010
1010
0101
0101
0101
0101
0101
0022
0033
0022
,
0033
0011
0011
0011
1100
1100
1100
1100
1100
0022
0033
0022
,
0033
0000
0011
0000
0011
0000
0011
0000
0100
0000
1000
0000
0100
0000
1000
0000
0001
0000
1000
0010
1000
0010
1000
0010
,
1000
0000
0000
0000
0110
0000
0000
0000
0000
0000
0110
0000
1001
0000
0000
0000
0110
0000
1000
0001
1000
0001
1000
0001
,
1000
0000
1010
0000
0000
1010
0101
0000
1010
0100
0010
1000
,
0001
0100
0010
1000
0001
0100
0010
1000
0001
0010
0100
1000
,
0100
0000
0010
0000
0100
0000
1000
0000
0100
0000
0001
0000
0100
0000
1000
0000
0100
0000
0001
0100
0001
0100
0001
0100
,
0001
0000
0000
0000
1001
0000
0000
0000
0000
0000
0110
0000
1001
0000
0000
0000
0110
0000
0001
1000
0001
1000
0001
1000
,
0001
0000
0101
0000
0000
0101
1010
0000
0101
0010
0100
0001
,
1000
0010
0100
0001
1000
0010
0100
0001
1000
0100
0010
0001
,
0010
0000
0100
0000
0010
0000
0001
0000
0100
0000
1000
0000
0100
0000
0001
0000
0010
0000
1000
0010
1000
0010
1000
0010
,
1000
0000
0000
0000
0110
0000
0000
0000
0000
0000
0110
0000
1001
0000
0000
0000
0110
0000
1000
0001
1000
0001
1000
0001
,
1000
0000
1010
0000
0000
1010
0101
0000
1010
0100
0010
1000
,
0001
0100
0010
1000
0001
0100
0010
1000
0001
0010
0100
1000
,
0100
0000
0010
0000
0100
0000
1000
0000
0100
0000
0001
0000
0100
0000
1000
0000
0100
0000
0001
0100
0001
0100
0001
0100
,
0001
0000
0000
0000
1001
0000
0000
0000
0000
0000
0110
0000
1001
0000
0000
0000
0110
0000
0001
1000
0001
1000
0001
1000
,
0001
0000
0101
0000
0000
0101
1010
0000
0101
0010
0100
0001
,
1000
0010
0100
0001
1000
0010
0100
0001
1000
0100
0010
0001
,
0010
0100
0010
0001
0100
1000
0100
0001
0100
0001
0010
0100
,
1000
0000
0100
0000
0010
0000
0100
0000
1000
0000
0100
0000
0001
0000
0100
0000
1000
0000
0001
1000
0001
1000
0001
1000
,
0001
0000
0110
0000
0000
1010
1100
0011
0202
0000
0000
0303
,
0000
0020
0000
0030
0000
0000
0000
0000
0000
0000
0000
0000
0000
0000
0000
0000
;
