#TITLE:Cry of the Brave;
#SUBTITLE:;
#ARTIST:Dragonforce;
#TITLETRANSLIT:;
#SUBTITLETRANSLIT:;
#ARTISTTRANSLIT:;
#CREDIT:B. Abear;
#BANNER:Bn-Cry.png;
#BACKGROUND:Bg-Cry.png;
#LYRICSPATH:;
#CDTITLE:;
#MUSIC:Cry of the Brave.ogg;
#OFFSET:-3.053;
#SAMPLESTART:68.794;
#SAMPLELENGTH:20.766;
#SELECTABLE:YES;
#BPMS:0.000=215.000;
#STOPS:74.000=0.279
,379.000=0.279
;
#BGCHANGES:;
// cache tags:
#FIRSTBEAT:4.000;
#LASTBEAT:1215.500;
#SONGFILENAME:Songs/Index Tournament 1/Cry of the Brave/Cry of the Brave.sm;
#HASMUSIC:1;
#HASBANNER:1;
#MUSICLENGTH:346.148;
// end cache tags

//---------------dance-single - B. Abear----------------
#NOTES:
     dance-single:
     B. Abear:
     Challenge:
     16:
     1.000,1.000,0.237,0.555,1.000,3197.000,82.000,192.000,42.000,3.000:

0000
0000
0000
0000
,
1000
0000
0001
0000
0100
0001
0100
0000
0010
0000
1000
0000
0001
1000
0001
0000
,
1000
0000
0100
0000
0010
0001
0010
0000
0001
0000
2000
0000
0000
0000
3001
0000
,
0100
0000
0010
0000
1000
0010
1000
0000
0001
0000
1000
0000
0100
1000
0100
0000
,
0010
0000
0001
0000
1000
0010
1000
0000
0001
0000
0100
0000
0010
0100
0010
0000
,
0100
0000
0001
0000
1000
0100
1000
0000
0001
0000
1000
0000
0100
0010
0100
0000
,
0010
0002
1003
0010
0100
0001
1000
0100
,
0010
0000
0001
0000
1000
0010
1000
0000
0001
0000
0100
0000
0010
0100
0010
0000
,
1000
0010
1000
0010
0100
0001
0100
0001
1000
0100
1000
0100
0010
0001
0010
0001
,
2000
0000
3002
0000
0103
0010
1000
0001
0200
0000
0320
0000
1030
0001
0010
0001
,
2000
0000
3200
0000
0310
0001
1000
0001
1000
0010
0200
0000
0002
0000
0300
0000
,
1103
0000
0100
0000
1000
0001
0100
0001
2000
0000
3020
0000
0130
0001
0100
0010
,
2000
0000
3100
0010
0001
1000
0001
0010
0001
1000
0100
0010
0002
0000
0000
0000
,
1003
0100
1000
0000
0002
0000
0203
0000
0310
1000
0010
0000
0200
0000
0302
0000
,
1103
2000
3002
0203
0320
2030
3002
0000
,
0013
0100
1000
0001
0100
0010
1000
0001
0010
0001
0100
0010
1000
0100
0010
0001
,
0010
0100
1000
0001
0100
0010
1000
0001
2000
0000
0000
0000
0000
0000
0000
3000
,
1001
0000
000M
00M0
0M00
M000
000M
00M0
0M00
M000
00M0
0M00
000M
M000
0M00
00M0
,
000M
M000
00M0
0M00
000M
M000
000M
0000
1001
0000
0000
0000
0001
0000
1000
0000
,
0010
1000
0010
0000
0100
0000
0001
0000
1000
0100
1000
0000
0001
0000
0010
0000
,
0001
1000
0001
0000
0100
0000
0010
0000
1000
0010
1000
0000
0001
0000
1000
0000
,
0100
1000
0100
0000
0010
0000
0001
0000
1000
0001
1000
0000
0100
0000
0010
0000
,
0001
0010
0001
0000
1000
0000
0010
0000
0100
0010
0100
0000
0001
0000
1000
0000
,
0100
1000
0100
0000
0010
0000
0001
0000
1000
0001
1000
0000
0001
0000
0010
0000
,
0100
1000
0100
0000
1000
0000
0001
0000
0100
0001
0100
0000
0002
0000
0000
0000
,
0000
0000
0000
0000
2003
0000
0000
0000
0000
0000
0000
0000
3001
0100
0001
0100
,
0010
1000
0010
1000
0001
0010
0001
0010
0100
1000
0100
1000
0001
0100
0001
0000
,
1000
0100
1000
0000
0010
0100
0010
0000
0100
0001
0100
0000
0001
1000
0200
0000
,
0310
0000
0010
0000
0001
1000
0020
0000
0130
0000
0100
0000
0001
0010
0001
0000
,
1000
0100
1000
0000
0001
1000
0001
0000
0100
0001
0100
0000
0010
1000
0002
0000
,
0103
0000
0100
0000
0001
1000
0020
0000
1030
0000
1000
0000
0001
0010
0001
0000
,
1000
0100
1000
0000
0001
0100
0001
0000
0100
0010
0100
0000
0010
1000
0002
0000
,
0013
0000
0010
0000
0100
1000
0002
0000
0013
0000
0010
0000
0001
1000
0001
0000
,
0100
0001
0100
0000
0010
1000
0010
0000
1000
0100
1000
0000
0001
0100
0001
0100
,
0010
1000
0010
1000
0001
0010
0001
0010
0100
1000
0100
1000
0001
0100
0010
1000
,
0100
0010
0100
1000
0001
0010
0001
1000
0010
0100
0001
1000
0100
0010
0001
1000
,
0100
1000
0001
0100
0010
1000
0001
1000
0100
0010
0100
1000
0010
1000
0001
0100
,
0010
0100
0010
0100
0001
1000
0100
0010
0001
0010
0001
0100
0010
1000
0010
1000
,
0010
1000
0010
0000
2002
3003
0000
0000
0000
0000
0000
0000
0001
1000
0100
0010
,
0001
1000
0010
0100
0010
1000
0001
0010
0001
1000
0010
1000
0001
0100
0010
1000
,
0100
0010
0001
0010
0100
1000
0001
0100
0010
1000
0001
1000
0100
0010
0100
0010
,
0001
1000
0001
1000
0010
0100
0010
0100
0001
1000
0001
1000
0002
0000
0000
0000
,
0000
0000
0000
0003
0000
0000
1000
0010
,
0100
0001
0100
0000
0010
0000
1000
0000
0100
1000
0100
0000
0010
0000
0001
0000
,
1000
0001
1000
0000
0010
0000
0100
0000
0001
0100
0001
0000
1000
0000
0100
0000
,
0010
0001
0010
0000
0001
0000
0010
0000
0001
1000
0001
0000
0100
0000
0010
0000
,
1000
0010
1000
0000
0001
0000
0010
0000
0100
1000
0100
0000
0010
0000
0001
0000
,
1000
0001
1000
0000
0010
0000
1000
0000
0010
0100
0010
0000
1000
0000
0001
0000
,
1000
0100
1000
0000
0001
0000
0010
0000
0100
1000
0100
0000
1000
0000
0001
0000
,
0100
0001
0100
0000
0010
0000
1000
0000
0001
1000
0001
0000
1000
0100
1000
0100
,
0010
0001
0010
0001
1000
0010
1000
0010
0100
0001
0100
0001
1000
0100
1000
0000
,
0001
0100
0001
0000
0100
0010
0100
0000
0010
1000
0010
0000
1000
0001
1000
0000
,
0001
0010
0001
0000
1000
0100
1000
0000
0001
0100
0001
0000
0100
0010
0100
0000
,
0010
0100
0010
0000
1000
0001
1000
0000
0001
1000
0001
0000
1000
0100
1000
0000
,
0100
1000
0100
0000
0010
0001
0010
0000
0001
0010
0001
0000
1000
0010
1000
0000
,
0001
1000
0001
0000
0100
0010
0100
0000
0010
1000
0010
0000
1000
0100
1000
0000
,
0001
0010
0001
0000
1000
0100
1000
0000
0001
1000
0001
0000
0100
0001
0100
0001
,
1000
0100
1000
0100
0010
0001
0010
0001
1000
0010
1000
0010
0100
0001
0100
0001
,
1000
0100
1000
0100
0010
0001
0010
0001
1000
0010
1000
0010
0100
0000
0001
0000
,
1000
0100
1000
0000
0001
0000
0100
0000
0010
0100
0010
0000
1000
0000
0001
0000
,
1000
0100
1000
0000
0001
0000
0010
0000
0100
1000
0100
0000
0010
0000
0001
0000
,
1000
0001
1000
0000
0010
0000
1000
0000
0001
0100
0001
0000
1000
0000
0100
0000
,
0010
0001
0010
0000
0100
0000
1000
0000
0001
0100
0001
0000
1000
0000
0100
0000
,
0010
0100
0010
0000
0001
0000
1000
0000
0001
0100
0001
0000
1000
0000
0010
0000
,
0100
0010
0100
0000
0001
0000
1000
0000
0100
1000
0100
0000
0010
0000
0001
0000
,
1000
0001
1000
0000
0001
0000
0010
0000
0100
0010
0100
0000
0010
0001
0010
0001
,
1000
0010
1000
0010
0100
0001
0100
0001
1000
0100
1000
0100
0010
0001
0010
0000
,
0001
1000
0001
0000
1000
0010
1000
0000
0001
0100
0001
0000
0100
0010
0100
0000
,
0010
1000
0010
0000
1000
0001
1000
0000
0001
0010
0001
0000
1000
0001
1000
0000
,
0010
0100
0010
0000
0100
0001
0100
0000
0001
1000
0001
0000
1000
0100
1000
0000
,
0001
0010
0001
0000
1000
0001
1000
0000
0010
1000
0010
0000
0100
0001
0100
0000
,
0001
0010
0001
0000
1000
0100
1000
0000
0001
1000
0001
0000
0100
0010
0100
0000
,
0010
1000
0010
0000
0100
0001
0100
0000
0001
1000
0001
0000
1000
0100
1000
0000
,
0010
0100
0010
0000
0100
0001
0100
0000
0001
1000
0001
0000
1000
0100
1000
0100
,
0010
0001
0010
0001
1000
0010
1000
0010
0100
0001
0100
0001
1000
0100
0010
0001
,
1000
0001
0100
0010
1000
0001
0100
0001
1000
0100
0010
0001
1000
0100
1000
0001
,
0100
0000
0000
0001
0000
0000
1000
0000
0000
0010
0000
0000
0200
0000
0000
0000
0300
0000
0000
0000
0000
0000
0000
0000
0000
0000
0000
0000
0000
0000
0000
0000
0000
0000
0000
0000
0002
0000
0000
0000
0003
0000
0000
0000
0000
0000
0000
0000
,
0000
0000
0000
0000
2000
0000
3002
0000
0103
0010
1000
0001
2000
0000
3200
0000
,
0310
0001
1000
0100
2000
0000
3020
0000
0130
0001
0200
0000
0320
0000
2030
0000
,
3002
0000
0023
0000
0130
1000
0100
1000
0200
0000
0320
0000
0130
1000
0100
1000
,
0002
2003
3002
0203
0320
2030
3002
0023
,
0430
0000
0000
0000
2300
0000
3002
0000
0103
0010
0100
0000
0002
0000
2003
0000
,
3001
0010
0001
0000
2000
0000
3200
0000
0320
0000
0032
0000
2003
0000
3002
0000
,
0203
0000
0000
0000
0320
0000
2030
0000
3001
0010
0001
1000
0200
0000
0320
0000
,
0031
1000
0001
0100
0010
1000
0010
1000
0001
0010
0001
0010
0100
1000
0100
1000
,
0002
0000
0000
0000
2003
0000
3200
0000
0310
0001
0010
0100
2000
0000
3002
0000
,
0103
0010
1000
0001
0200
0000
0320
0000
1030
0100
0010
0001
1000
0010
0100
0001
,
2000
0000
0000
0000
3101
0000
0001
0000
1000
0100
0010
0001
2000
0000
3002
0000
,
0103
0010
0100
0010
2000
0000
3200
0000
0310
0001
1000
0001
0010
0001
1000
0010
,
0200
0000
0000
0300
0101
0000
1001
0000
1000
0100
0010
0001
1000
0000
1001
0000
,
0001
0100
0010
1000
0002
0000
2003
0000
3200
0000
0320
0000
0032
0000
2003
0000
,
3020
0000
0000
0000
0130
0001
1000
0100
1000
0001
0010
0001
1000
0010
0100
0001
,
1000
0100
0010
0001
0010
0001
1000
0010
0100
0010
1000
0001
0020
0000
0000
0000
,
0230
0000
0000
0300
1001
0000
M000
00M0
0M00
000M
M000
00M0
0M00
000M
M000
0M00
,
00M0
0M00
M000
000M
0M00
00M0
0M00
000M
M000
000M
M000
0000
1001
0000
0000
0000
,
0001
0000
0001
0000
1000
0010
1000
0000
0010
0000
0010
0000
0100
0001
0100
0000
,
0001
0000
0001
0000
1000
0100
1000
0000
0100
0000
0100
0000
0010
0001
0010
0000
,
0001
0000
0001
0000
1000
0010
1000
0000
0001
0000
0001
0000
1000
0100
1000
0000
,
0001
0000
0001
0000
0010
0100
0010
0000
0100
0000
0100
0000
1000
0100
1000
0000
,
0010
0000
0010
0000
0100
0001
0100
0000
0010
0000
0010
0000
1000
0001
1000
0000
,
0100
0000
0100
0000
0010
0001
0010
0000
0001
0000
0001
0000
1000
0010
1000
0000
,
0100
0000
0100
0000
1000
0001
1000
0000
0010
0000
0010
0000
0100
0001
0100
0000
,
0010
1000
0001
1000
0001
0010
0100
1000
0100
0010
0100
1000
0001
1000
0010
0100
,
0001
0100
0001
0000
1000
0100
1000
0000
0010
0100
0010
0000
0100
0001
0100
0000
,
0001
1000
0200
0000
0310
0000
0010
0000
0001
1000
0020
0000
0130
0000
0100
0000
,
0001
0010
0001
0000
1000
0100
1000
0000
0001
1000
0001
0000
0100
0001
0100
0000
,
0010
1000
0002
0000
0103
0000
0100
0000
0001
1000
0020
0000
1030
0000
1000
0000
,
0001
0010
0001
0000
1000
0100
1000
0000
0001
0100
0001
0000
0100
0010
0100
0000
,
0010
1000
0002
0000
0013
0000
0010
0000
0100
1000
0002
0000
0013
0000
0010
0000
,
0001
1000
0001
0000
0100
0001
0100
0000
0010
1000
0010
0000
1000
0100
1000
0000
,
0001
0100
0001
0100
0010
1000
0010
1000
0001
0010
0001
0010
0100
1000
0100
1000
,
0001
0100
0010
1000
0100
0010
0100
1000
0001
0010
0001
1000
0010
0100
0001
1000
,
0100
0010
0001
1000
0100
1000
0001
0100
0010
1000
0001
1000
0100
0010
0100
1000
,
0010
1000
0001
0100
0010
1000
0001
0010
0001
1000
0100
1000
0001
0100
0001
1000
,
0001
0010
0001
0010
0001
0010
0001
0000
2002
3003
0000
0000
0000
0000
0000
0000
,
1000
0001
0010
0100
1000
0001
0100
0010
0100
0001
1000
0100
1000
0001
0100
0001
,
1000
0010
0100
0001
0010
0100
1000
0100
0010
0001
1000
0010
0100
0001
1000
0001
,
0010
0100
0010
0100
1000
0001
1000
0001
0100
0010
0100
0010
1000
0001
1000
0001
,
2000
0000
0000
0000
0000
3000
0000
0000
,
0010
0000
1000
0000
0001
0010
0001
0000
1000
0000
0100
0000
0010
0001
0010
0000
,
0001
0000
1000
0000
0010
1000
0010
0000
0100
0000
0001
0000
1000
0100
1000
0000
,
0001
0000
0010
0000
0100
0010
0100
0000
0010
0000
0001
0000
1000
0010
1000
0000
,
0001
0000
0010
0000
0100
1000
0100
0000
0010
0000
0001
0000
1000
0001
1000
0000
,
0010
0000
0100
0000
0001
0100
0001
0000
1000
0000
0001
0000
1000
0100
1000
0000
,
0001
0000
0100
0000
0010
1000
0010
0000
0100
0000
0001
0000
1000
0001
1000
0000
,
0100
0000
0010
0000
0001
0010
0001
0000
1000
0000
0001
0000
0010
0001
0010
0000
,
0100
1000
0100
1000
0001
0100
0001
0100
0010
1000
0010
1000
0001
0010
0001
0010
,
0100
0000
0100
0000
0010
0001
0010
0000
0001
0000
0001
0000
1000
0010
1000
0000
,
0010
0000
0010
0000
0100
0001
0100
0000
0010
0000
0010
0000
1000
0001
1000
0000
,
0100
0000
0100
0000
0010
0001
0010
0000
0001
0000
0001
0000
1000
0100
1000
0000
,
0001
0000
0001
0000
0100
0010
0100
0000
0001
0000
0001
0000
1000
0100
1000
0000
,
0001
0100
0001
0000
0100
0010
0100
0000
0010
1000
0010
0000
1000
0001
1000
0000
,
0001
0010
0001
0000
1000
0100
1000
0000
0100
0010
0100
0000
0010
0001
0010
0000
,
0001
0010
0001
1000
0010
0100
0001
1000
0100
0010
0100
0010
0001
1000
0001
0100
,
0010
1000
0001
0100
0001
0100
0010
1000
0001
0010
0100
1000
0100
1000
0001
0100
,
0010
0000
1000
0000
0001
0100
0001
0000
1000
0000
0100
0000
0010
0001
0010
0000
,
0001
0000
1000
0000
0010
1000
0010
0000
0100
0000
0001
0000
0010
0001
0010
0000
,
0100
0000
1000
0000
0001
1000
0001
0000
0100
0000
0010
0000
1000
0010
1000
0000
,
0001
0000
0010
0000
0100
1000
0100
0000
0010
0000
0001
0000
1000
0001
1000
0000
,
0100
0000
1000
0000
0001
0100
0001
0000
0100
0000
0010
0000
1000
0010
1000
0000
,
0001
0000
1000
0000
0100
1000
0100
0000
0010
0000
0001
0000
1000
0001
1000
0000
,
0001
0000
0010
0000
0100
0010
0100
0000
1000
0000
0001
0000
0100
0001
0100
0000
,
0010
1000
0010
1000
0001
0010
0001
0010
0100
1000
0100
1000
0001
0100
0001
0100
,
0010
1000
0010
0000
0100
0001
0100
0000
0001
1000
0001
0000
1000
0100
1000
0000
,
0001
0010
0001
0000
1000
0010
1000
0000
0010
0100
0010
0000
0100
0001
0100
0000
,
0001
1000
0001
0000
1000
0100
1000
0000
0001
0010
0001
0000
0100
0010
0100
0000
,
0010
1000
0010
0000
1000
0001
1000
0000
0001
0010
0001
0000
1000
0010
1000
0000
,
0001
0100
0001
0000
1000
0100
1000
0000
0001
0010
0001
0000
1000
0001
1000
0000
,
0001
0010
0001
0000
1000
0010
1000
0000
0001
0100
0001
0000
0100
0010
0100
0000
,
0010
1000
0010
0000
1000
0100
1000
0000
0100
0010
0100
0000
0010
0001
0010
0000
,
0001
0100
0010
1000
0001
1000
0100
0010
0001
0010
0001
1000
0010
0100
0010
1000
,
0001
0010
0001
0100
0010
1000
0001
0100
0010
1000
0100
0010
0001
0010
0001
1000
,
0010
0000
0000
0100
0000
0000
0001
0000
0000
1000
0000
0000
0001
0000
0000
0010
0000
0000
0100
0000
0000
1000
0000
0000
0200
0000
0000
0000
0300
0000
0000
0000
0000
0000
0000
0000
0000
0000
0000
0000
0000
0000
0000
0000
0000
0000
0000
0000
,
2000
3000
0000
0000
0000
0000
2002
0000
0000
0000
0000
0000
,
0000
0000
0000
0000
,
0000
0000
0000
0000
,
0000
0000
0000
0000
,
0000
0000
0000
3003
2002
0000
0000
0000
,
0000
0000
0000
0000
,
0000
0000
0000
0000
,
0000
0000
0000
0000
,
0000
0000
0000
3003
2002
0000
0000
0000
,
0000
0000
0000
0000
,
0000
0000
0000
0000
,
0000
0000
0000
0000
,
0000
0000
0000
3003
2002
0000
0000
0000
,
0000
0000
0000
0000
,
0000
0000
3003
0000
1001
0100
0100
1010
,
0001
1100
0010
0010
0011
1000
1000
0101
,
0100
1010
0001
0001
1001
0100
0100
0100
,
0011
1000
1000
1000
0101
0010
0010
0010
,
1100
0001
0001
0001
0110
1000
1000
1000
,
0101
0010
0010
0010
1001
0100
0100
0100
,
0011
1000
1000
1000
0101
0010
0010
0010
,
1010
0100
0101
1100
1001
0010
1010
1001
,
0011
1000
1001
0011
1100
0010
0011
1001
,
0110
1000
0101
0110
1010
0001
1001
0101
,
1010
0001
1001
0100
1001
0010
0010
0010
,
1100
0001
0001
0001
1010
0100
0100
0100
,
0011
1000
1000
1000
0110
0001
1100
0010
,
1100
0001
0001
0001
1100
0010
0010
0010
,
0101
1000
1000
1000
0101
0010
1100
1001
,
0101
0000
1001
0100
0001
1000
0101
0000
,
1100
1001
0101
0001
1000
0000
0011
1001
,
1010
0100
0100
0100
0101
1001
2000
3200
,
0320
0032
2003
3020
0430
0000
0000
0000
,
0000
0300
0002
2003
3200
0000
0000
0320
,
0000
0000
0000
0000
0032
0000
0000
0000
1003
0010
0100
0001
1000
0100
0010
0001
,
2000
0001
3001
0002
0203
0000
0000
0000
,
0000
0000
0300
0000
0020
2030
3200
0010
,
0000
0320
0000
0032
2003
3020
0230
0001
,
0000
0000
0001
0000
0000
0000
0302
0000
1003
0100
0010
0001
1000
0010
1000
0010
,
0100
0001
1000
0100
0010
0100
1000
0001
0100
0001
0100
0010
1000
0001
0010
0001
,
1000
0100
1000
0001
0100
0010
1000
0001
1000
0100
1000
0100
0010
0001
1000
0100
,
1000
0100
0010
0001
1000
0010
0100
0001
1000
0010
0100
0001
1000
0100
0010
0001
,
1000
0001
0100
0010
0100
0001
0010
0100
1000
0010
0100
0001
1000
0100
0010
0001
,
1000
0010
0100
0001
0100
0001
0010
0001
0200
0000
0310
1000
0001
1000
0100
0010
,
0002
0000
2003
0000
3020
0000
0000
0000
0130
0001
1000
0001
0010
0100
1000
0010
,
0100
0001
1000
0001
0010
0100
1000
0010
0100
0001
1000
0100
1000
0010
0100
0001
,
0100
0010
1000
0001
1000
0100
0010
0001
1000
0001
0100
0010
1000
0001
1000
0100
,
0010
0001
0010
0001
0100
0010
1000
0000
1001
0000
0100
0000
1001
0000
0100
0000
,
0001
1000
0100
1000
1001
0000
0000
0000
0001
1000
0100
0010
0001
1000
0010
1000
,
0100
0010
0001
0100
0010
0100
0001
1000
0100
1000
0010
0100
0001
1000
0001
0100
,
0001
1000
0010
0100
0001
0010
0100
1000
0001
0100
0001
0100
0010
1000
0001
0100
,
0001
0100
0010
1000
0100
0010
0001
1000
0200
0000
1000
0000
1000
0000
2000
0000
,
0000
0000
0300
0000
3002
0203
0320
2030
,
0000
0000
3002
0000
0023
0000
0230
0000
2300
0000
3001
0100
0020
0000
0230
0000
,
0000
0000
0302
0000
1003
0100
0020
0000
0031
0100
0010
1000
0001
1000
0100
0010
,
0001
0100
0010
1000
0001
0100
0010
1000
0001
0100
0001
0100
0010
1000
0010
1000
,
0001
0010
0001
0010
0100
1000
0100
1000
0002
0000
0100
0000
0103
0000
0020
0000
,
0000
0000
1030
0000
0200
0000
0310
0000
0001
0100
0010
0000
2000
0000
3200
0000
,
0000
0000
0320
0030
0002
0000
0000
0000
2003
0000
0100
0000
3200
0000
0010
0000
,
0000
0310
0002
1003
0000
0002
0023
0230
,
0300
0000
2000
0000
0000
0000
0000
0000
3001
0100
0001
0100
0010
1000
0010
1000
,
0001
0010
0001
0010
0100
1000
0100
1000
0001
1000
0001
1000
0010
0100
0010
0100
,
0001
0100
0001
0100
0010
1000
0010
1000
0001
0010
0001
0010
0100
1000
0100
1000
,
0001
0010
0001
0010
0100
1000
0100
1000
0010
0100
0001
1000
0100
0010
0001
0100
,
0001
1000
0100
1000
0010
0100
0001
1000
0100
0010
0001
1000
0001
0100
0010
0100
,
0001
1000
0100
0010
0001
1000
0010
0100
0001
0100
0001
1000
0100
0010
0100
1000
,
0001
0010
0001
1000
0010
0100
0001
0100
0010
1000
0010
1000
0001
0100
0001
0100
,
0001
0010
0001
0010
0100
1000
0100
1000
0004
1000
0000
1000
0000
1000
0000
1000
,
0003
0100
0010
1000
0001
0010
0100
0010
0001
1000
0010
1000
0001
0100
0010
1000
,
0100
1000
0001
0010
0100
0010
0001
0100
0010
1000
0001
0100
0001
0100
0010
1000
,
0100
0010
0001
1000
0100
1000
0100
0010
0001
1000
0001
0100
0010
1000
0100
0010
,
0001
0100
0010
1000
0010
0100
0001
1000
0100
0010
0100
0010
0100
0010
0100
0010
,
0002
0000
0000
0000
0203
0000
0000
0000
0310
0000
1000
0000
0001
0100
0001
0000
,
1000
0000
0100
0000
0010
0001
0010
0000
0001
0000
1000
0000
0010
0100
0010
0000
,
0100
0000
0001
0000
1000
0100
1000
0000
0001
0000
0010
0000
0001
1000
0001
0000
,
0100
0000
0010
0000
1000
0010
1000
0000
0001
0000
1000
0000
0100
1000
0100
0000
,
0010
0000
0001
0000
1000
0010
1000
0000
0001
0100
0010
1000
0001
1000
0100
0010
,
0001
1000
0001
1000
0010
0100
0001
0100
0010
1000
0100
0010
0001
0010
0100
1000
,
0001
0100
0010
0100
0002
0000
0000
0000
2003
0000
3001
0100
0001
1000
0100
1000
,
0002
0000
0103
0010
1000
0010
0100
0001
1000
0100
1000
0100
0010
0001
0010
0001
,
1000
0010
1000
0010
0100
0001
0100
0001
0010
0000
0100
0000
1000
0001
0100
0000
,
0010
0000
1000
0000
0001
0100
0010
0000
1000
0000
0001
0000
0010
0100
1000
0000
,
0001
0000
1000
0000
0010
0100
0001
0000
1000
0000
0100
0000
0010
0100
1000
0000
,
0001
0000
1000
0000
0001
0010
0100
0000
1000
0000
0010
0000
0100
0001
1000
0000
,
0001
0000
1000
0000
0100
0010
0001
0000
2000
0000
0000
0000
0000
0000
0000
0000
,
0000
0000
3002
0203
0320
0000
0000
2030
,
0000
0000
0000
0000
3002
0000
0000
0000
1003
0100
0010
0001
1000
0001
1000
0100
,
0010
0001
1000
0001
0100
0010
1000
0001
0100
0001
1000
0010
0100
0001
1000
0001
,
1000
0100
0010
0001
0100
0010
1000
0001
0100
0000
0010
0000
1000
0010
1000
0000
,
0001
0000
1000
0000
0001
0010
0001
0000
1000
0000
0100
0000
0010
0100
0010
0000
,
0001
0000
1000
0000
0001
0100
0001
0000
1000
0000
0010
0000
0100
0010
0100
0000
,
0001
0000
1000
0000
0001
0010
0001
0000
1000
0000
0100
0000
1000
0100
1000
0000
,
0001
0000
0010
0000
0100
0010
0100
0000
0010
0000
0001
0000
1000
0001
0100
0000
,
0010
0000
1000
0000
0001
0100
0010
0000
1000
0000
0100
0000
0010
0001
1000
0000
,
0001
0000
0010
0000
0100
1000
0100
0000
1000
0001
0100
0001
0100
0010
1000
0001
,
0010
0001
0100
0010
1000
0001
1000
0100
0010
0001
0010
0001
1000
0010
1000
0010
,
0100
0001
0100
0001
1000
0100
1000
0100
0010
0001
0010
0000
0001
0010
0001
0000
,
0100
0010
0100
0000
0010
1000
0010
0000
1000
0001
0020
0000
0130
0000
0100
0000
,
1000
0001
0200
0000
0310
0000
0010
0000
1000
0100
1000
0000
0001
0010
0001
0000
,
1000
0001
1000
0000
0010
1000
0010
0000
0100
0001
2000
0000
3010
0000
0010
0000
,
1000
0001
0200
0000
0301
0000
0001
0000
1000
0100
1000
0000
0001
0010
0001
0000
,
1000
0010
1000
0000
0010
0100
0010
0000
0100
0001
2000
0000
3100
0000
0100
0000
,
0010
0001
2000
0000
3100
0000
0100
0000
1000
0001
1000
0000
0010
1000
0010
0000
,
0100
0001
0100
0000
0001
0010
0001
0000
1000
0010
1000
0010
0100
0001
0100
0001
,
1000
0100
1000
0100
0010
0001
0010
0001
1000
0010
0100
0001
0010
0100
0010
0001
,
1000
0100
1000
0001
0100
0010
1000
0001
0010
0100
1000
0001
0010
0001
1000
0010
,
0100
0001
1000
0001
0010
0100
0010
0001
0100
0001
1000
0010
0100
0010
0100
0010
,
1000
0001
0010
0100
1000
0100
1000
0010
0100
0001
0100
0001
0100
0001
0100
0000
,
2002
3003
0000
0000
0000
0000
0000
0000
1000
0001
1000
0100
0010
0001
0100
0001
,
0100
0010
1000
0001
0010
0001
1000
0100
0010
0001
0100
0010
1000
0100
0010
0001
,
1000
0001
1000
0010
0100
0001
1000
0100
0010
0001
0100
0010
1000
0001
0100
0001
,
1000
0100
1000
0010
0100
0010
0100
0001
2000
0000
0000
0000
0000
0000
0000
0000
,
0000
0000
0000
0000
0000
0000
3000
0000
0001
0100
0001
0000
1000
0100
1000
0000
,
0001
0010
0001
0000
0100
0010
0100
0000
0010
1000
0010
0000
1000
0001
1000
0000
,
0001
0010
0001
0000
1000
0100
1000
0000
0001
0100
0001
0000
0100
0010
0100
0000
,
0010
1000
0010
0000
0100
0001
0100
0000
0001
0010
0001
0000
1000
0100
1000
0000
,
0001
0010
0001
0000
1000
0001
1000
0000
0001
0000
0100
0000
0010
1000
0010
0000
,
0100
0000
0001
0000
1000
0100
1000
0000
0001
0000
0010
0000
0100
1000
0100
0000
,
0010
0000
0001
0000
1000
0001
1000
0000
0010
0000
0100
0000
0001
0100
0001
0000
,
1000
0000
0100
0000
0010
0001
0010
0000
0001
1000
0001
1000
0010
0100
0010
0100
,
0001
1000
0001
1000
0010
0100
0010
0100
0001
0000
1000
0000
0001
0010
0001
0000
,
1000
0000
0100
0000
0010
0001
0010
0000
0001
0000
1000
0000
0001
0100
0001
0000
,
0100
0000
0010
0000
1000
0010
1000
0000
0001
0000
1000
0000
0100
1000
0100
0000
,
0010
0000
0001
0000
1000
0001
1000
0000
0010
0000
0100
0000
0001
0100
0001
0000
,
1000
0000
0100
0000
0010
0001
0010
0000
0001
1000
0001
0000
0100
0001
0100
0000
,
0010
1000
0010
0000
1000
0001
1000
0000
0100
1000
0100
0000
0010
0001
0010
0000
,
0001
1000
0001
0000
1000
0010
1000
0000
0001
0010
0001
0010
0100
1000
0100
1000
,
0001
0100
0001
0100
0010
1000
0010
1000
0001
1000
0001
1000
0100
0010
0100
0010
,
0001
1000
0001
1000
0010
0100
0010
0100
0001
1000
0001
0000
1000
0010
1000
0000
,
0001
0010
0001
0000
1000
0100
1000
0000
0001
1000
0001
0000
1000
0010
1000
0000
,
0001
0100
0001
0000
0100
0010
0100
0000
0001
1000
0001
0000
1000
0100
1000
0000
,
0001
0010
0001
0000
1000
0100
1000
0000
0010
1000
0010
0000
0100
0010
0100
0000
,
0001
0100
0001
0000
1000
0100
1000
0000
0001
0000
0010
0000
0100
1000
0100
0000
,
1000
0000
0001
0000
1000
0010
1000
0000
0001
0000
0100
0000
0010
1000
0010
0000
,
1000
0000
0100
0000
0010
0001
0010
0000
0100
0000
1000
0000
0001
1000
0001
0000
,
0010
0000
0100
0000
0010
0100
0010
0000
0100
1000
0100
1000
0001
0010
0001
0010
,
0001
0100
0001
0100
0010
1000
0010
1000
0001
0000
0100
0000
0010
1000
0001
0000
,
1000
0000
0100
0000
0010
0001
0100
0000
0010
0000
1000
0000
0001
0100
0010
0000
,
1000
0000
0001
0000
0010
0100
1000
0000
0100
0000
1000
0000
0001
1000
0100
0000
,
0010
0000
0001
0000
0100
0010
1000
0000
0001
0000
0100
0000
0010
1000
0001
0000
,
1000
0000
0001
0000
0010
0100
1000
0000
0001
0000
0100
0000
0010
1000
0001
0000
,
0100
0000
0010
0000
1000
0001
1000
0000
0100
0000
0010
0000
0001
1000
0010
0000
,
0100
0000
0001
0000
1000
0100
0010
0000
0001
0010
0001
0000
1000
0010
1000
0000
,
0001
0100
0001
0000
0100
0010
0100
0000
0010
1000
0010
1000
0001
0010
0001
0010
,
0100
1000
0100
1000
0001
0100
0001
0100
0010
1000
0001
0010
0001
1000
0100
0010
,
0001
1000
0010
0100
0001
1000
0100
0010
0001
1000
0010
1000
0001
0010
0100
0000
,
1100
0000
0011
0000
,
2002
0000
0000
0000
,
0000
0000
0000
0000
,
0000
0000
0000
0000
,
0000
0000
0000
0000
0000
0000
0000
3003
;
