#TITLE:Party Hard;
#SUBTITLE:;
#ARTIST:BOB The Builder!;
#TITLETRANSLIT:;
#SUBTITLETRANSLIT:;
#ARTISTTRANSLIT:;
#CREDIT:;
#BANNER:party hard bn.png;
#BACKGROUND:party hard bg.png;
#LYRICSPATH:;
#CDTITLE:;
#MUSIC:party hard.ogg;
#OFFSET:-0.001;
#SAMPLESTART:29.200;
#SAMPLELENGTH:12.000;
#SELECTABLE:YES;
#DISPLAYBPM:260.000;
#BPMS:0.000=130.000,64.000=260.000,110.000=130.000,111.000=260.000,141.500=65.000,141.750=650.000,143.000=260.000,363.000=195.000,369.000=130.000,405.000=260.000,479.000=130.000,480.000=260.000,482.000=130.000,483.000=260.000,485.000=130.000,486.000=260.000,488.000=130.000,489.000=260.000,491.000=130.000,492.000=260.000,494.000=130.000,495.000=260.000,497.000=130.000,498.000=260.000,500.000=130.000,501.000=260.000,503.000=130.000,504.000=260.000,506.000=130.000,507.000=260.000,509.000=130.000,510.000=260.000,512.000=130.000,513.000=260.000,529.000=32.500,529.125=487.500,531.000=260.000,533.000=32.500,533.125=487.500,535.000=260.000,619.000=130.000,620.000=260.000,664.000=130.000,666.000=65.000,667.000=260.000;
#STOPS:;
#BGCHANGES:;
// cache tags:
#FIRSTBEAT:16.000;
#LASTBEAT:670.000;
#SONGFILENAME:Songs/Speedcore Rejects/Party Hard - [Tyler]/party hard.sm;
#HASMUSIC:1;
#HASBANNER:1;
#MUSICLENGTH:182.776;
// end cache tags

//---------------dance-single - T. Moore----------------
#NOTES:
     dance-single:
     T. Moore:
     Challenge:
     13:
     1.000,1.000,0.487,0.635,0.410,1112.000,89.000,116.000,34.000,1.000:
0000
0000
0000
0000
,
0000
0000
0000
0000
,
0000
0000
0000
0000
,
0000
0000
0000
0000
,
0002
0000
0003
0000
0002
0000
0003
0000
0100
0000
0000
0000
0100
0000
0000
0000
0020
0000
0030
0000
1000
0000
0000
0000
0020
0030
0200
0300
0020
0030
0200
0300
,
0001
0000
2000
3000
0002
0000
0000
0000
0013
0000
0200
0000
0000
0000
0000
0000
23M0
0000
0MM0
0000
0MM0
0000
0MM0
0000
3M20
0000
1030
0000
0100
M00M
0100
0000
,
0002
0000
0003
0000
0002
0000
0003
0000
0010
0000
0000
0000
0010
0000
0000
0000
0200
0000
0000
0000
1300
0000
0000
0000
0200
0300
0020
0030
0200
0300
0020
0030
,
0002
0000
0003
0000
0002
0000
0000
0000
0103
0000
0002
0000
0000
0000
0000
0000
10M3
0000
02MM
0000
00MM
0000
00MM
0000
23MM
0000
0000
0000
3002
0003
0002
0003
,
0100
0001
0000
0001
0010
0100
0000
0100
1000
0001
0000
0001
0100
0010
0000
0010
,
1000
0000
0100
0000
0000
0000
0100
0000
0010
0000
0100
0000
0000
0000
0100
0000
1000
0000
0001
0000
0000
0000
0001
0000
0100
0000
0001
0000
2000
3000
0001
0000
,
2000
3000
0100
0000
0000
0000
0100
0000
0010
0000
0001
0000
0000
0000
0001
0000
1000
0000
0010
0000
0000
0000
0010
0000
0100
0000
0001
0000
0000
0000
0001
0000
,
0010
0000
0100
0000
0000
0000
0100
0000
1000
0000
0100
0000
0000
0000
0100
0000
0010
0000
0001
0000
0000
0000
0001
0000
1000
0000
0001
0000
0200
0300
0010
0000
,
0200
0300
0001
0000
0000
0000
0001
0000
1000
0000
0100
0000
0000
0000
0100
0000
0010
0000
0001
0000
0000
0000
0001
0000
1000
0000
0010
0000
0000
0000
0010
0000
,
0100
0000
0001
0000
0000
0000
0001
0000
1000
0000
0001
0000
0000
0000
0001
0000
0100
0000
0010
0000
0000
0000
0010
0000
1000
0000
0010
0000
0200
0300
0010
0000
,
0200
0300
0001
0000
0000
0000
0001
0000
1000
0000
0100
0000
0000
0000
0100
0000
0010
0000
0001
0000
0000
0000
0001
0000
0100
0000
0010
0000
0000
0000
0010
0000
,
1000
0000
0001
0000
0000
0000
0001
0000
0010
0000
0001
0000
0000
0000
0001
0000
1000
0000
0010
0000
0000
0000
0010
0000
0100
0000
0001
0000
2000
3000
0001
0000
,
2000
3000
0000
0000
0100
0000
0000
0000
1000
0000
0000
0000
0100
0000
0000
0000
0010
0000
0000
0000
0001
0000
0000
0000
1000
0000
0000
0000
0010
0000
0000
0000
,
0100
0001
0100
0001
0010
0100
1000
0001
,
0101
1000
1100
0001
,
0100
0001
0100
0001
0010
0100
1000
0001
,
0100
0010
0100
0010
1000
0001
0010
0000
,
0100
0010
0001
0000
0100
0010
1000
0000
,
0044
0033
0100
0000
0044
0033
1000
0000
0044
0033
0100
0000
0044
0033
1000
0000
,
0001
1000
0001
1000
0100
0010
0001
1000
,
0010
0000
0010
0000
0110
0000
0100
0001
,
1000
0001
0010
0000
0110
0000
0100
1000
,
0000
1000
0010
0000
0110
0000
0100
0001
,
1000
0100
0010
0001
2000
0000
3010
0000
,
0010
0000
0110
0000
0100
0001
1000
0100
,
0010
0000
0011
0000
0001
1000
0000
1000
,
0010
0000
0100
0001
0010
0100
1000
0001
,
0100
0000
0010
1000
0000
0001
0010
0100
,
1000
0001
1000
0100
0010
0001
1001
0000
,
1000
0010
0101
0000
0001
0010
0100
1000
,
0010
0100
0010
1000
0100
0010
0011
0000
,
0001
0000
1000
0010
0000
0000
0101
0000
,
0001
1000
0001
0010
0100
1000
0010
0000
,
1000
0001
0010
0001
1000
0001
0100
0000
,
0010
0100
0001
1000
0100
0010
0001
0000
,
1000
0000
0010
0100
0000
0001
1000
0100
,
0010
0001
0010
0100
1000
0001
1001
0000
,
0010
0000
1001
0000
0010
0000
0001
0100
,
0010
0000
1000
0100
0010
0000
0001
0010
,
0100
0000
1001
0000
0001
0000
1000
0001
,
0010
0100
0010
0001
1000
0001
0100
0010
,
1000
0001
1000
0010
0100
0001
0010
0100
,
1000
0010
0000
0000
0100
0010
1000
0000
,
0001
0000
0010
0100
0000
0100
2000
3000
,
2000
3000
0002
0003
0200
0300
0002
0003
,
0010
0100
0000
1000
0001
1000
0100
0000
,
0020
0030
0002
0003
0020
0030
0200
0300
,
1000
0001
0000
1000
0100
0010
0001
0000
,
0200
0300
0002
0003
0020
0030
0200
0300
,
1000
0001
0000
1000
0010
0100
0001
0000
,
0020
0030
0002
0003
0200
0300
0002
0003
,
0002
0000
0000
0000
0003
0000
0000
0000
0002
0000
0000
0000
0003
0000
0000
0000
0002
0003
0000
0000
0002
0003
0000
0000
1000
0000
0000
0000
0100
0000
0000
0000
,
0010
0001
0100
0010
1000
1000
0001
1000
,
0010
0000
0100
0000
0001
0000
1000
0000
0001
1000
0001
1000
0100
0000
0010
0000
,
0001
0000
1000
0000
0010
1000
0010
0000
0100
0001
0100
0001
1000
0000
0001
0000
,
1000
0000
0001
1000
0001
1000
0100
0000
0010
0001
0010
0001
1000
0000
0001
0000
,
1000
0001
0200
0310
1000
1000
0001
1000
,
0100
0000
0010
0000
0001
0000
1000
0000
0010
1000
0010
1000
0001
0000
1000
0000
,
0100
0000
0010
0001
1000
0000
0001
1000
0001
0010
0100
1000
0001
0000
1000
0000
,
0100
0000
1000
0000
0001
0100
0001
0000
1000
0010
1000
0000
0001
0000
0010
0000
,
0100
1000
0010
0100
0001
0001
1000
0001
,
0100
0000
0010
0000
1000
0000
0001
0000
1000
0001
1000
0001
0010
0000
0100
0000
,
1000
0000
0001
0000
0100
0001
0100
0000
0010
1000
0010
1000
0001
0000
1000
0000
,
0100
0000
0010
0001
0010
0100
1000
0000
0100
0010
0001
1000
0001
0000
0100
0000
,
0001
1000
0010
0100
0001
0001
1000
0001
,
0010
0000
0100
0000
1000
0000
0001
0000
0100
0010
0100
0010
1000
0000
0001
0000
,
1000
0000
0000
0001
0000
0000
1000
0000
0100
0000
0010
0000
0001
0000
1000
0000
0001
0000
1000
0000
0010
0000
0100
0000
,
0001
0000
1000
0000
0001
0000
0010
0000
0100
0000
1000
0000
0010
0000
0100
0000
0001
0000
1000
0000
0000
0100
0000
0000
,
0010
0001
0100
0010
1000
1000
0001
1000
,
0010
0000
0100
0000
0001
0000
1000
0000
0001
1000
0001
1000
0100
0000
0010
0000
,
0001
0000
1000
0000
0010
0100
0010
0000
1000
0001
1000
0001
0010
0000
0100
0000
,
1000
0000
0100
0010
0100
0010
0001
0000
1000
0001
1000
0001
0100
0000
0010
0000
,
1000
0010
0100
0001
1000
1000
0001
1000
,
0100
0000
0010
0000
0001
0000
1000
0000
0010
0100
0010
0100
0001
0000
1000
0000
,
0001
0000
0010
0000
0100
0000
1000
0000
1000
0000
0001
1000
0001
0000
0100
0000
,
0010
0000
1000
0000
0001
0010
0100
0000
1000
0100
0010
0000
0001
0000
2000
0000
,
3010
0000
0100
0001
1000
0000
0200
0000
0310
0000
0001
0000
1000
0000
0020
0000
,
0130
0000
0010
0100
0001
0000
2000
0000
3100
0000
0010
0000
0001
0000
2000
0000
,
3010
0000
0100
0001
1000
0000
0200
0000
1300
0000
1000
0000
0001
0000
0020
0000
,
0130
0000
0010
0000
0001
0000
2000
0000
3001
0010
0100
1000
0001
0000
1000
0000
,
0001
1000
0010
0100
0001
0001
1000
0001
,
0010
0000
0100
0000
1000
0000
0001
0000
0100
0010
0100
0010
1000
0000
0001
0000
,
0010
0000
0001
0000
0100
0000
0001
0000
1000
0000
0001
1000
0200
0000
0000
0000
,
0000
0000
0000
0020
,
0000
0000
0000
0000
,
0000
0000
0000
0000
,
0000
0000
0000
0330
,
0000
0000
0000
0000
,
0000
0002
0000
0000
,
0000
0203
0000
0000
,
0000
0000
0000
0000
0000
0000
0000
0000
0000
0000
0000
0000
0000
0000
0000
0300
102M
0000
0000
0000
0000
0000
0000
0000
0000
0000
0000
0000
0000
0000
0000
0000
1030
0000
0000
0000
0000
0000
0000
0000
0001
0000
0000
0000
0000
0000
0000
0000
1000
0000
0000
0000
0000
0000
0000
0000
0001
0000
0000
0000
0000
0000
0000
0000
,
0010
0010
0200
0000
0000
1000
2300
0000
,
0000
0000
3001
0000
0100
0001
0010
0100
,
0010
0100
1000
1000
0202
0303
2000
3000
,
0202
0303
1000
0000
0000
0001
0010
0100
,
0010
0100
2000
0000
3000
1000
0020
0000
,
0000
M00M
0130
0000
0100
0001
0010
0100
,
1000
2222
0000
3333
,
0000
0000
0000
0000
,
0000
1001
1001
1001
,
1001
1001
1001
1001
,
1001
0000
0010
0001
0100
0001
0010
0100
,
1000
0100
0010
0001
0100
0001
0010
0100
,
1000
0001
0101
0000
1010
0000
1100
0000
,
0011
0110
1001
1010
,
0101
0000
0010
0001
0100
0000
0010
1000
,
0100
0000
0010
0001
0100
0000
0010
1000
,
0100
0011
1100
1001
,
0101
1010
1100
0011
,
0101
0000
1000
0010
0100
0001
0010
0001
,
0100
0010
1000
0100
0010
0001
0100
0001
,
0010
0100
1100
0000
1001
0000
0101
0000
,
1001
1100
0011
0101
,
1010
0000
1000
0100
1000
0100
1000
0100
,
1000
0100
0010
0001
0100
0001
0100
0001
,
0100
0001
0010
0100
1000
0001
0200
0320
,
1030
0100
0010
0001
0200
0320
1030
0001
,
0010
0100
2000
3002
1003
0010
0100
0001
,
2000
3200
0310
0001
1000
0010
0200
0302
,
1003
0100
0010
0001
2000
3020
0130
0001
,
0010
0100
2000
3002
1003
0010
0100
0001
,
2000
3200
0310
0001
0010
0001
0200
0320
,
1030
0001
1000
0001
0020
0230
1300
0001
,
0100
0010
2000
3002
1003
0100
0010
0001
,
2000
3020
0130
0001
0010
0100
4000
0004
,
0000
3000
0103
0010
1000
0001
0040
0400
,
0000
0030
1300
0001
0100
0010
4000
0400
,
0000
3000
0310
0001
1000
0010
0400
0004
,
0000
0300
0003
0000
0000
0000
4004
0000
,
0000
3003
0000
1001
,
1001
1100
1100
0011
,
1100
1010
1010
0110
,
1010
1100
1100
0011
,
M11M
1100
1001
0101
,
0110
0MM0
M00M
1001
,
1001
M00M
1001
0011
,
1100
0101
0101
1010
,
1010
1001
0000
1001
,
0001
0010
0001
0100
0010
1000
0001
1000
,
0010
0100
0001
0010
0100
0010
0001
1000
,
0001
0010
0001
1000
0010
0100
0001
1000
,
0001
1000
0100
1000
0001
0100
0010
1000
,
0010
0100
0001
1000
0100
0010
0001
1000
,
0001
0010
0100
1000
0100
1000
0001
0100
,
0010
1000
0001
0100
0010
1000
0001
0100
,
0010
1000
0100
0010
0100
1000
0100
0010
,
0001
1000
0001
0010
0100
1000
0001
1000
,
0100
0010
0001
0100
0010
1000
0002
0000
,
0000
1003
1000
0010
,
0010
0000
1000
0001
1000
0100
0010
0100
,
1000
0000
0001
0000
0010
0000
0100
0000
1000
0000
0001
0000
0100
M00M
0100
0000
,
1000
0001
0100
0010
1000
0001
0010
0100
,
1000
0001
1000
0001
0200
0000
0000
0000
,
0301
1000
0100
0010
0001
0010
0100
1000
,
0001
0100
0010
1000
0200
0000
0000
0000
,
0310
0001
0010
0100
1000
0001
0100
0010
,
1000
0001
1000
0001
0020
0000
0000
0000
,
0031
0100
0010
1000
0001
0100
0010
1000
,
0100
0010
0001
1000
0200
0000
0000
0000
,
0000
0000
0000
0000
0310
0001
1000
0001
,
0100
0010
0100
0001
0010
0100
0010
0001
,
1000
0010
0100
0001
1000
0100
0010
0001
,
M1M0
0000
0000
0000
0001
0000
0100
0000
0000
0000
0000
0000
0010
0000
0000
0000
0000
0000
0000
0000
0000
0000
0010
0000
1000
0000
0000
0001
0000
0000
0010
0000
0000
0100
0000
0000
2200
0000
0000
0000
0000
0000
0000
0000
0000
0000
0000
0000
,
3300
0202
0303
0000
;
