#TITLE:Infantile;
#SUBTITLE:;
#ARTIST:ShinerCCC;
#TITLETRANSLIT:;
#SUBTITLETRANSLIT:;
#ARTISTTRANSLIT:;
#CREDIT:;
#BANNER:../fallback-bn.png;
#BACKGROUND:../fallback-bg.png;
#LYRICSPATH:;
#CDTITLE:shinerccc.png;
#MUSIC:13 Infantile.ogg;
#OFFSET:-0.020;
#SAMPLESTART:83.851;
#SAMPLELENGTH:12.000;
#SELECTABLE:YES;
#BPMS:0.000=210.000,153.000=140.000,243.000=210.000;
#STOPS:;
#BGCHANGES:;
// cache tags:
#FIRSTBEAT:35.750;
#LASTBEAT:593.500;
#SONGFILENAME:Songs/SSSC PACK/[Shiner] - Infantile/steps.sm;
#HASMUSIC:1;
#HASBANNER:1;
#MUSICLENGTH:182.648;
// end cache tags

//---------------dance-single - by Shiner----------------
#NOTES:
     dance-single:
     by Shiner:
     Challenge:
     13:
     0.861,1.000,0.630,0.137,0.706,961.000,115.000,25.000,6.000,0.000:

0000
0000
0000
0000
,
0000
0000
0000
0000
,
0000
0000
0000
0000
,
0000
0000
0000
0000
,
0000
0000
0000
0000
,
0000
0000
0000
0000
,
0000
0000
0000
0000
,
0000
0000
0000
0000
,
0000
0000
0000
0000
0000
0000
0000
0000
0000
0000
0000
0000
0000
0000
0000
0001
,
0100
0100
0010
0110
0000
0010
0200
0310
,
1010
1000
0100
0010
0011
0000
0110
0000
,
1100
0001
1000
0100
0010
0110
0000
0010
,
0020
0000
0030
0000
0100
0000
0010
0000
0001
0000
0001
0000
1000
0100
1000
0100
,
0010
0000
0000
0100
0000
0000
0010
0000
0000
0100
0000
0000
0010
0000
0000
0001
0000
0000
0010
0000
0000
0001
0000
0000
0010
0000
0000
0000
0100
0000
0000
0000
0010
0000
0000
0000
0100
0000
0000
0000
0000
0000
0110
0000
0000
0000
0000
0000
,
0000
0010
0100
1000
1100
1000
0100
0001
,
0101
0000
0000
0110
0000
0000
1100
0000
0000
1000
0100
0010
,
0001
1001
0000
0001
0001
0000
0010
0110
,
0000
0000
0000
0010
0100
1000
0100
1000
0001
1000
0001
0010
,
0100
1000
0100
1000
0100
0000
1000
0000
0100
0000
0010
0000
0001
0000
1000
0001
,
1000
0010
1000
0000
0000
0000
0100
0000
0010
0000
0001
0000
1000
0000
0001
0010
,
0200
0300
1100
0100
0000
0100
0000
0000
,
0200
0300
1000
0010
0001
0010
1000
0001
,
0100
0000
1001
0000
1001
1000
1000
0001
,
0000
1001
0001
0000
1001
0000
0011
0010
,
0100
0010
0100
0010
0001
0010
0001
0010
0001
1000
0001
1000
0100
0000
0010
0000
,
0000
0001
0000
0000
2000
3000
0001
1000
,
0100
0000
0000
0010
0000
0000
0101
0000
0000
0000
0000
0000
1010
0000
0000
0000
0000
0000
0100
1000
0100
1000
0100
1000
,
0001
0000
1000
0001
1000
0000
0001
0000
,
1010
0000
0000
0101
0000
0000
0001
0100
0010
0100
0010
1000
,
0010
1000
0001
0020
0000
0000
0000
0000
0000
0000
0000
0000
,
0000
0000
0000
0000
,
0000
0000
0000
0000
,
0000
0000
0000
0000
,
0000
0000
0000
0000
,
0000
0000
0000
0000
,
0000
0000
0000
0000
,
0000
0000
0000
0000
,
0000
0000
0000
000M
,
103M
0000
100M
0100
0010
0001
0010
0100
,
1000
0001
1000
0010
0100
1000
0100
0001
,
0010
0100
0001
0100
1000
0001
0010
1000
,
0001
1000
0010
0100
1000
0001
0100
0010
,
0001
1000
0100
0001
1000
0100
0001
0100
,
1000
0001
0010
1000
0001
0100
0010
1000
,
0001
0100
0001
0010
0001
1000
0001
0100
,
1000
0001
0010
1000
0010
0100
1000
0100
,
0001
1000
0010
0100
1000
0001
0100
0010
,
0001
0010
0100
1000
0100
0100
0001
0010
,
0100
1000
0100
0100
0010
0001
0010
1000
,
0010
0010
0001
0100
0010
1000
0010
0010
,
0100
0001
0110
1010
1100
0011
0110
1001
,
0101
1010
1100
0011
1010
0110
1001
0011
,
1100
1010
0011
0110
0101
1001
1010
0110
,
0011
1100
0011
0110
1001
0101
0011
1100
,
0101
1001
0011
1100
1010
0101
0110
1001
,
0101
0011
1100
1010
1001
1100
0110
0101
,
0110
1100
0101
1001
1010
0110
0011
0110
,
1010
1100
0101
0110
0011
1100
1010
0101
,
0110
1100
1001
0011
1010
1100
0011
0110
,
1001
0011
1100
1010
0110
0101
1001
1100
,
0101
1010
0110
0101
1010
M110
M101
0000
,
0001
0001
1001
1000
,
1000
0000
0000
0000
0100
0000
0010
0000
0001
0010
0100
0010
0001
0010
0100
1000
,
0001
0010
0010
0100
0010
0010
0001
0010
,
0010
0100
0010
0010
0001
0010
0001
0010
,
0001
0010
0001
1000
1000
0100
0010
0010
,
0001
0100
0100
0010
1000
1000
0010
1000
,
0001
0100
0010
1000
0100
0001
0001
0100
,
0010
0010
0001
0100
0100
1000
0100
0100
,
0001
0010
0001
1000
0010
1000
0100
0001
,
0001
0100
0010
0010
0001
1000
1000
0001
,
0100
0100
0010
0100
0010
0100
0010
0100
,
1001
0000
0001
0010
0100
0000
1000
0000
0000
0000
0100
0000
1000
0000
1000
0100
,
0010
0000
0000
0001
0000
0000
1000
0000
0000
0100
0000
0000
0010
0000
0000
0000
0000
0000
0001
0000
0000
0000
0000
0000
0010
0000
0000
0000
0000
0000
0000
0000
0000
0000
0000
0000
0010
0000
0001
0000
0010
0000
0001
0000
0000
0000
0000
0000
,
1000
0000
0000
0000
0000
0000
0001
0000
0000
0000
0000
0000
1000
0000
0000
0010
0000
0000
1000
0000
0000
0000
0000
0000
0100
0000
0000
0000
0000
0000
0010
0000
0000
0100
0000
0000
0010
0000
0001
0000
0010
0000
0001
0000
0010
0000
0001
0000
,
0010
0110
1100
0011
,
0101
0000
0000
0000
0110
0000
0100
0000
0010
1000
0001
0010
0100
0010
0001
1000
,
0010
1000
0001
0100
0010
0100
0010
1000
0010
1000
0001
1000
0001
0100
0001
1000
,
0100
1000
0001
0100
0010
1000
0001
1000
0010
0100
0001
0100
0010
1000
0010
1000
,
0001
0100
0010
1000
0010
1000
0001
0100
0010
1000
0001
0010
0001
1000
0010
1000
,
0010
0100
0001
1000
0100
0010
0001
1000
0001
0010
0100
1000
0001
1000
0010
1000
,
0001
0100
0010
0100
0010
0100
0001
1000
0010
1000
0010
1000
0001
0100
0010
0100
,
0010
0100
0001
1000
0100
1000
0100
1000
0001
0010
0100
0010
0001
0010
0100
0010
,
0001
0010
0100
0010
0100
1000
0001
1000
0001
1000
0100
0010
0001
0010
0001
0010
,
0100
1000
0001
1000
0001
1000
0100
0010
0001
0010
0001
0010
0100
1000
0001
1000
,
0100
1000
0001
1000
0100
1000
0001
1000
0001
0010
0100
0010
0100
0010
0001
1000
,
0010
1000
0010
1000
0001
0010
0100
0010
0100
0010
0001
1000
0010
1000
0010
1000
,
0001
0100
0010
0100
0001
0100
0010
0100
0001
0100
0010
0100
0010
1000
0001
1000
,
0001
1000
0010
0100
0001
0100
0001
0100
0010
1000
0001
1000
0001
1000
0010
0100
,
0001
0100
0001
0100
0010
1000
0100
1000
0010
0100
0001
0100
0010
1000
0100
1000
,
0001
0000
0000
0000
,
0000
0000
0000
0000
,
0000
0000
0000
0000
,
0000
0000
0000
0000
,
0000
0000
0000
0000
,
0000
0000
0000
0000
,
0000
0000
0000
0000
,
0000
0000
0000
0000
,
0000
0000
0000
0000
0000
000M
0010
0000
,
2000
3100
0100
2000
,
3100
0100
2000
3100
,
0000
0020
0130
0100
,
0020
0031
0100
0020
,
0130
0000
0000
0000
0001
1000
1000
0001
,
1000
1000
0001
1000
0000
0001
1000
1000
,
0001
0100
0010
1000
0010
0000
0000
0000
,
2000
3200
0320
0032
,
0203
0000
0310
0001
0010
2000
0000
0000
,
0000
0000
0000
0000
0000
0000
0000
0000
3000
0000
0000
0000
0100
1000
0100
1000
,
0100
1000
0100
1000
0100
1000
0100
0000
0100
0000
1000
0000
0100
0000
0010
0000
,
0001
0010
0100
0001
0200
0300
1000
0000
,
1000
0100
0001
0100
0010
0000
0010
0100
,
0001
1000
0010
0100
2000
0000
3001
0000
,
1000
0000
0000
0100
0000
0000
0001
0000
0000
0000
0100
0000
0000
0000
1000
0000
0000
0000
0010
0000
0000
0000
0000
0000
,
0100
0000
0001
0000
1000
0100
0020
0030
,
0100
0000
0100
0010
0002
0003
0010
0000
,
0010
0001
0010
0001
0100
0010
0002
0003
,
0010
1000
0010
1000
0010
1000
0010
1000
0010
1000
0010
1000
0001
0010
0001
0010
,
0001
0010
0001
0010
0001
0010
0001
0010
0100
1000
0100
1000
0100
0010
0100
0010
,
0001
1000
0010
0100
0001
1000
0001
1000
0100
0010
0100
0010
0001
0010
0001
0010
,
0001
1000
0010
0100
0001
1000
0001
1000
0001
0100
0010
1000
0001
0010
0100
0010
,
0001
0010
0001
0010
0100
1000
0100
1000
0100
0010
0100
0010
0001
0010
0001
0010
,
0001
1000
0100
0010
0001
1000
0001
1000
0010
0100
0001
0100
0010
1000
0001
1000
,
0100
0010
0001
1000
0010
0100
0001
1000
0001
1000
0100
0010
0100
0010
0001
0010
,
0001
0010
0001
0010
0001
1000
0010
0100
0010
1000
0001
0100
0001
0100
0001
0100
,
0001
1000
0010
1000
0001
0100
0010
0100
0001
1000
0100
1000
0100
0010
0001
1000
,
0001
0010
0001
1000
0001
0010
0100
0010
0100
1000
0010
1000
0001
1000
0100
1000
,
0010
0100
0001
0010
0001
0100
0010
1000
0100
1000
0010
0100
0001
0010
0200
0000
,
0300
2000
0000
0000
0000
3100
0000
0000
0000
0000
0000
0000
0000
0000
0000
0000
;

//---------------dance-single - Shiner----------------
#NOTES:
     dance-single:
     Shiner:
     Medium:
     10:
     0.602,0.853,0.531,0.120,0.110,651.000,97.000,22.000,6.000,0.000:





0000
0000
0000
0000
,
0000
0000
0000
0000
,
0000
0000
0000
0000
,
0000
0000
0000
0000
,
0000
0000
0000
0000
,
0000
0000
0000
0000
,
0000
0000
0000
0000
,
0000
0000
0000
0000
,
0000
0000
0000
0000
0000
0000
0000
0000
0000
0000
0000
0000
0000
0000
0000
0001
,
1000
0010
1000
0100
0000
1000
0010
1000
,
0100
1000
0010
1000
0001
0000
0010
0000
,
0001
0000
0100
0010
0100
0001
0000
0100
,
0100
0000
0100
0101
0000
0000
1000
1000
,
0001
0000
0000
1000
0000
0000
1000
0000
0000
0001
0000
0000
1000
0000
0100
0000
1000
0000
0100
0000
0000
0010
0000
0000
,
0000
0100
1000
0100
0010
0001
0100
0010
,
1000
0000
0000
0100
0000
0000
1000
0000
0000
0001
0100
0001
,
0100
0010
0000
1000
1000
0000
1000
0100
,
0000
0000
0000
0000
0000
0000
0000
0000
0000
0000
0000
0000
0100
0000
0000
0000
0010
0000
0000
0000
0001
0000
0000
0000
0010
0000
0000
0000
0000
0000
0100
0000
0000
0000
0000
0000
1000
0000
0000
0001
0000
0000
1000
0000
0000
0000
0000
0000
,
0200
0001
0001
0001
,
0001
0001
0001
0001
,
001M
0300
1010
0000
0000
0011
0000
0000
,
1100
0000
0101
0000
0101
0000
0001
0011
,
0010
0000
1100
0000
1001
0000
1001
0001
,
0000
1001
1000
0000
1010
0000
1010
0100
,
0000
0000
0000
1010
0000
0100
0100
0000
,
0010
0010
1001
0011
,
0011
0000
1001
0000
0011
0000
2200
3300
,
1010
0000
0010
0110
0100
0000
0101
0000
,
1001
0000
0000
1001
0000
0000
0001
0010
0100
0010
0100
1000
,
0001
0010
0100
2000
0000
0000
0000
0000
0000
0000
0000
0000
,
0000
0000
0000
0000
,
0000
0000
0000
0000
,
0000
0000
0000
0000
,
0000
0000
0000
0000
,
0000
0000
0000
0000
,
0000
0000
0000
0000
,
0000
0000
0000
0000
,
0000
0000
0000
0000
,
3MM1
0000
1000
0100
0010
0001
0010
0100
,
1000
0100
0010
0001
0010
0100
1000
0010
,
0100
0001
0100
0010
1000
0010
0100
0001
,
0100
0010
1000
0100
1000
0001
0010
0001
,
1000
0100
1000
0001
0010
0001
1000
0010
,
1000
0001
0100
0001
1000
0010
1000
0001
,
0100
0001
1000
0100
0010
0100
0001
0100
,
1000
0100
0010
0100
0001
0100
1000
0010
,
0100
0010
0001
0010
1000
0010
0100
0010
,
0001
0010
1000
0100
1000
1000
0001
1000
,
1000
0100
1000
1000
0001
1000
1000
0100
,
1000
1000
0010
1000
1000
0100
1000
1000
,
0010
1000
1100
0100
0010
0001
0010
0100
,
1000
0100
0010
0001
0010
0100
1010
0010
,
0100
0001
0100
0010
1000
0010
0100
0001
,
0100
0010
0110
0100
1000
0001
0010
0001
,
1000
0100
1000
0001
0010
0001
1001
0010
,
1000
0001
0100
0001
1000
0010
1000
0001
,
0100
0001
0012
0103
1000
0100
0010
0100
,
0001
0100
1000
0100
0010
0100
0102
0013
,
1000
0010
0100
0010
0001
0010
1000
0010
,
0100
0010
0100
1000
0100
0100
0010
0100
,
0100
1000
0100
0100
0010
M10M
1100
0000
,
0100
0100
1100
0100
,
0100
0000
1000
0100
0010
0001
0010
0100
,
1000
0100
0100
0010
0100
0100
1000
0100
,
0100
0010
0100
0100
1000
0100
1000
0100
,
1000
0100
0010
0100
0100
0001
0100
0100
,
0010
0100
0100
0001
0100
0100
0010
0100
,
0010
0100
0010
0100
0010
0001
0001
1000
,
0001
0001
0010
0001
0001
1000
0001
0001
,
0010
0001
0010
0001
0010
0001
0010
0100
,
0100
1000
0100
0100
0010
0100
0100
1000
,
0100
0100
0010
1000
0010
1000
0010
1000
,
0010
0001
0000
0001
0000
0000
0011
0000
,
1000
0100
0010
0010
0011
0000
0110
0000
,
1100
0000
1000
0010
0000
0110
0000
0000
,
0101
0000
0100
0001
0010
0010
0100
0100
,
0010
0010
0001
0001
1000
0010
0000
0101
,
0000
0000
0011
0000
0010
0100
1000
1000
,
1010
0000
0110
0000
0101
0000
0001
0010
,
0000
0010
0001
0000
1001
0001
1000
0000
,
1100
0000
0000
0000
1000
0000
0100
0000
1000
0000
0100
0000
1000
0100
1000
0100
,
1000
0000
0000
0000
0100
1000
0100
0000
0000
0000
0010
0100
0010
0000
0000
0000
,
0001
0010
0001
0000
0000
0000
1000
0001
1000
0000
0000
0000
0100
0000
0000
0000
,
0010
0000
0000
0000
0001
0000
0000
0000
1000
0001
1000
0000
0000
0000
0001
0100
,
0001
0000
0000
0000
0100
0010
0100
0000
0000
0000
0010
1000
0010
0000
0000
0000
,
0110
0000
0000
0000
0110
0000
0000
0000
0110
0000
0000
0000
1000
0001
0100
0000
,
0000
0000
0010
1000
0001
0000
0000
0000
0010
0100
1000
0000
0000
0000
0100
0010
,
0001
1000
0010
0100
,
0100
0010
1000
0000
0000
0000
0100
0010
0001
0000
0000
0000
0100
0010
1000
0000
,
0000
0000
0100
0010
0001
0000
0000
0000
1001
0000
0000
0000
0110
0000
0000
0000
,
2001
0000
0000
0000
,
0000
0000
0000
0000
,
0000
0000
0000
0000
,
0000
0000
0000
0000
,
0000
0000
0000
0000
,
0000
0000
0000
0000
,
0000
0000
0000
0000
,
0000
0000
0000
0000
,
0000
0000
0000
3001
,
2000
3100
0100
2000
,
3100
0100
2000
3100
,
0M00
2000
3010
0010
,
2000
3001
0100
0010
,
0100
0000
0000
0000
0010
0100
0100
0010
,
0100
0100
0010
0100
0000
0100
0010
0010
,
0100
0001
0010
0100
0010
0000
0000
0000
,
0200
0320
0032
2003
,
3200
0000
0310
0001
1000
0020
0000
0000
,
0100
0001
0001
0100
,
1000
1000
0100
0001
,
0001
0000
0200
0030
0010
0000
0010
0000
,
0001
0010
0010
1000
,
0010
0000
0010
0300
0110
0000
0001
0000
,
1000
0000
0000
0100
0000
0000
0010
0000
0000
0000
0001
0000
0000
0000
0100
0000
0000
0000
0010
0000
0000
0000
0000
0000
,
1000
0000
0100
0000
0010
0001
0101
0000
,
0010
0000
0010
1000
1100
0000
0010
0000
,
0010
0001
0010
0001
0100
0010
2000
3000
,
1000
1100
1001
0011
,
0101
0011
1001
1010
,
1100
1001
0011
0110
,
1100
0101
0110
1001
,
1010
0000
0010
0001
0101
0000
0110
0000
,
0011
1010
1001
0101
,
1100
0011
1001
1100
,
0110
1010
0011
0101
,
1001
0110
1001
1100
,
0011
0101
1010
1001
,
1100
0000
0011
0000
0110
0000
1100
0100
,
1000
0001
0020
0000
0000
0000
0000
0000
,
0000
0000
0000
0000
,
0000
0000
0000
0000
,
0000
0000
0000
0000
,
0000
0000
0000
0000
,
0000
0000
0000
0000
,
0000
0000
0000
0000
,
0002
0000
0000
0000
,
0000
0000
0000
0000
,
0003
0000
0000
0100
0000
0000
0000
0100
0000
0000
0000
0100
,
0000
0000
0000
0100
0000
0000
0000
0100
0000
0000
0000
0100
,
0000
0000
0100
1000
0000
0000
0000
1000
,
0000
0000
0000
1000
0000
0000
0000
1000
,
0000
0000
0000
1000
0000
0000
0000
1000
,
0000
0000
0000
1000
0000
0000
0000
1000
,
0000
0000
0000
1000
0000
0000
0000
1000
,
0000
0000
0000
0000
,
0000
0000
0000
0000
,
0000
0000
0000
0000
,
0000
0000
0000
0030
0000
0000
0000
0000
,
0010
0100
0010
0100
0010
0000
0100
0000
0000
0000
0000
0000
0000
0000
0000
0000
;

//---------------dance-single - by Shiner----------------
#NOTES:
     dance-single:
     by Shiner:
     Hard:
     12:
     0.681,1.000,0.279,0.268,0.329,770.000,51.000,49.000,5.000,1.000:










0000
0000
0000
0000
,
0000
0000
0000
0000
,
0000
0000
0000
0000
,
0000
0000
0000
0000
,
0000
0000
0000
0000
,
0000
0000
0000
0000
,
0000
0000
0000
0000
,
0000
0000
0000
0000
,
0000
0000
0000
0000
0000
0000
0000
0000
0000
0000
0000
0000
0000
0000
0000
0001
,
0100
0100
0000
0110
0000
0000
0200
0300
,
1000
0100
0010
0010
0011
0000
0110
0000
,
1100
0000
1000
0100
0000
0110
0000
0000
,
0020
0000
0030
0000
0100
0000
0010
0000
0001
0000
0001
0000
1000
0100
1000
0100
,
0010
0000
0000
0100
0000
0000
0010
0000
0000
0100
0000
0000
0010
0000
0000
0001
0000
0000
0010
0000
0000
0001
0000
0000
0010
0000
0000
0000
0100
0000
0000
0000
0010
0000
0000
0000
0100
0000
0000
0000
0000
0000
0110
0000
0000
0000
0000
0000
,
0000
0010
0100
1000
1100
1000
0100
0001
,
0101
0000
0000
0110
0000
0000
1100
0000
0000
1000
0100
0010
,
0001
1001
0000
0001
0001
0000
0010
0110
,
0000
0000
0000
0010
0100
1000
0100
1000
0001
1000
0001
0010
,
0100
1000
0100
1000
0100
0000
1000
0000
0100
0000
0010
0000
0001
0000
1000
0001
,
1000
0010
1000
0000
0000
0000
0100
0000
0010
0000
0001
0000
1000
0000
0001
0010
,
0200
0300
0100
0100
0000
0100
0000
0000
,
0200
0300
1000
0010
0001
0010
1000
0000
,
0100
0000
1001
0000
0001
1000
0000
0001
,
0000
1000
0001
0000
1001
0000
0011
0000
,
0100
0010
0100
0010
0001
0010
0001
0010
0001
1000
0001
1000
0100
0000
0010
0000
,
0000
0001
0000
0000
2000
3000
0001
1000
,
0100
0010
0101
0000
1010
0000
2200
3300
,
0001
0000
1000
0001
1000
0000
0001
0000
,
1010
0000
0000
0101
0000
0000
0001
0100
0010
0100
0010
1000
,
0010
1000
0001
0020
0000
0000
0000
0000
0000
0000
0000
0000
,
0000
0000
0000
0000
,
0000
0000
0000
0000
,
0000
0000
0000
0000
,
0000
0000
0000
0000
,
0000
0000
0000
0000
,
0000
0000
0000
0000
,
0000
0000
0000
0000
,
0000
0000
0000
000M
,
103M
0000
100M
0100
0010
0001
0010
0100
,
1000
0001
1000
0010
0100
1000
0100
0001
,
0010
0100
0001
0100
1000
0001
0010
1000
,
0001
1000
0010
0100
1000
0001
0100
0010
,
0001
1000
0100
0001
1000
0100
0001
0100
,
1000
0001
0010
1000
0001
0100
0010
1000
,
0001
0100
0001
1000
0001
0010
0001
0100
,
1000
0001
0010
1000
0010
0100
1000
0100
,
0001
1000
0010
0100
1000
0001
0100
0010
,
0001
0010
0100
1000
0100
0100
0001
0010
,
0100
1000
0100
0100
0010
0001
0010
1000
,
0010
0010
0001
0100
0010
1000
0010
0010
,
0100
0001
0110
0010
1000
0001
0100
1000
,
0001
0010
1000
0001
1000
0100
1001
0010
,
0100
1000
0001
0010
0100
0001
1000
0100
,
0001
1000
0011
0100
1000
0001
0010
1000
,
0001
1000
0001
0100
1000
0001
0110
1000
,
0100
0001
1000
0010
0001
1000
0100
0001
,
0010
0100
0101
0100
1000
0010
0001
0010
,
1000
0100
0001
0100
0010
1000
1010
0001
,
0010
0100
1000
0001
1000
0100
0001
0100
,
1000
0010
1100
0010
0100
0100
0001
0100
,
0100
1000
0100
0100
0010
M100
M101
0000
,
0001
0001
1001
1000
,
1000
0000
0000
0000
0100
0000
0010
0000
0001
0010
0100
0010
0001
0010
0100
1000
,
0001
0010
0010
0100
0010
0010
0001
0010
,
0010
0100
0010
0010
0001
0010
0001
0010
,
0001
0010
0001
1000
1000
0100
0010
0010
,
0001
0100
0100
0010
1000
1000
0010
1000
,
0001
0100
0010
1000
0100
0001
0001
0100
,
0010
0010
0001
0100
0100
1000
0100
0100
,
0001
0010
0001
1000
0010
1000
0100
0001
,
0001
0100
0010
0010
0001
1000
1000
0001
,
0100
0100
0010
0100
0010
0100
0010
0100
,
1001
0000
0001
0010
0100
0000
1000
0000
0000
0000
0100
0000
1000
0000
1000
0100
,
0010
0001
1000
0100
0010
0000
0001
0000
0010
0000
0000
0000
1010
0000
0000
0000
,
1000
0000
0001
0000
1000
0010
1000
0000
0100
0000
0010
0400
0040
0000
0000
0000
,
0000
0000
0000
0000
,
0000
0330
0110
0110
,
0110
0001
1010
0000
1100
0000
0101
0000
,
0011
0100
1001
0000
1010
0000
0110
1100
,
0000
1100
1001
0000
0011
0010
1010
0000
,
1001
0000
0000
0000
0110
0000
0000
0000
0001
0000
0100
0000
0010
1000
0001
1000
,
0010
1000
0010
0000
0100
0000
0001
0000
0010
0000
0100
0000
1000
0001
1000
0000
,
0100
0000
0010
0000
0100
0000
1000
0000
0001
0010
0001
0000
1000
0010
1000
0000
,
0100
0010
0100
0000
0010
0001
0010
0000
0100
0000
1000
0000
0001
0000
0010
0000
,
0100
0010
0100
0000
1000
0000
0001
0000
0100
0000
0010
0000
1000
0100
1000
0000
,
0100
0010
0100
0000
0010
0001
0010
0000
0001
0010
0100
0000
1000
0000
0001
0000
,
1000
0000
0010
0000
0100
0001
1000
0000
0010
0000
1000
0000
0100
0000
0010
0000
,
0001
0010
0100
0000
1000
0001
0010
0000
0001
0100
0010
0000
0100
0001
1000
0000
,
0100
0000
0001
0000
0100
0000
1000
0000
0001
0100
0010
0000
1000
0000
0001
0000
,
0010
0000
0001
0000
1000
0100
0010
0000
0001
0010
0100
0000
1000
0001
0010
0000
,
2002
0000
0000
0000
,
0000
0000
0000
0000
,
0000
0000
0000
0000
,
0000
0000
0000
0000
,
0000
0000
0000
0000
,
0000
0000
0000
0000
,
0000
0000
0000
0000
,
0000
0000
0000
0000
,
0000
0000
3003
0010
,
2000
3100
0100
2000
,
3100
0100
2000
3100
,
0000
0020
0130
0100
,
0020
0031
0100
0020
,
0130
0000
0000
0000
0001
1000
1000
0001
,
1000
1000
0001
1000
0000
0001
1000
1000
,
0001
0100
0010
1000
0010
0000
0000
0000
,
2000
3200
0320
0032
,
0203
0000
0310
0001
0010
2000
0000
0000
,
0000
0000
0000
0000
0000
0000
0000
0000
3000
0000
0000
0000
0100
1000
0100
1000
,
0100
1000
0100
1000
0100
1000
0100
0000
0100
0000
1000
0000
0100
0000
0010
0000
,
0001
0010
0100
0001
0200
0300
1000
0000
,
1000
0100
0001
0100
0010
0000
0010
0100
,
0001
1000
0100
0010
2000
0000
3001
0000
,
1000
0000
0000
0100
0000
0000
0001
0000
0000
0000
0100
0000
0000
0000
1000
0000
0000
0000
0010
0000
0000
0000
0000
0000
,
0100
0000
0001
0000
1000
0100
0020
0030
,
0100
0000
0100
0010
0002
0003
0010
0000
,
0010
0001
0010
0001
0100
0010
0002
0003
,
2000
0000
0000
3002
,
0000
0000
0023
0230
,
1300
0100
0020
0000
2030
0000
3200
0000
,
0310
0000
0000
0000
0000
0001
0010
0000
0000
0000
0000
0000
0001
0000
0000
0000
0000
0001
0010
0000
0000
0000
0000
0000
,
0001
0000
0100
0100
0200
0000
2300
0000
,
3100
0000
0000
0000
0010
0000
0000
0000
0001
0000
0000
0000
0020
0000
0000
0000
0000
0000
0000
0000
0000
0000
0000
0000
0230
0000
0000
0000
0000
0000
0000
0000
0000
0000
0000
0000
0301
0000
0000
1000
0000
0000
0001
0000
0000
1000
0000
0000
,
0200
0000
0000
0000
0000
0000
0000
0000
0320
0000
0000
0000
0000
0000
0000
0000
0032
0000
0000
0000
0000
0000
0000
0000
2003
0000
0000
0000
0000
0000
0000
0000
3000
0100
0000
0000
0010
0000
0000
0002
0000
0000
0000
0000
0000
0000
0000
0000
,
0000
0000
0000
0000
0000
0000
0000
0000
0000
0003
0000
0000
0000
0000
0000
0000
0000
0000
0100
0000
0000
0000
0010
0000
0000
0000
1000
0000
0000
0000
0002
0000
0000
0000
0000
0000
0000
0000
0000
0000
0000
0000
0003
0000
0000
0000
0000
0000
,
0000
0000
0001
1000
0001
0010
0001
0010
0100
0010
0100
1000
,
0001
0000
0000
0000
0100
0000
0000
0000
0010
0000
0000
0000
0100
0000
0000
0000
0010
0000
0000
0000
1000
0000
0000
0000
0100
0000
0000
0010
0000
0000
0100
0000
0000
1000
0000
0000
0001
0000
0000
1000
0000
0000
0100
0000
0000
0010
0000
0000
,
0001
1000
0100
0010
0001
0010
0100
1000
0001
0010
0100
1000
0001
0010
0200
0000
,
0300
2000
0000
0000
0000
3200
0000
0000
0000
0000
0000
0000
0000
0000
0000
0000
,
0000
0000
0000
0000
,
0000
0000
0000
0000
,
0000
0000
0000
0000
,
0000
0000
0000
0000
0000
0000
0300
1000
,
0000
0000
0000
0100
0000
0000
0000
0000
0000
0000
0000
0000
0010
0000
0000
0000
0000
0000
0000
0000
0000
0001
0000
0000
0000
0000
0000
0000
0000
0000
0000
0000
0000
0000
0000
0000
0000
0000
0100
0000
0000
0000
0000
0000
0000
0000
0000
0000
,
0010
0000
0000
0001
0000
0000
0000
0010
0000
0000
0000
1000
0000
0000
0010
0000
,
2200
0000
0000
0000
,
0000
0000
0000
0000
,
0000
0000
0000
3001
0000
0000
0000
0001
0000
0000
0000
0001
,
0000
0000
0000
0001
0000
0000
0000
0001
0000
0000
0000
0001
,
0000
0000
0001
0010
0000
0000
0000
0010
,
0000
0000
0000
0010
0000
0000
0000
0010
,
0000
0000
0000
0010
0000
0000
0000
0010
,
0000
0000
0000
0010
0000
0000
0000
0010
,
0000
0000
0000
0010
0000
0000
0000
0010
,
0000
0000
0000
0000
,
0000
0000
0000
0000
,
0000
0000
0000
0000
,
0000
0300
0000
0000
,
0010
0001
1000
0100
0010
0000
0100
0000
0000
0000
0000
0000
0000
0000
0000
0000
;
