#TITLE:The Power of Pleasure;
#SUBTITLE:;
#ARTIST:AtomicInc;
#TITLETRANSLIT:;
#SUBTITLETRANSLIT:;
#ARTISTTRANSLIT:;
#CREDIT:owenviau1;
#BANNER:../owenviau1 Simfiles 5-bn.png;
#BACKGROUND:../owenviau1 Simfiles 5-bg.png;
#LYRICSPATH:;
#CDTITLE:../ov1_title.png;
#MUSIC:AtomicInc - The Power of Pleasure.mp3;
#OFFSET:-0.472;
#SAMPLESTART:70.480;
#SAMPLELENGTH:29.999;
#SELECTABLE:YES;
#DISPLAYBPM:142.000;
#BPMS:0.000=142.006,1.000=141.999,3.000=142.006,5.000=141.999,18.000=142.006,20.000=141.999,33.000=142.006,35.000=141.999,48.000=142.006,50.000=141.999,63.000=142.006,65.000=141.999,78.000=142.006,80.000=141.999,93.000=142.006,95.000=141.999,108.000=141.991,109.000=142.006,111.000=141.999,123.000=141.991,124.000=142.006,125.000=141.999,126.000=142.006,127.000=141.999,138.000=141.991,139.000=142.006,140.000=141.999,141.000=142.006,142.000=141.999,153.000=141.991,154.000=142.006,155.000=141.999,156.000=142.006,157.000=141.999,168.000=141.991,169.000=142.006,170.000=141.999,171.000=142.006,172.000=141.999,183.000=141.991,184.000=142.006,185.000=141.999,186.000=142.006,187.000=141.999,198.000=141.991,199.000=141.999,200.000=142.006,201.000=141.999,202.000=142.006,203.000=141.999,214.000=141.991,215.000=142.006,216.000=141.999,217.000=142.006,218.000=141.999,227.000=141.991,228.000=141.999,230.000=142.006,231.000=141.999,234.000=142.006,235.000=141.999,242.000=141.991,243.000=141.999,245.000=142.006,246.000=141.999,249.000=142.006,250.000=141.999,257.000=141.991,258.000=141.999,260.000=142.006,261.000=141.999,264.000=142.006,265.000=141.999,272.000=141.991,273.000=141.999,275.000=142.006,276.000=141.999,279.000=142.006,280.000=141.999,287.000=141.991,288.000=141.999,291.000=142.006,292.000=141.999,295.000=142.006,296.000=141.999,303.000=141.991,304.000=141.999,306.000=142.006,307.000=141.999,310.000=142.006,311.000=141.999,318.000=141.991,319.000=141.999,321.000=142.006,322.000=141.999,325.000=142.006,326.000=141.999,333.000=141.991,334.000=141.999,336.000=142.006,337.000=141.999,340.000=142.006,341.000=141.999,348.000=141.991,349.000=141.999,351.000=142.006,352.000=141.999,355.000=142.006,356.000=141.999,363.000=141.991,364.000=141.999,366.000=142.006,367.000=141.999,370.000=142.006,371.000=141.999,378.000=141.991,379.000=141.999,382.000=142.006,383.000=141.999,386.000=142.006,387.000=141.999,394.000=141.991,395.000=141.999,397.000=142.006,398.000=141.999,401.000=142.006,402.000=141.999,409.000=141.991,410.000=141.999,412.000=142.006,413.000=141.999,416.000=142.006,417.000=141.999,424.000=141.991,425.000=141.999,427.000=142.006,428.000=141.999,431.000=142.006,432.000=141.999,439.000=141.991,440.000=141.999,442.000=142.006,443.000=141.999,446.000=142.006,447.000=141.999,449.000=141.991,451.000=141.999,457.000=142.006,458.000=141.999,465.000=141.991,466.000=141.999,473.000=142.006,474.000=141.999,481.000=141.991,482.000=141.999,488.000=142.006,489.000=141.999,496.000=141.991,497.000=141.999,503.000=142.006,504.000=141.999,511.000=141.991,512.000=141.999,518.000=142.006,519.000=141.999,526.000=141.991,527.000=141.999,533.000=142.006,534.000=141.999;
#STOPS:;
#BGCHANGES:;
// cache tags:
#FIRSTBEAT:31.000;
#LASTBEAT:533.000;
#SONGFILENAME:Songs/owenviau1 Simfiles 5/The Power Of Pleasure - [owenviau1] v1.4/The Power of Pleasure.sm;
#HASMUSIC:1;
#HASBANNER:1;
#MUSICLENGTH:227.134;
// end cache tags

//---------------dance-single - ----------------
#NOTES:
     dance-single:
     :
     Hard:
     8:
     0.647,0.821,0.062,0.286,0.062,949.000,14.000,65.000,0.000,1.000:
0000
0000
0000
0000
,
0000
0000
0000
0000
,
0000
0000
0000
0000
,
0000
0000
0000
0000
,
0000
0000
0000
0000
,
0000
0000
0000
0000
,
0000
0000
0000
0000
,
0000
0000
0000
0000
0000
0000
0000
0000
0000
0000
0000
0000
1000
0000
0000
0100
,
0000
0001
0010
0100
2000
3010
1001
0010
,
0100
0001
1000
0001
0010
0100
1000
0010
,
0100
0001
1000
0001
0010
0001
0100
0010
,
1000
0100
1000
0001
0100
0010
1000
0100
,
0010
0001
1000
0010
0100
0001
0010
0100
,
1000
0010
1000
0001
0010
0001
1000
0010
,
0100
0001
0010
0100
1000
0010
0100
0001
,
1000
0000
0001
0000
0010
0000
0001
0000
0100
0000
0010
0000
1000
0000
0000
0010
,
0000
0100
0001
0010
0200
1300
1001
0100
,
0010
0001
0100
0010
1000
0001
1000
0100
,
1000
0001
0100
0010
1000
0100
0010
0001
,
0100
0001
1000
0010
1000
0100
1000
0001
,
0100
0010
1000
0100
0010
0001
0100
0010
,
1000
0001
1000
0100
1000
0010
0100
0001
,
1000
0100
0010
0002
0203
0320
0030
2000
,
3000
0000
0200
0000
0300
0000
0020
0000
0030
0000
0002
0000
1003
0000
0000
0100
,
0000
0010
0001
1000
0020
0130
1001
1000
,
0001
1000
0010
0100
0001
1000
0001
0010
,
0100
1000
0001
0100
0010
1000
0001
0010
,
0001
0100
0010
1000
0100
0001
0100
1000
,
0010
0100
0001
0010
0001
0100
0010
1000
,
0001
1000
0100
1000
0010
0100
0001
0010
,
0100
1000
0001
0100
0010
1000
0100
0010
,
0001
0000
0010
0000
1000
0000
0001
0000
0100
0000
0010
0000
1000
0000
0000
0100
,
0000
0000
0010
0000
0001
0000
1000
0000
0001
0000
0100
0000
1001
0000
0000
1000
,
0000
0100
0010
0000
0001
0000
0010
0000
0100
0000
1000
0000
0010
0000
0000
0001
,
0000
0010
0100
0000
1000
0000
0100
0000
0001
0010
0100
1000
0001
0000
0000
0100
,
0000
0010
0100
0000
1000
0000
0001
0000
0010
0000
0100
0000
1000
0000
0000
0001
,
0000
0010
0100
0000
1000
0000
0010
0000
1000
0100
0010
0001
1000
0000
0000
1000
,
0000
0100
0010
0000
0001
0000
1000
0000
0001
0000
0100
0000
1000
0000
0000
0001
,
0000
0010
0100
0000
0001
0000
1000
0000
0001
0010
0100
1000
0001
0000
0000
1000
,
0000
0001
0010
0000
1000
0000
0010
0000
0100
0000
0001
0000
0010
0000
0100
0000
,
1000
0001
0100
0010
1000
0100
1001
1000
,
0100
0010
0001
0100
0010
1000
0001
1000
,
0100
1000
0010
0100
0001
0010
0001
1000
,
0001
0010
0001
0100
0010
1000
0010
0100
,
0001
0010
0100
1000
0010
0100
0001
1000
,
0001
0010
0001
1000
0010
0100
0001
0010
,
0100
1000
0001
0100
0010
1000
0100
0010
,
0001
0100
0010
1000
0001
1000
0100
1000
,
0010
0100
0001
1000
0100
0010
0101
0010
,
1000
0001
0010
0100
1000
0010
0100
0001
,
0010
0001
1000
0010
0100
0001
1000
0100
,
1000
0010
0100
0001
1000
0001
0010
0001
,
1000
0010
0100
0001
0010
0100
1000
0001
,
0100
0010
1000
0100
0010
0001
0100
0010
,
1000
0001
1000
0100
1000
0010
0100
0001
,
0010
0100
1000
0010
0100
0001
1000
0001
,
0010
0001
0100
0010
1000
0001
1100
0010
,
0001
1000
0010
0100
0001
0010
0100
1000
,
0010
0100
0001
0010
0001
0100
0010
1000
,
0001
0010
0100
1000
0001
0100
0010
1000
,
0100
1000
0010
0100
0001
1000
0001
0010
,
0001
1000
0010
0100
0001
0010
0100
1000
,
0010
0100
0001
1000
0001
0010
0001
0100
,
0010
1000
0100
1000
0001
0010
0100
1000
,
0010
0000
0100
0000
0001
0000
1000
0001
0100
0000
1000
0000
0020
0000
0032
0000
,
0003
2000
3020
0030
0000
0200
0302
0003
,
0000
0020
0230
2300
3002
0203
0320
2030
,
3000
0020
0032
2003
3002
0203
0302
2003
,
3000
0020
0230
0302
0023
0230
2300
0000
,
3000
0002
0203
0320
2030
3002
0203
0320
,
0030
2000
3200
0320
0032
2003
3020
0000
,
0030
0000
0200
0302
2003
3020
0230
0302
,
0203
0000
0000
0000
0000
0000
1301
0010
,
0100
0001
1000
0001
0010
0100
1000
0010
,
0100
0001
1000
0001
0010
0001
0100
0010
,
1000
0100
1000
0001
0100
0010
1000
0100
,
0010
0001
1000
0010
0100
0001
0010
0100
,
1000
0010
1000
0001
0010
0001
1000
0010
,
0100
0001
0010
0100
1000
0010
0100
0001
,
1000
0000
0001
0000
0010
0000
0001
0000
0100
0000
0010
0000
1000
0000
0000
0010
,
0000
0100
0001
0010
0200
1300
1001
0100
,
0010
0001
0100
0010
1000
0001
1000
0100
,
1000
0001
0100
0010
1000
0100
0010
0001
,
0100
0001
1000
0010
1000
0100
1000
0001
,
0100
0010
1000
0100
0010
0001
0100
0010
,
1000
0001
1000
0100
1000
0010
0100
0001
,
1000
0100
0010
0002
0203
0320
0031
2000
,
3010
0200
0301
0020
1030
0002
1003
0100
,
0001
0000
0100
0000
0010
0000
1000
0001
1000
0000
0001
0000
0101
0000
1000
0000
,
0001
1000
0010
0100
0001
1000
0001
0010
,
0100
1000
0001
0100
0010
1000
0001
0010
,
0001
0100
0010
1000
0100
0001
0100
1000
,
0010
0100
0001
0010
0001
0100
0010
1000
,
0001
1000
0100
1000
0010
0100
0001
0010
,
0100
1000
0001
0100
0010
1000
0100
0010
,
0001
0010
1000
0001
0100
0010
1000
0001
,
1000
0010
0001
1000
0001
0100
1001
0100
,
0001
1000
0010
0100
0001
1000
0001
0010
,
0100
1000
0001
0100
0010
1000
0001
0010
,
0001
0100
0010
1000
0100
0001
0100
1000
,
0010
0100
0001
0010
0001
0100
0010
1000
,
0001
1000
0100
1000
0010
0100
0001
0010
,
0100
1000
0001
0100
0010
1000
0100
0010
,
0001
0000
0010
0000
1000
0000
0001
0000
0100
0000
0010
0000
1000
0000
0000
0100
,
0000
0010
0001
1000
0001
0010
1100
1000
,
0100
0010
0001
0100
0010
1000
0001
1000
,
0100
1000
0010
0100
0001
0010
0001
1000
,
0001
0010
0001
0100
0010
1000
0010
0100
,
0001
0010
0100
1000
0010
0100
0001
1000
,
0001
0010
0001
1000
0010
0100
0001
0010
,
0100
1000
0001
0100
0010
1000
0100
0010
,
0001
0100
0010
1000
0001
1000
0100
1000
,
0010
0100
0001
1000
0100
0010
0110
0001
,
1000
0001
0010
0100
1000
0010
0100
0001
,
0010
0001
1000
0010
0100
0001
1000
0100
,
1000
0010
0100
0001
1000
0001
0010
0001
,
1000
0010
0100
0001
0010
0100
1000
0001
,
0100
0010
1000
0100
0010
0001
0100
0010
,
1000
0001
1000
0100
1000
0010
0100
0001
,
0010
0100
1000
0010
0100
0001
1000
0001
,
0010
0001
0100
0010
1000
0001
1100
0010
,
0001
1000
0010
0100
0001
0010
0100
1000
,
0010
0100
0001
0010
0001
0100
0010
1000
,
0001
0010
0100
1000
0001
0100
0010
1000
,
0100
1000
0010
0100
0001
1000
0001
0010
,
0001
1000
0010
0100
0001
0010
0100
1000
,
0010
0100
0001
1000
0001
0010
0001
0100
,
0010
1000
0100
1000
0001
0010
0100
1000
,
0010
0100
0001
1000
0100
1000
0020
0000
,
0000
0000
0000
0000
,
0000
0000
0000
0000
,
0000
0000
0000
0000
,
0000
0000
0000
0000
,
0000
0030
0000
0000
,
0000
0000
0000
0000
;

//---------------dance-single - ----------------
#NOTES:
     dance-single:
     :
     Challenge:
     11:
     0.920,0.851,1.000,0.238,0.150,988.000,420.000,54.000,0.000,3.000:
0000
0000
0000
0000
,
0000
0000
0000
0000
,
0000
0000
0000
0000
,
0000
0000
0000
0000
,
0000
0000
0000
0000
,
0000
0000
0000
0000
,
0000
0000
0000
0000
,
0000
0000
0000
0000
0000
0000
0000
0000
0000
0000
0000
0000
1001
0000
0000
1100
,
0000
0000
0110
0000
0001
1000
0001
0010
0100
1000
0001
0100
1001
0000
0010
0000
,
0101
0010
1100
0001
0011
1000
0110
0001
,
1010
0100
1001
0010
1100
0001
0011
0100
,
1001
0001
0110
0001
1010
0100
0011
0001
,
1100
0100
0011
0100
1001
1000
0110
0001
,
1010
0010
0101
0010
1001
0100
0011
1000
,
1100
0100
0011
0100
1001
0001
0110
0001
,
1100
0000
0010
0000
1001
0000
0100
0000
0110
0000
0001
0000
1001
0000
0000
0101
,
0000
0000
0110
0000
1000
0100
0010
0001
1000
0010
0100
0001
1001
0000
0010
0000
,
1100
0010
1001
0100
0110
1000
0101
0010
,
1001
0001
0110
0001
1010
0100
1100
0001
,
0011
0100
1001
0010
0110
0001
1010
0001
,
0110
0100
1001
0010
0101
1000
0011
1000
,
0110
0001
1010
0100
1001
0010
0110
0001
,
2010
0001
0100
0001
0100
0002
3100
0023
,
0000
0000
0230
0000
0000
0000
2300
0000
0000
0000
3020
0000
1031
0000
0000
0011
,
0000
0000
1100
0000
0001
1000
0001
0100
0010
1000
0100
0010
1001
0000
0010
0000
,
1100
0001
1010
0001
0110
1000
0101
1000
,
0011
0001
1100
0001
0110
0010
1001
0010
,
0101
1000
0011
0100
1010
0001
1100
1000
,
0011
1000
0110
0010
1001
0010
0101
0010
,
1001
0001
0110
1000
0101
0010
1100
0010
,
1001
0100
1010
1000
0011
0001
1100
0001
,
0110
0000
1000
0000
0101
0000
0010
0000
1001
0000
0010
0000
1100
0000
0000
0110
,
0000
0000
0011
0000
1000
0100
0010
0001
0100
0001
1000
0010
1001
0000
0000
1000
,
0000
0100
0010
0000
1001
0000
0010
0000
0101
0000
1000
0000
0110
0000
0000
0001
,
0000
0010
0100
0000
1010
0000
0100
0000
0001
0010
0100
1000
0001
0000
0000
0100
,
0000
0010
0100
0000
1001
0000
0001
0000
0110
0000
0100
0000
1010
0000
0000
0001
,
0000
0010
0100
0000
1001
0000
0010
0000
1000
0100
0010
0001
1001
0000
0000
1000
,
0000
0100
0010
0000
0101
0000
1000
0000
0011
0000
0100
0000
1010
0000
0000
0001
,
0000
0010
0100
0000
0011
0000
1000
0000
0001
0010
0100
1000
0101
0000
0000
1000
,
0000
0001
0010
0000
1100
0000
0010
0000
0101
0000
0001
0000
1000
0100
0010
0001
,
1000
0010
0100
0001
1000
0100
0010
0001
1000
0010
0100
0001
1001
0000
0100
0000
,
1010
0100
0011
1000
1100
0001
0110
0010
,
1001
0010
0101
1000
0011
1000
0110
0100
,
1010
0100
1001
0010
1100
0001
0110
1000
,
0011
0001
1100
0100
0011
1000
0110
0100
,
1010
0100
1001
0010
1100
0001
0110
1000
,
0011
1000
0110
0001
1010
0100
1001
0010
,
1100
0000
0001
0000
0110
0000
1000
0000
0101
0000
0010
0000
1100
0000
0000
0110
,
0000
0000
0011
0000
1000
0001
0100
0010
1000
0100
0010
0001
1001
0000
0100
0000
,
1010
0100
0011
1000
1100
0001
0110
0010
,
1001
0010
0101
1000
0011
1000
0110
0100
,
1010
0100
1001
0010
1100
0001
0110
1000
,
0011
0001
1100
0100
0011
1000
0110
0100
,
1010
0100
1001
0010
1100
0001
0110
1000
,
0011
1000
0110
0001
1010
0100
1001
0010
,
1100
0001
0110
1000
0101
0010
1100
0010
,
0011
0000
1000
0000
0110
0000
1000
0001
0100
0000
0010
0000
1001
0000
0100
0000
,
0110
1000
0011
1000
1100
0001
0110
0010
,
1001
0010
0101
1000
0011
1000
0110
0100
,
1010
0100
1001
0010
1100
0001
0110
1000
,
0011
0001
1100
0100
0011
1000
0110
0100
,
1010
0100
1001
0010
1100
0001
0110
1000
,
0011
1000
0110
0001
1010
0100
1001
0010
,
1100
0001
0110
1000
0101
0010
1100
0010
,
0101
0000
0010
0000
1010
0000
0001
0100
0010
0000
1000
0000
0020
0000
0032
0000
,
0003
2000
3020
0030
0000
0200
0302
0003
,
0000
0020
0230
2300
3002
0203
0320
2030
,
3000
0020
0032
2003
3002
0203
0302
2003
,
3000
0020
0230
0302
0023
0230
2300
0000
,
3000
0002
0203
0320
2030
3002
0203
0320
,
0030
2000
3200
0320
0032
2003
3020
0000
,
0030
0000
0200
0302
2003
3020
0230
0302
,
0203
0000
0000
0000
0000
0000
1301
0010
,
0101
0010
1100
0001
0011
1000
0110
0001
,
1010
0100
1001
0010
1100
0001
0011
0100
,
1001
0001
0110
0001
1010
0100
0011
0001
,
1100
0100
0011
0100
1001
1000
0110
0001
,
1010
0010
0101
0010
1001
0100
0011
1000
,
1100
0100
0011
0100
1001
0001
0110
0001
,
1100
0000
0010
0000
1001
0000
0100
0000
0110
0000
0001
0000
1001
0000
0000
0101
,
0000
0000
0110
0000
1000
0100
0010
0001
1000
0010
0100
0001
1001
0000
0010
0000
,
1100
0010
1001
0100
0110
1000
0101
0010
,
1001
0001
0110
0001
1010
0100
1100
0001
,
0011
0100
1001
0010
0110
0001
1010
0001
,
0110
0100
1001
0010
0101
1000
0011
1000
,
0110
0001
1010
0100
1001
0010
0110
0001
,
1100
0001
0110
0001
1010
0100
1001
0100
,
0011
1000
0110
0001
1010
0100
1001
0001
,
0110
0000
0010
0000
0101
0000
1000
0010
0100
0000
0001
0000
1001
0000
0010
0000
,
0101
0010
1100
0001
0011
1000
0110
0001
,
1010
0100
1001
0010
1100
0001
0011
0100
,
1001
0001
0110
0001
1010
0100
0011
0001
,
1100
0100
0011
0100
1001
1000
0110
0001
,
1010
0010
0101
0010
1001
0100
0011
1000
,
1100
0100
0011
0100
1001
0001
0110
0001
,
1100
0010
1001
0100
0110
0001
1100
0010
,
0101
0000
0010
0000
1001
0000
0100
0001
1000
0000
0010
0000
0101
0000
0010
0000
,
1100
0010
1001
0100
0110
1000
0101
0010
,
1001
0001
0110
0001
1010
0100
1100
0001
,
0011
0100
1001
0010
0110
0001
1010
0001
,
0110
0100
1001
0010
0101
1000
0011
1000
,
0110
0001
1010
0100
1001
0010
0110
0001
,
1100
0001
0110
0001
1010
0100
1001
0100
,
0011
0000
1000
0000
0110
0000
0001
0000
1010
0000
0100
0000
1001
0000
0000
0011
,
0000
0000
1100
0000
0001
1000
0010
0100
0001
0010
0001
1000
1001
0000
0010
0000
,
1100
0010
1001
0100
0110
1000
0101
0010
,
1001
0001
0110
0001
1010
0100
1100
0001
,
0011
0100
1001
0010
0110
0001
1010
0001
,
0110
0100
1001
0010
0101
1000
0011
1000
,
0110
0001
1010
0100
1001
0010
0110
0001
,
1100
0001
0110
0001
1010
0100
1001
0100
,
0011
1000
0110
0001
1010
0100
1001
0001
,
0110
0010
0101
1000
0110
0001
1001
0010
,
0101
0010
1100
0001
0011
1000
0110
0001
,
1010
0100
1001
0010
1100
0001
0011
0100
,
1001
0001
0110
0001
1010
0100
0011
0001
,
1100
0100
0011
0100
1001
1000
0110
0001
,
1010
0010
0101
0010
1001
0100
0011
1000
,
1100
0100
0011
0100
1001
0001
0110
0001
,
1100
0010
1001
0100
0110
0001
1100
0010
,
0101
0010
1001
0100
1010
0100
1001
0010
,
1100
0010
1001
0100
0110
1000
0101
0010
,
1001
0001
0110
0001
1010
0100
1100
0001
,
0011
0100
1001
0010
0110
0001
1010
0001
,
0110
0100
1001
0010
0101
1000
0011
1000
,
0110
0001
1010
0100
1001
0010
0110
0001
,
1100
0001
0110
0001
1010
0100
1001
0100
,
0011
1000
0110
0001
1010
0100
1001
0001
,
0110
0000
0010
0000
0101
0000
1000
0010
0100
0000
0001
0000
2002
0000
0000
0000
,
0000
0000
0000
0000
,
0000
0000
0000
0000
,
0000
0000
0000
0000
,
0000
0000
0000
0000
,
0000
3003
0000
0000
,
0000
0000
0000
0000
;
