#TITLE:Never Say;
#SUBTITLE:;
#ARTIST:ND Lee;
#TITLETRANSLIT:;
#SUBTITLETRANSLIT:;
#ARTISTTRANSLIT:;
#CREDIT:;
#BANNER:Never Say-bn.png;
#BACKGROUND:Never Say-bg.png;
#LYRICSPATH:;
#CDTITLE:;
#MUSIC:Never Say.mp3;
#OFFSET:-2.433;
#SAMPLESTART:13.053;
#SAMPLELENGTH:12.000;
#SELECTABLE:YES;
#BPMS:0.000=180.000;
#STOPS:;
#BGCHANGES:;
// cache tags:
#FIRSTBEAT:0.000;
#LASTBEAT:349.500;
#SONGFILENAME:Songs/Community Keyboard Megapack - Volume 2/(Reach) Never Say/Never Say.sm;
#HASMUSIC:1;
#HASBANNER:1;
#MUSICLENGTH:119.414;
// end cache tags

//---------------dance-single - ----------------
#NOTES:
     dance-single:
     :
     Challenge:
     12:
     1.000,1.000,1.000,0.025,0.322,666.000,168.000,3.000,0.000,0.000:  // measure 1
1001
0100
0010
1001
0100
0010
1001
0010
,  // measure 2
0001
0100
0010
0001
1000
0000
0000
1001
,  // measure 3
1001
0100
0010
1000
0100
0011
1100
0100
,  // measure 4
0010
1001
0100
0010
1000
0000
0000
0000
,  // measure 5
1001
0000
0100
0000
0010
0000
1001
0010
1100
0000
0010
0000
1001
0000
0100
0000
,  // measure 6
0010
0100
1000
0001
1000
0000
0000
0000
,  // measure 7
1001
0000
0100
0000
0010
0000
1001
0000
0100
0000
0011
0000
1000
0000
0101
1000
,  // measure 8
0011
0000
0110
0000
1000
0100
0010
0000
2000
0001
3010
0000
1000
0000
0000
0000
,  // measure 9
1001
0000
0010
0000
0001
1000
0010
1100
,  // measure 10
0001
0000
0000
0000
0000
0000
0000
0000
1010
0000
0000
0000
0000
0000
0001
0010
0100
0000
0000
0000
1000
0000
0000
0000
0010
0000
0000
0000
1000
0000
0000
0000
,  // measure 11
0001
0000
0110
0000
1000
0010
0100
0001
,  // measure 12
1000
0000
0000
0000
0100
0000
1010
0000
0011
0000
1000
0010
0100
0000
1000
0000
,  // measure 13
0011
0000
1000
0010
0100
0000
0001
0000
0000
0010
0100
0000
1000
0000
0010
0000
,  // measure 14
0000
0001
0100
0010
1100
0110
0001
1000
,  // measure 15
0010
0000
0100
0000
0000
0000
0010
0000
0000
0000
1000
0000
0000
0000
0010
0001
,  // measure 16
0010
0000
0100
0000
1000
0100
1000
0100
0011
0000
1000
0010
0100
0000
1010
0000
,  // measure 17
1001
0000
0000
0000
0001
0010
0100
0000
1000
0000
0010
0000
1100
0000
0101
0000
,  // measure 18
0010
1000
0010
0000
0100
1000
0001
0100
,  // measure 19
0010
0000
0000
1000
0100
0010
0001
1000
,  // measure 20
0010
0000
0100
0011
1010
0100
0001
1000
,  // measure 21
0001
0000
1000
0010
0100
0000
0010
0000
0000
0000
1000
0000
0000
0000
0001
0010
,  // measure 22
0100
0000
0010
0000
1000
0000
0000
0000
0101
0000
1010
0100
0001
0000
0010
0000
,  // measure 23
0100
0000
0000
0000
1000
0000
0010
0000
0000
0000
0100
0000
0000
0000
0010
0100
,  // measure 24
1000
0000
0001
0000
1000
0100
0010
0000
1100
0000
0110
0000
0001
1000
0100
0000
,  // measure 25
1001
0100
0001
1000
0100
0001
1000
0100
,  // measure 26
0000
0001
0000
0010
0000
0100
1000
0010
,  // measure 27
1000
0100
0001
1000
0100
0001
1000
0100
,  // measure 28
0000
0010
0000
0100
0000
0001
1000
0010
,  // measure 29
1000
0100
0010
1000
0100
0010
1000
0110
,  // measure 30
0000
0100
0011
0100
0000
0101
0010
1000
,  // measure 31
0001
0000
0010
0000
0000
0000
1000
0010
0100
0000
0010
0000
0001
0010
1100
0000
,  // measure 32
0000
0110
0000
0101
0020
1030
1001
0000
,  // measure 33
1001
0000
0001
0010
0000
0100
0000
1000
,  // measure 34
0000
0010
0010
1100
0001
0010
0000
1000
,  // measure 35
0000
0100
0000
0010
0000
0001
0000
0010
,  // measure 36
0000
0000
0100
1010
0101
1000
0010
0100
,  // measure 37
1001
0000
0100
0010
0001
0000
0010
0000
0000
0000
0100
1000
0010
0000
0100
0000
,  // measure 38
0000
0010
0000
0001
0000
0110
0000
1000
,  // measure 39
0000
0000
0100
0000
0010
0000
0001
0000
0000
0000
0010
0000
0000
0000
0001
0010
,  // measure 40
0001
0000
0010
0000
0100
1000
0010
0000
1100
0000
0101
0010
1000
0000
0100
0000
,  // measure 41
1000
0000
0100
0000
0001
0000
1000
0010
0100
0000
0001
0000
1000
0000
0100
0000
,  // measure 42
0001
0000
1000
0001
0100
0000
0001
0000
1010
0000
0000
0000
0000
0000
0000
0000
,  // measure 43
1000
0000
0100
0000
0001
0000
1000
0001
0100
0000
0001
0000
1000
0000
0100
0000
,  // measure 44
0001
0000
1000
0001
0100
0000
0001
0000
0110
0000
1000
0001
0010
0100
1000
0000
,  // measure 45
1001
0000
0100
0000
0001
0000
1000
0010
0100
0000
0001
0000
1000
0000
0100
0000
,  // measure 46
0001
0000
1000
0001
0100
0000
0001
0000
0010
0000
0100
0000
0100
0000
1000
0000
,  // measure 47
1000
0000
0001
0010
0100
0000
0000
0000
0010
0000
0100
0000
1000
0000
0010
0100
,  // measure 48
1000
0000
0010
0000
0100
1000
0010
1000
0101
0000
1010
0000
0100
0010
0001
0000
,  // measure 49
1001
0000
0010
0100
1001
0000
0010
0100
,  // measure 50
1010
0000
0000
0000
0101
1010
0101
0000
1001
0000
0000
0000
0010
0000
0000
0000
,  // measure 51
1001
0000
1000
0010
1010
0000
0001
0100
,  // measure 52
1010
0000
0000
0000
0110
1001
0110
0000
1001
0000
0000
0000
0100
0000
0000
0000
,  // measure 53
1001
0010
0000
0100
1001
0000
0010
1000
,  // measure 54
0101
0000
0000
0000
1100
0011
1100
0000
1001
0000
0000
0000
0010
0000
0000
0000
,  // measure 55
1001
0000
1000
0010
0101
0000
0010
0100
,  // measure 56
1001
0000
0000
0000
0110
1001
0110
0000
1001
0000
0010
0100
1000
0000
0010
0000
,  // measure 57
1001
0100
0001
1000
0100
0001
1000
0110
,  // measure 58
0000
0001
0110
1000
0000
1000
0010
0100
,  // measure 59
1000
0100
0010
1000
0100
0010
1000
0110
,  // measure 60
0000
0101
0000
0110
0000
1001
0010
0100
,  // measure 61
1000
0100
0001
1000
0100
0001
1000
0101
,  // measure 62
0000
0010
1100
0010
0000
0101
1000
0010
,  // measure 63
1001
0100
0000
0010
0000
0001
0010
1001
,  // measure 64
0000
1010
0000
0101
2000
3001
1001
0000
,  // measure 65
0110
0000
0001
0000
0000
0000
0001
0000
0001
0000
0010
1000
0100
0000
1000
0000
,  // measure 66
0100
0010
0001
1000
0100
0010
0001
0010
,  // measure 67
1001
0010
0000
0100
0000
1000
0000
0010
,  // measure 68
1001
0000
0000
0000
0000
0000
0010
0000
1001
0000
0100
0000
0010
0001
0010
0000
,  // measure 69
1001
0000
0001
0000
0000
0000
0001
0000
0001
0000
0010
1000
0100
0000
0010
0000
,  // measure 70
0100
1000
0100
0010
0101
1010
0100
0010
,  // measure 71
1100
0000
0001
0000
0100
0000
0010
0000
0000
0000
0100
0000
0010
0000
1000
0010
,  // measure 72
0100
0000
0010
0000
0001
0010
0100
0000
0110
0000
1010
0000
0001
0100
0010
0000
,  // measure 73
1001
0010
0100
0000
0001
0000
1000
0010
0100
0000
0001
0000
1000
0010
0100
0000
,  // measure 74
0001
0000
1000
0010
0100
0000
0001
0000
1010
0000
0000
0000
0000
0000
0000
0000
,  // measure 75
1001
0100
0010
0000
0001
0000
1000
0001
0100
0000
0001
0000
1000
0001
0100
0000
,  // measure 76
0001
0000
1000
0001
0100
0000
0001
0000
0010
0100
1000
0010
0100
0001
0100
0010
,  // measure 77
1001
0010
0100
0000
0001
0000
1000
0010
0100
0000
0001
0000
1000
0010
0100
0000
,  // measure 78
0001
0000
1000
0010
0100
0000
0001
0000
0010
0000
0010
0000
0100
0000
0100
0000
,  // measure 79
1000
0000
0001
0010
0100
0000
0010
0000
0110
0000
1010
0000
0101
0000
1010
0100
,  // measure 80
0001
0000
0010
0000
1000
0100
0010
0000
0101
0000
1010
0100
0001
0010
0100
0000
,  // measure 81
1100
0110
0011
1100
0110
0011
1100
0110
,  // measure 82
0011
1100
0110
0011
0110
0000
0000
0000
,  // measure 83
1100
0101
0011
1100
0101
0011
1100
0101
,  // measure 84
0011
0000
1100
0000
0110
0000
1001
0000
0110
0000
0001
1000
0010
0100
0001
0000
,  // measure 85
1001
0110
0101
1001
0110
0101
1001
0110
,  // measure 86
0101
1001
0110
0101
1001
1001
0110
0110
,  // measure 87
1001
0000
0010
0100
1000
0000
0010
0000
1100
0000
0101
0000
1100
0000
0001
0100
,  // measure 88
1000
0000
0100
0000
0010
1000
0001
0000
0000
0000
0000
0000
0000
0000
0000
0000
;
