#TITLE:Ancient Steps Retraced;
#SUBTITLE:;
#ARTIST:LousySpy;
#TITLETRANSLIT:;
#SUBTITLETRANSLIT:;
#ARTISTTRANSLIT:;
#CREDIT:;
#BANNER:Steps Banner.PNG;
#BACKGROUND:Steps Background.PNG;
#LYRICSPATH:;
#CDTITLE:;
#MUSIC:Final_Fantasy_7_Ancient_Steps_Retraced_OC_ReMix.mp3;
#OFFSET:-0.040;
#SAMPLESTART:64.014;
#SAMPLELENGTH:12.000;
#SELECTABLE:YES;
#BPMS:0.000=93.750;
#STOPS:;
#BGCHANGES:;
// cache tags:
#FIRSTBEAT:0.000;
#LASTBEAT:328.000;
#SONGFILENAME:Songs/cedric step/Ancient Steps Retraced/Ancient Steps Retraced.sm;
#HASMUSIC:1;
#HASBANNER:1;
#MUSICLENGTH:215.144;
// end cache tags

//---------------dance-single - ----------------
#NOTES:
     dance-single:
     :
     Easy:
     2:
     0.236,0.282,0.112,0.311,0.002,265.000,24.000,67.000,0.000,0.000:
2000
3000
0200
0300
0020
0000
0030
0000
,
0000
0100
0010
0100
,
0010
0001
0010
0100
,
0010
0001
0010
0100
,
0020
0030
0200
0300
2000
0000
3000
0000
,
0000
0001
0100
0010
,
0100
0010
0100
1000
,
0100
0010
0001
0010
,
0000
1000
0100
1000
0200
0300
0020
0030
,
0110
0000
2000
3000
0200
0300
0000
0000
,
0002
0003
0100
0010
0100
0000
0010
0100
,
1000
0100
0020
0030
0200
0300
0000
0000
,
0000
0010
0100
0010
0200
0300
2000
3000
,
0110
0000
0020
0030
0200
0300
0000
0000
,
0200
0300
0020
0030
0200
0300
0000
0000
,
0002
0003
2000
3000
0002
0003
0000
0000
,
2000
3000
0200
0300
0020
0000
0000
0000
,
0030
1000
0100
0010
,
0001
0001
0010
0100
,
1000
1000
0100
0100
,
0020
0030
0002
0003
0020
0000
0000
0000
,
0030
0010
0010
0100
,
0100
1000
1000
0100
,
0100
0010
0010
0001
,
0001
0010
0100
0010
0200
0300
0002
0003
,
0110
0000
0020
0030
2000
3000
0000
0000
,
0020
0030
0100
0010
0200
0300
1000
0100
,
0010
0100
2000
3000
2000
0000
3000
0000
,
0000
0001
0010
0100
2000
3000
2000
3000
,
0110
0000
2000
3000
0200
0300
0000
0000
,
0200
0300
0020
0030
0200
0000
0300
0000
,
0002
0003
2000
3000
0002
0000
0003
0000
,
0000
0100
0010
0000
,
0110
1000
0000
0001
,
0010
0010
1000
0000
,
1000
0100
0000
0100
,
0010
0010
0100
0000
,
0110
0001
0000
0001
,
0010
0010
0010
0000
,
0100
0100
0000
0100
,
0010
0000
0010
0010
,
0110
0000
0000
0000
,
1000
1000
1000
1000
,
1000
0001
0001
0001
,
0001
0010
0010
0010
,
0110
0000
0000
0000
,
0100
0100
0100
0100
,
0100
0000
0000
0000
0000
0000
0000
0000
0000
0000
0000
0000
1000
0100
0010
0000
,
0010
0001
0010
0100
1000
0100
0010
0001
,
0011
0000
0000
0000
,
0000
0001
0010
0001
0020
0000
0030
0000
,
0000
0000
0000
0000
,
1000
0010
0100
0001
1001
0000
0000
0000
,
0100
0010
0001
0010
,
1000
0001
0010
0100
0001
0010
0100
0010
,
0220
0000
0330
0000
,
1000
0100
1000
0010
0200
0000
0300
0000
,
0110
0000
0000
0000
,
0100
0010
0100
1001
,
0110
0001
0010
0100
,
0010
0100
1000
0100
0020
0000
0030
0000
,
0110
0000
0000
0000
,
0001
0001
0001
0011
,
0110
0000
0000
0000
,
0002
0003
0020
0030
0200
0300
0000
0000
,
0110
0000
0000
0000
,
1000
1000
0100
0100
,
0010
0010
0001
0001
,
2000
3000
0200
0300
0020
0030
0000
0000
,
0110
0000
0000
0000
,
0010
0100
0010
0100
,
0010
1000
0001
1000
,
0002
0003
0020
0030
0200
0300
0000
0000
,
0110
0000
0000
0000
,
1001
0000
0000
0000
,
1001
0000
0000
0000
,
0020
0030
0200
0300
0020
0030
0000
0000
,
0110
0000
0000
0000
,
0001
0000
0000
0000
,
0001
0000
0000
0000
,
0002
0003
2000
3000
0002
0003
0000
0000
,
0110
0000
0000
0000
;

//---------------dance-single - Copied from----------------
#NOTES:
     dance-single:
     Copied from:
     Medium:
     6:
     0.517,0.724,0.507,0.576,0.349,546.000,109.000,124.000,0.000,2.000:
0020
0000
0030
0000
0200
0000
0300
0000
0020
0000
0000
0100
0030
0000
0001
0000
,
0100
0000
0000
0010
0000
0000
1000
0000
0100
0000
0000
1000
0000
0000
0100
0000
,
0001
0000
0000
0010
0000
0000
0100
0000
0010
0000
0000
0001
0000
0000
1000
0000
,
0100
0000
0000
0010
0000
0000
0100
0000
0001
0000
0000
0100
0000
0000
0001
0000
,
0020
0000
0030
0000
0002
0000
0003
0000
0020
0000
0000
0100
0030
0000
0001
0000
,
0010
0000
0000
1000
0000
0000
0100
0000
0010
0000
0000
0100
0000
0000
0001
0000
,
0010
0000
0000
0001
0000
0000
1000
0000
0100
0000
0000
0010
0000
0000
0001
0000
,
0010
0000
0000
0001
0000
0000
0010
0000
0100
0000
0000
0010
0000
0000
0100
0000
,
0000
1100
0100
1100
0200
0300
0200
0300
,
0110
0000
2002
3003
0220
0330
0000
0000
,
0020
0030
0110
0010
0110
0000
0011
0001
,
0110
1100
0220
0330
0200
0300
0000
0000
,
0000
0110
0100
0110
2020
3030
0200
0300
,
0011
0000
0022
0033
0220
0330
0000
0000
,
2000
3000
0220
0330
2000
3000
0000
0000
,
2002
0000
3003
0000
0220
0000
0330
0000
0001
0000
0010
0001
0010
0001
0010
0000
,
2000
0000
3000
0000
0200
0000
0300
0000
0020
0000
0000
0100
0000
0000
0001
0000
,
0130
0000
0000
1000
0000
0000
0010
0000
0100
0000
0000
1000
0000
0000
0010
0000
,
0100
0000
0000
0001
0000
0000
0100
0000
0010
0000
0000
0001
0000
0000
1000
0000
,
0100
0000
0000
1000
0000
0000
0010
0000
0001
0000
0000
0100
0000
0000
1000
0000
,
0120
0000
0030
1000
0002
0000
0103
0000
0021
0000
0000
0100
0000
0000
0001
0000
,
0130
0000
0000
0001
0000
0000
0010
0000
0001
0000
0000
1000
0000
0000
0100
0000
,
0010
0000
0000
0100
0000
0000
0010
0000
0001
0000
0000
0010
0000
0000
0100
0000
,
0010
0000
0000
0100
0000
0000
0001
0000
1000
0000
0000
0001
0000
0000
0010
0000
,
0000
0110
0100
0110
0022
0033
0202
0303
,
0110
0000
0202
0303
0220
0330
0000
0000
,
0020
0030
1001
0001
2002
3003
1100
0110
,
0011
0000
0110
0000
2200
0000
3300
0000
0220
0000
0000
0330
0000
0000
0000
0000
,
0000
0011
0010
0011
0020
0030
2200
3300
,
1100
0000
2200
3300
0220
0330
0000
0000
,
0202
0303
2020
3030
0220
0000
0330
0000
,
2002
0000
3003
0000
0022
0000
0033
0000
0000
0000
0100
0010
0100
0010
0100
0010
,
0000
0000
0000
0000
0110
0000
0000
0000
0110
0000
1000
0001
1000
0000
0000
0000
,
0110
0000
0000
0000
1000
0000
0001
1000
0010
0100
0001
1000
0011
0000
0000
0000
,
0010
0000
0000
0000
0110
0000
1000
0100
1000
0000
0001
1000
0010
0100
0001
0010
,
1000
0000
0000
0000
0100
0000
1000
0001
0100
0010
1000
0010
1100
0000
0000
0000
,
0110
0000
0000
0000
0010
0000
0100
0010
0100
0000
1000
0100
0010
0001
1000
0001
,
0110
0000
0000
0000
0001
0000
1000
0001
0010
0100
1000
0010
0101
0010
1000
0100
,
0011
0000
0000
0000
0010
0000
0000
0000
0010
0000
1000
0100
1000
0100
0010
0001
,
0110
0000
0000
0000
0110
0000
0001
0010
0100
1000
0001
0010
1100
0000
0000
0000
,
1010
0000
0100
0010
0100
0000
0001
1000
0000
0001
1000
0000
0100
0000
0000
0000
,
0110
0000
0100
0001
0100
0000
0001
1000
0000
0001
1000
0000
0010
0000
0000
0000
,
0010
0000
1000
0100
1000
0000
0010
1000
0000
0001
0100
0000
0010
0000
0000
0000
,
1000
0000
0010
0001
0010
0000
1000
0100
0000
0010
0100
0000
1000
0000
0000
0000
,
0001
0000
0010
0100
0010
0000
1000
0001
0000
1000
0001
0000
0010
0000
0000
0000
,
0110
0000
0100
0010
0100
0000
1000
0100
0000
1000
0100
0000
0001
0000
0000
0000
,
0100
0000
0010
0001
0010
0000
0100
0010
0000
0010
0100
0000
1000
0000
0000
0000
,
0100
0000
0010
0100
0010
0000
0001
1000
0000
0001
0100
0000
0001
0010
0100
0010
,
0001
0001
0010
0100
1000
0100
0010
0001
,
0102
0000
0100
0010
0100
0000
1000
0100
0003
0010
0100
0000
0010
0000
0000
0000
,
0000
0011
1100
0011
2200
0000
3300
0000
,
0001
0000
0100
0010
0100
0000
1000
1000
0000
0100
0010
0000
0001
0000
0000
0000
,
1100
1010
0110
1001
0011
0000
0000
0000
,
1000
0000
0100
0010
0100
0000
0001
1000
0000
1000
0001
0000
0010
0000
0000
0000
,
2002
3003
0220
0330
2200
3300
0220
0330
2020
3030
0220
0330
0202
0303
2200
3300
,
0220
0000
0330
0000
,
2200
3300
2020
3030
0220
0330
0022
0033
0220
0000
0000
0000
0330
0000
0000
0000
,
0110
0000
0001
1000
0001
0000
0001
0001
0000
1000
0100
0000
0100
0000
0000
0000
,
0100
0000
0010
0100
0010
0000
1000
0100
0000
0100
1000
0000
1001
0000
0000
0000
,
0110
0000
0100
0010
0001
0000
0010
0100
0000
0010
0010
0000
0001
0100
1000
0100
,
0020
0030
0002
0003
0020
0030
0200
0300
0020
0000
0000
0000
0030
0000
0000
0000
,
0110
0000
0010
0100
0010
0000
0001
1000
0000
0001
0010
0100
0010
0100
0010
0000
,
0011
0000
0010
0100
0010
0000
0001
0010
0000
0010
0001
0000
1001
0000
0000
0000
,
0110
0000
0100
0010
0100
0000
0001
1000
0000
1000
0001
0010
0001
0010
0001
0000
,
0002
0000
0003
0000
0020
0000
0030
0000
0200
0000
0300
0010
0000
0000
0100
0000
,
0110
0000
0000
0100
0000
0000
0010
0000
0001
0000
0000
0010
0000
0000
0010
0000
,
1000
0000
0000
0001
0000
0000
0010
0000
0001
0000
0000
0100
0000
0000
0010
0000
,
0100
0000
0000
0001
0000
0000
0010
0000
0001
0000
0000
0010
0000
0000
0001
0000
,
2010
0000
3000
0001
0200
0000
0310
0000
0120
0000
0030
1000
0000
0000
0100
0000
,
0110
0000
0000
0100
0000
0000
0010
0000
0102
0000
0000
1000
0000
0000
0100
0000
,
0010
0000
0000
0010
0000
0000
0100
0000
1000
0000
0000
1000
0000
0000
0100
0000
,
0123
0000
0000
0100
0000
0000
1000
0000
0001
0000
0000
0100
0000
0000
1000
0000
,
0132
0000
0003
0100
0020
0000
0031
0000
0210
0000
0300
1000
0000
0000
0010
0000
,
0110
0000
0000
0010
0000
0000
0001
0000
0010
0000
0000
0001
0000
0000
0010
0000
,
1001
0000
0000
0010
0000
0000
0100
0000
0010
0000
0000
1000
0000
0000
0010
0000
,
1001
0000
0000
0010
0000
0000
0100
0000
0010
0000
0000
0010
0000
0000
0010
0000
,
0020
0000
0030
1000
0200
0000
0310
0000
0120
0000
0030
0100
0000
0000
0010
0000
,
0110
0000
0000
0001
0000
0000
1000
0000
0100
0000
0000
0001
0000
0000
1000
0000
,
0100
0000
0000
0001
0000
0000
1000
0000
0100
0000
0000
0001
0000
0000
1000
0000
,
0100
0000
0000
0010
0000
0000
0001
0000
0100
0000
0000
0010
0000
0000
0001
0000
,
0200
0000
0300
0000
2000
0000
3000
0000
0002
0000
0000
0000
0000
0000
0000
0003
,
0220
0000
0000
0000
,
0330
0000
0000
0000
;

//---------------dance-single - Copied from Copied f----------------
#NOTES:
     dance-single:
     Copied from Copied f:
     Hard:
     10:
     0.901,1.000,0.865,0.623,1.000,1037.000,186.000,134.000,0.000,0.000:
1020
0100
0031
0010
1200
0000
1300
0100
0021
0100
1000
0100
0031
0000
0001
0010
,
0100
1000
0100
0010
0001
0000
0010
0100
0000
0000
0010
0100
0000
0000
0010
0100
,
1000
0100
1000
0100
0010
0000
0100
1000
0100
0010
0001
0010
0100
0000
0010
0100
,
1000
0100
0010
0100
0010
0000
0010
0100
1000
0100
1000
0100
0010
0001
0010
0100
,
1002
0100
1003
0100
1002
0000
0013
0100
0012
0100
0010
0100
0013
0000
0001
0010
,
0100
1000
0001
0010
0100
0000
0100
0010
0000
0000
0010
0100
0000
0000
0011
0010
,
0100
0010
0100
0010
0100
0000
1000
0100
0001
0100
1000
0100
0001
0000
0001
0010
,
0100
1000
0001
0010
0100
1000
0010
0100
0001
0010
1000
0010
0100
0001
0100
1000
,
0010
0000
0102
0013
2100
3000
0120
0030
2001
3000
0100
0010
2001
3000
0110
0000
,
0120
0000
0130
0010
0102
0000
1003
0000
2000
0000
3001
0100
0000
0000
0001
0100
,
0120
0000
1030
0100
2010
3000
0210
0300
2000
3000
0010
0100
0012
0003
0021
0030
,
0200
0300
2001
3010
0120
0000
0130
0000
0200
0000
0310
0100
0110
0000
0001
0001
,
0000
0000
0201
0310
2100
3000
1200
0310
0020
0000
0130
1000
0102
0000
1003
0100
,
0220
0330
0100
0010
0102
0000
0013
0001
2000
0000
3010
0100
0000
0000
0010
0100
,
2000
0000
3001
0010
0120
0000
0130
0000
0002
0000
1003
0100
0010
0000
0010
0000
,
0002
0000
0000
0000
0103
0000
0010
0000
0201
0000
0000
0000
0310
0000
0000
0000
0001
0000
0100
1000
0100
0010
0001
0010
0100
1000
0100
0010
0001
0010
0100
0000
,
2000
0000
3001
0010
0120
0000
0130
0000
0020
0000
1000
0100
0001
0000
0001
0000
,
0130
0000
0010
0001
0010
0000
0100
0000
0002
0000
0010
1000
0000
0000
0010
1000
,
0000
0000
0010
0100
1000
0000
0013
0000
0000
0000
0012
0100
0010
0000
1003
0000
,
0002
0000
0003
0000
1000
0000
0100
0000
0010
0000
0000
0000
0010
0000
0000
0000
0000
0000
0000
0100
1000
0100
0010
0001
0010
0100
1000
0100
0011
0000
0000
0000
,
0020
0000
0130
1000
0102
0000
0103
0000
0020
0000
0001
0100
1000
0000
0001
0000
,
0130
0000
0010
0001
0010
0000
0010
0000
0001
0000
0100
1000
0000
0000
0100
1000
,
2010
0000
0010
0100
0010
0000
0010
0000
0100
0000
0001
0010
0100
0000
3100
0000
,
0010
0000
1002
0000
0010
0000
1000
0000
0010
0000
1000
0000
0013
0000
1000
0000
0012
0000
0003
0100
1000
0100
0010
0001
0010
0100
1000
0100
0010
0001
0000
0000
,
0000
0000
0210
0310
0120
0030
0210
0300
0002
0000
0013
0100
0210
0000
0310
0000
,
0210
0000
1300
0001
1020
0000
0031
0000
0200
0000
0310
0100
0000
0000
0010
0100
,
0020
0000
1030
0100
2001
3000
1002
0003
2000
0000
3100
1000
1200
0300
0120
0030
,
0012
0000
0003
0100
1000
0100
0010
0001
0010
0100
1000
0100
0010
0001
0010
0000
0020
0000
0000
0000
0130
0000
0010
0000
0100
0000
0010
0000
0100
0000
0010
0000
,
0000
0000
0021
0031
0021
0030
0021
0030
0020
0000
0130
1000
2100
0000
3100
0000
,
2100
0000
3100
0010
0102
0000
0103
0000
0020
0000
0130
0010
0000
0000
0100
0010
,
0002
0000
0013
0100
2010
0000
3010
0000
0020
0000
0100
0001
0130
0000
0001
0000
,
2000
0000
0000
0000
3010
0000
0100
0000
0012
0000
0000
0000
0013
0000
0000
0000
0120
0000
0030
0100
1000
0100
0010
0001
0010
0100
1000
0100
0010
0001
0010
0000
,
0010
0100
0001
1000
0110
0010
0001
0100
1010
0100
1000
0010
0100
0001
1000
0010
,
0110
0001
0100
0010
1100
0100
0001
1000
0010
0100
0001
1000
0011
0010
0100
0001
,
0011
1000
0100
0001
0110
0010
1000
0100
1010
0100
0001
1000
0010
0100
0001
0010
,
1001
0000
0010
0000
0100
0000
0001
0000
0110
0000
0100
0000
1000
0000
0001
0000
0100
0000
0100
1000
0100
0010
0001
0010
0100
1000
0100
0010
0001
0010
0000
0000
,
0110
0100
0001
1000
0011
0010
1000
0010
0110
0001
1000
0100
0010
0001
1000
0001
,
0110
0010
0100
1000
0101
0010
1000
0001
0010
0001
1000
0010
0101
0010
1000
0100
,
0011
0100
1000
0100
0011
0100
1010
0001
0010
0100
1000
0100
1000
0100
0010
0001
,
0110
0000
0100
0000
1000
0000
0100
0000
0110
0000
0010
0000
0001
0000
0010
0000
0100
0000
0100
1000
0100
0010
0001
0010
0100
1000
0100
0010
0001
0000
0000
0000
,
1010
0000
0100
0010
0100
0000
0001
1000
0000
0001
0010
0010
0100
0100
0010
0010
,
0110
0000
0100
0001
0100
0000
0010
1002
0000
0010
1000
1000
0100
0100
1000
1000
,
0010
0000
1000
0100
1000
0003
0010
1000
0000
0012
0100
0100
0010
0010
0103
0100
,
1002
0000
0003
0000
0010
0000
0001
0000
0010
0000
0000
0000
1000
0000
0100
0000
0000
0000
1000
0100
0010
0001
0010
0100
1000
0100
0010
0001
0010
0000
0000
0000
,
0001
0000
0010
0100
0010
0000
1000
0001
0000
1000
0001
0001
0010
0010
0100
0100
,
0110
0000
0100
0010
0100
0000
1000
0100
0000
1000
0100
0100
0001
0001
0010
0010
,
0100
0000
0000
0000
1000
0100
0010
0001
0010
0100
1000
0100
0010
0001
0010
0100
1000
0100
0010
0001
0010
0100
1000
0100
0010
0001
0010
0100
1000
0100
0010
0001
,
0010
0000
0100
0000
1000
0000
0100
0000
0010
0000
0001
0000
0010
0000
0100
0000
1000
0000
0100
0000
0010
0000
0001
0000
0010
0000
0100
0000
1000
0000
0100
0000
0010
0000
0001
0000
0010
0000
0100
0000
1000
0000
0100
0000
0010
0000
0001
0000
0010
0000
0000
0000
0000
0000
0100
1000
0200
0000
0000
0000
0300
0000
0000
0000
,
0002
0003
0120
1030
0102
0003
0210
0300
2000
3000
1200
0301
1020
0030
0201
0300
,
1002
0000
0100
0010
0100
0000
1000
0000
0003
0000
0010
0100
0000
0000
0010
0100
,
0000
0000
0021
0031
0021
0030
0021
0030
2000
0000
0010
0100
3010
0000
0010
0000
,
0001
0000
0000
0000
0100
0000
0010
0000
0100
0000
0000
0000
1000
0000
0000
0000
0000
0000
0100
1000
0100
0010
0001
0010
0100
1000
0100
0010
0001
0000
0000
0000
,
0110
0000
1001
0100
0011
0000
1010
0000
1100
0000
0010
0100
0010
0000
0010
0000
,
1000
0000
0000
0000
0100
0000
0010
0000
0100
0000
0000
0000
0001
0000
0000
0000
0000
0000
1000
0100
0010
0001
0010
0100
1000
0100
0010
0001
0000
0000
0000
0000
,
2002
3003
0120
0031
2100
3000
0210
0300
2020
3030
0120
0031
0102
0003
2100
3000
,
0020
0000
0100
0001
0100
0000
0001
0000
0030
0000
0100
0010
0000
0000
0100
0010
,
2000
3000
0210
0301
0020
0030
0012
0003
0220
0000
0000
0000
0330
0000
0000
0000
,
0110
0000
0000
0000
0001
0000
1000
0000
0001
0000
0000
0000
0001
0000
0000
0000
0000
0100
1000
0100
0010
0001
0010
0100
1000
0100
0010
0001
0000
0000
0000
0000
,
0100
0000
0010
0100
0010
0000
1000
0000
0000
0000
0010
0100
1100
0000
0010
0000
,
0110
0000
0000
0000
0100
0000
0010
0000
0001
0000
0000
0000
0010
0000
0000
0000
0000
0000
1000
0100
0010
0001
0010
0100
1000
0100
0010
0001
0010
0000
0200
0300
,
0020
0030
1002
0103
1020
0030
0210
0300
0020
0000
0100
0001
0130
0000
0010
0000
,
0110
0000
0000
0000
0010
0000
0100
0000
0010
0000
0000
0000
0001
0000
0100
0000
0000
0000
1000
0100
0010
0001
0010
0100
1000
0100
0010
0001
0010
0000
0000
0000
,
0011
0000
0010
0100
0010
0000
1000
0010
0000
0010
1000
0100
1001
0010
1000
0010
,
0110
0000
0000
0000
0100
0000
0010
0000
0100
0000
0000
0000
0001
0000
1000
0000
0000
0000
1000
0100
0010
0001
0010
0100
1000
0100
0010
0001
0010
0000
0000
0000
,
0200
0000
0301
0010
0021
0000
0130
0000
0200
0000
0310
0100
0010
0000
0100
0000
,
0110
0000
0100
0010
0100
0000
0110
0000
1001
0000
0001
0110
0000
0000
0110
0100
,
1010
0000
0100
1001
0100
0000
0110
0000
0011
0000
0010
1100
0010
0000
0110
0000
,
0101
0000
0010
0101
0010
0000
0110
0000
0101
0000
0010
1010
0010
0000
0011
0000
,
2010
0000
3010
1001
0210
0000
0310
0000
0120
0000
0031
1010
0001
0000
0101
0000
,
0110
0000
0010
0110
0010
0000
0110
0000
0101
0000
0010
1010
0000
0000
0011
0010
,
1100
0000
0010
1010
0010
0000
0110
0000
1001
0000
0001
1010
0001
0000
0011
0000
,
0110
0000
0001
0011
0001
0000
1010
0000
0101
0000
1000
0110
1000
0000
1010
0000
,
2100
0010
3100
0010
2100
0000
3001
0010
2001
0010
3001
0010
0001
0000
0010
0100
,
0011
0100
0010
0100
0010
0000
1000
0100
1000
0100
1000
0100
1000
0000
0010
0100
,
0010
0100
0010
0100
0010
0000
1000
0001
1000
0001
1000
0001
1000
0000
0010
0001
,
0010
0001
0010
0001
0010
0000
0100
0010
0100
0010
0100
0010
0100
0000
0000
0000
,
0110
0000
0010
0110
0000
0010
0110
0000
0100
0000
0010
0011
0000
0100
1100
0000
,
0110
0000
0010
0011
0000
0100
0110
0000
0100
0000
0001
0011
0000
1000
1100
0000
,
0100
0000
0010
0110
0000
1000
1001
0000
0100
0000
0010
0011
0000
0100
1100
0000
,
0100
0000
0100
0110
0000
0010
0011
0000
0100
0000
0010
0110
0000
0010
0011
0000
,
0200
0000
0300
0000
0020
0000
0030
0000
2000
0000
0000
0000
0000
0000
0000
3000
,
0220
0000
0000
0000
,
0330
0000
0000
0000
;
