#TITLE:The Clarion Call;
#SUBTITLE:Chapters from a Vale Forlorn (2002);
#ARTIST:Falconer;
#TITLETRANSLIT:;
#SUBTITLETRANSLIT:;
#ARTISTTRANSLIT:;
#CREDIT:Piazoren;
#BANNER:The Clarion Call banner.png;
#BACKGROUND:The Clarion Call Bkg.png;
#LYRICSPATH:;
#CDTITLE:!PZ-cdtitle.png;
#MUSIC:Falconer - The Clarion Call.mp3;
#OFFSET:-0.380;
#SAMPLESTART:34.483;
#SAMPLELENGTH:11.960;
#SELECTABLE:YES;
#BPMS:0.000=174.000,460.000=174.020;
#STOPS:;
#BGCHANGES:;
// cache tags:
#FIRSTBEAT:0.000;
#LASTBEAT:994.500;
#SONGFILENAME:Songs/Astronomic Metal Collection 2/(Piazoren) The Clarion Call/The Clarion Call.sm;
#HASMUSIC:1;
#HASBANNER:1;
#MUSICLENGTH:347.721;
// end cache tags

//---------------dance-single - ----------------
#NOTES:
     dance-single:
     :
     Challenge:
     14:
     1.000,1.000,1.000,1.000,0.753,1860.000,945.000,459.000,0.000,243.000:
1010
0000
0100
0000
0010
0000
0100
0000
1000
0000
0100
0000
0001
0000
0010
0100
,
1000
0010
1000
0200
0000
0000
0300
0011
,
1100
0000
1000
0100
1000
0000
0100
0010
0001
0000
0100
0000
1000
0000
0100
0000
,
0010
0000
0100
0000
1000
0000
0200
0000
0000
0000
0000
0000
0300
0000
0011
0011
,
1100
0000
0010
0000
1000
0000
0100
0010
0100
0000
1000
0000
0100
0000
0010
0100
,
1000
0010
1000
0200
0300
0100
0010
0002
,
1103
0011
1010
1100
0011
0120
1031
0102
,
1100
0003
0110
0000
0101
0000
1010
0000
1100
0010
0101
1000
0011
0000
0120
0030
,
1001
0010
0001
0010
1100
0010
0001
1000
0110
1000
0011
0100
0010
1000
0010
0100
,
1001
0100
0010
1000
0110
0001
0110
1000
0001
1000
1010
0110
0101
0110
1010
0101
,
1100
0010
0001
0010
1100
0010
0001
1000
0110
1000
0011
0100
1000
0100
0011
0100
,
1000
0100
1010
0001
0110
0001
1010
0001
1100
0001
1010
0100
1010
0101
1010
0001
,
1100
0010
0001
1000
0110
0001
0010
1000
0101
1000
0011
0100
1000
0010
1100
0001
,
0010
0001
1010
0001
0110
1000
0011
0100
1010
0100
1010
0110
0101
0110
1010
0101
,
0110
1000
0100
0001
1010
0001
0010
0001
0110
1000
0110
1000
0100
0001
1100
0010
,
0100
0001
0110
1000
0011
0100
1001
0100
1010
0001
0110
0001
1010
0100
1001
0010
,
0101
0010
1100
0001
0110
0001
1100
0001
1010
0100
1001
0100
0011
0100
1000
0100
,
1001
0100
0010
0001
0110
0001
0010
0001
1100
0010
0101
0010
0001
0010
0100
1000
,
0011
0100
1000
0001
0110
0001
0110
1000
0100
0001
1010
0110
0101
0110
1010
0101
,
1100
0010
0001
0100
0011
1000
0100
0001
0110
0001
1010
0001
0010
0100
1001
0100
,
1000
0100
1010
0100
1001
0010
1100
0010
0001
0010
1100
0010
1001
0010
0100
0001
,
0110
1000
0100
0001
1100
0001
0010
0100
1001
0010
1100
0001
0010
0100
1010
0100
,
1000
0010
1100
0001
1010
0001
1100
0010
0101
0010
1100
0001
1010
0101
1010
0001
,
0110
0001
0010
0100
0011
1000
0100
0001
1100
0001
0110
1000
0100
0010
1100
0001
,
0010
0001
1100
0001
1010
0100
1001
0010
1100
0001
0110
0001
1100
0001
1010
0100
,
1001
0010
1100
0001
0110
0001
1010
0001
0110
0001
1100
0001
0110
0011
0110
0011
,
1000
1000
1000
1000
1000
1000
1000
1000
1100
0000
0000
0000
0000
0000
0000
0000
,
0010
0010
0010
0010
0010
0010
0010
0010
0110
0000
0000
0000
0000
0000
0000
0000
,
2201
0000
0000
3300
0221
0330
0202
0303
1022
0000
0000
0033
1202
0303
0220
0330
,
2201
0000
0000
3300
0221
0330
0022
0033
1220
0000
0000
0000
0001
0000
0000
0330
,
1200
0000
0001
0000
0010
0000
1000
0000
0010
0300
0001
0000
0110
0000
0101
0000
1010
0000
0110
0000
1001
0000
0101
0000
,
1010
0100
0010
1100
0011
0100
1000
0110
1010
0101
1010
0110
,
1000
0100
0010
0100
0010
0101
0011
1010
0101
0110
1000
0100
,
0011
0100
1000
0110
1001
0010
0100
1010
0101
0110
1001
1100
,
0001
0001
0001
0001
0001
0001
0001
0001
0011
0000
0000
0000
0000
0000
0000
0000
,
0010
0010
0010
0010
0010
0010
0010
0010
0110
0000
0000
0000
0000
0000
0000
0000
,
2201
0000
0000
3300
0221
0330
0202
0303
1022
0000
0000
0033
1202
0303
0220
0330
,
2201
0000
0000
3300
0221
0330
0022
0033
1220
0000
0000
0000
0001
0000
0000
0330
,
1000
0100
0010
0001
0010
0100
1000
0100
0010
0001
0010
0100
1000
0100
0010
0001
,
0010
0100
1000
0100
0010
0001
0010
0010
0010
0010
0010
0010
0001
0001
0001
0001
,
0010
0010
0010
0010
0010
0010
0010
0010
0100
0100
0100
0100
0010
0010
0010
0010
,
1002
0000
0000
0000
1000
0000
2000
0000
0000
0000
0000
0000
0110
0000
0000
3000
,
1000
0000
0000
0003
0100
0000
0200
0000
0000
0000
0000
0300
1010
0000
0100
0000
,
1010
0000
0002
0000
1000
0003
0002
0000
1100
0000
0000
0000
1000
0003
0100
0000
,
1010
0000
0200
0000
1300
0000
0002
0000
1100
0000
0000
0000
1000
0000
0000
0003
,
1200
0000
0000
0000
0001
0300
0020
0000
1100
0030
0001
0010
0101
1000
0100
0010
,
1200
0000
0000
0000
0001
0300
0020
0000
1100
0000
0000
0030
0101
0010
1000
0000
,
0201
0000
0000
0000
0001
0300
0020
0000
1100
0000
0000
0030
1002
0000
0000
0003
,
1020
0000
0000
0030
2001
0000
0000
3000
0210
0000
0000
0300
1020
0000
0000
0030
,
0102
0100
0100
0100
0100
0103
0100
0100
0110
0000
0000
0000
0000
0000
0000
0000
,
0010
0010
0010
0010
0010
0010
0010
0010
0110
0000
0000
0000
0000
0000
0000
0000
,
2201
0000
0000
3300
0221
0330
0202
0303
1022
0000
0000
0033
1202
0303
0220
0330
,
2201
0000
0000
3300
0221
0330
0022
0033
1220
0000
0000
0000
0001
0000
0000
0330
,
1200
0000
0001
0000
0010
0000
1000
0000
0010
0300
0001
0000
0110
0000
0101
0000
1010
0000
0110
0000
1001
0000
0101
0000
,
1010
0100
0010
1100
0011
0100
1000
0110
1010
0101
1010
0110
,
1000
0100
0010
0100
0010
0101
0011
1010
0101
0110
1000
0100
,
0011
0100
1000
0110
1001
0010
0100
1010
0101
0110
1001
1100
,
0010
0010
0010
0010
0010
0010
0010
0010
0110
0000
0000
0000
0000
0000
0000
0000
,
0100
0100
0100
0100
0100
0100
0100
0100
0110
0000
0000
0000
0000
0000
0000
0000
,
2201
0000
0000
3300
0221
0330
0202
0303
1022
0000
0000
0033
1202
0303
0220
0330
,
2201
0000
0000
3300
0221
0330
0022
0033
1220
0000
0000
0000
0001
0000
0000
0330
,
2102
0000
0000
0000
0000
0000
0000
0000
0110
0000
0000
0000
0000
0000
0000
3003
,
0110
0000
0000
0000
0101
0000
0201
0000
1000
0300
0020
0030
0102
0000
0000
0003
,
0120
0000
0000
0000
0000
0000
0000
0030
1002
0000
0000
0003
2000
0000
0000
3000
,
0210
0000
0010
0000
0000
0300
0000
0000
0010
0000
0100
0000
0010
0000
1000
0000
,
0111
0000
0000
0000
0110
0000
0110
0000
1202
0000
0000
0000
0000
0000
0000
0303
,
1010
0000
0000
0000
1010
0000
1010
0000
0221
0000
0000
0330
2200
0000
3300
0000
,
1100
0000
1100
1100
2021
0000
0000
3030
,
1010
0000
0000
0000
1010
0000
1010
0000
0221
0000
0000
0330
2200
0000
0000
3300
,
1100
0000
1100
1100
2021
0000
0000
3030
,
0110
0000
0000
0000
0110
0000
0110
0000
0212
0000
0000
0303
2200
0000
3300
0000
,
0101
0000
0101
0101
1022
0000
0000
0033
,
2200
0000
0000
3300
0220
0330
0202
0000
1000
0303
2020
3030
0220
0000
0000
0330
,
1011
0000
1010
1010
0221
0000
0000
0330
,
1100
0000
0000
0000
1100
0000
1100
0000
2120
0000
0000
3030
0022
0000
0033
0000
,
1100
0000
1100
1100
2021
0000
0000
3030
,
0110
0000
0000
0000
0110
0000
0110
0000
1202
0000
0000
0303
0022
0000
0033
0000
,
0110
0000
0000
0000
0110
0000
0110
0000
1202
0000
0000
0000
0000
0000
0000
0303
,
1010
0000
0000
0000
1010
0000
1010
0000
0212
0000
0000
0303
0022
0000
0033
0000
,
0110
0000
0110
0110
1202
0000
0000
0303
,
2200
0000
0000
3300
2020
3030
2200
0000
0001
0000
0000
3300
0022
0000
0000
0033
,
1001
0010
0001
0010
1100
0010
0001
1000
0110
1000
0011
0100
0010
1000
0010
0100
,
1001
0100
0010
1000
0110
0001
0110
1000
0001
1000
1010
0110
0101
0110
1010
0101
,
1100
0010
0001
0010
1100
0010
0001
1000
0110
1000
0011
0100
1000
0100
0011
0100
,
1000
0100
1010
0001
0110
0001
1010
0001
1100
0001
1010
0100
1010
0101
1010
0001
,
1100
0010
0001
1000
0110
0001
0010
1000
0101
1000
0011
0100
1000
0010
1100
0001
,
0010
0001
1010
0001
0110
1000
0011
0100
1010
0100
1010
0110
0101
0110
1010
0101
,
0110
1000
0100
0001
1010
0001
0010
0001
0110
1000
0110
1000
0100
0001
1100
0010
,
0100
0001
0110
1000
0011
0100
1001
0100
1010
0001
0110
0001
1010
0100
1001
0010
,
0101
0010
1100
0001
0110
0001
1100
0001
1010
0100
1001
0100
0011
0100
1000
0100
,
1001
0100
0010
0001
0110
0001
0010
0001
1100
0010
0101
0010
0001
0010
0100
1000
,
0011
0100
1000
0001
0110
0001
0110
1000
0100
0001
1010
0110
0101
0110
1010
0101
,
1100
0010
0001
0100
0011
1000
0100
0001
0110
0001
1010
0001
0010
0100
1001
0100
,
1000
0100
1010
0100
1001
0010
1100
0010
0001
0010
1100
0010
1001
0010
0100
0001
,
0110
1000
0100
0001
1100
0001
0010
0100
1001
0010
1100
0001
0010
0100
1010
0100
,
1000
0010
1100
0001
1010
0001
1100
0010
0101
0010
1100
0001
1010
0101
1010
0001
,
0110
0001
0010
0100
0011
1000
0100
0001
1100
0001
0110
1000
0100
0010
1100
0001
,
0010
0001
1100
0001
1010
0100
1001
0010
1100
0001
0110
0001
1100
0001
1010
0100
,
1001
0010
1100
0001
0110
0001
1010
0001
0110
0001
1100
0001
0110
0001
0010
0100
,
1000
1000
1000
1000
1000
1000
1000
1000
1100
0000
0000
0000
0000
0000
0000
0000
,
0010
0010
0010
0010
0010
0010
0010
0010
0110
0000
0000
0000
0000
0000
0000
0000
,
2201
0000
0000
3300
0221
0330
0202
0303
1022
0000
0000
0033
1202
0303
0220
0330
,
2201
0000
0000
3300
0221
0330
0022
0033
1220
0000
0000
0000
0001
0000
0000
0330
,
1200
0000
0001
0000
0010
0000
1000
0000
0010
0300
0001
0000
0110
0000
0101
0000
1010
0000
0110
0000
1001
0000
0101
0000
,
1010
0100
0010
1100
0011
0100
1000
0110
1010
0101
1010
0110
,
1000
0100
0010
0100
0010
0101
0011
1010
0101
0110
1000
0100
,
0011
0100
1000
0110
1001
0010
0100
1010
0101
0110
1001
1100
,
0100
0100
0100
0100
0100
0100
0100
0100
0110
0000
0000
0000
0000
0000
0000
0000
,
0010
0010
0010
0010
0010
0010
0010
0010
0110
0000
0000
0000
0000
0000
0000
0000
,
2201
0000
0000
3300
0221
0330
0202
0303
1022
0000
0000
0033
1202
0303
0220
0330
,
2201
0000
0000
3300
0221
0330
0022
0033
1220
0000
0000
0000
0001
0000
0000
0330
,
2002
0000
0000
0000
0000
0000
0000
0000
0110
0000
0000
0000
0000
0000
0000
3003
,
0110
0000
0000
0000
0101
0000
0201
0000
1000
0300
0020
0030
0102
0000
0000
0003
,
0120
0000
0000
0000
0000
0000
0000
0030
1002
0000
0000
0003
2000
0000
0000
3000
,
0210
0000
0010
0000
0000
0300
0000
0000
0010
0000
0100
0000
0010
0000
1000
0000
,
0111
0000
0000
0000
0110
0000
0110
0000
1202
0000
0000
0000
0000
0000
0000
0303
,
1010
0000
0000
0000
1010
0000
1010
0000
0221
0000
0000
0330
2200
0000
3300
0000
,
1100
0000
1100
1100
2021
0000
0000
3030
,
1010
0000
0000
0000
1010
0000
1010
0000
0221
0000
0000
0330
2200
0000
0000
3300
,
1100
0000
1100
1100
2021
0000
0000
3030
,
0110
0000
0000
0000
0110
0000
0110
0000
0212
0000
0000
0303
2200
0000
3300
0000
,
0101
0000
0101
0101
1022
0000
0000
0033
,
2200
0000
0000
3300
0220
0330
0202
0000
1000
0303
2020
3030
0220
0000
0000
0330
,
1011
0000
1010
1010
0221
0000
0000
0330
,
1100
0000
0000
0000
1100
0000
1100
0000
2120
0000
0000
3030
0022
0000
0033
0000
,
1100
0000
1100
1100
2021
0000
0000
3030
,
0110
0000
0000
0000
0110
0000
0110
0000
1202
0000
0000
0303
0022
0000
0033
0000
,
0110
0000
0000
0000
0110
0000
0110
0000
1202
0000
0000
0000
0000
0000
0000
0303
,
1010
0000
0000
0000
1010
0000
1010
0000
0212
0000
0000
0303
0022
0000
0033
0000
,
0110
0000
0110
0110
1202
0000
0000
0303
,
2200
0000
0000
3300
2020
3030
2200
0000
0001
0000
0000
3300
0022
0000
0000
0033
,
0110
0001
0001
1001
,
0001
0001
0111
0001
,
0001
1001
0001
0001
,
0221
0000
0000
0000
0001
0000
0000
0000
0001
0000
0000
0330
2201
0000
0000
0000
,
0001
0000
0000
0000
0001
0000
0000
3300
0212
0000
0000
0000
0010
0000
0000
0000
,
0010
0000
0000
0303
0221
0000
0000
0000
0001
0000
0000
0000
0001
0000
0000
0330
,
2120
0000
0000
0000
0100
0000
0000
0000
0100
0000
0000
3030
0221
0000
0000
0000
,
0001
0000
0000
0000
0001
0000
0000
0330
1022
0000
0000
0000
1000
0000
0000
0000
,
1000
0000
0000
0033
1220
0000
0000
0000
1000
0000
0000
0000
1000
0000
0000
0330
,
0212
0000
0000
0000
0010
0000
0000
0000
0010
0000
0000
0303
1022
0000
0000
0000
,
1000
0000
0000
0000
1000
0000
0000
0033
2201
0000
0000
0000
0001
0000
0000
0000
,
0001
0000
0000
3300
2021
0000
0000
0000
0001
0000
0000
0000
0001
0000
0000
3030
,
1100
0101
1010
0011
1100
0101
1011
0110
,
1100
0101
1010
0011
1100
0101
1001
0110
,
1100
0101
1110
0011
1100
0101
1001
0110
,
1100
0101
1010
0011
1100
0101
1011
0110
,
1100
0101
1010
0011
1100
0101
1001
0110
,
1100
0101
1110
0011
1100
0101
1001
0110
,
1100
0101
1010
0011
1100
0101
1011
0110
,
1100
0101
1010
0011
1100
0101
1001
0110
,
1100
0101
1011
0011
1100
0101
1001
0110
,
1100
0101
1010
0011
1100
0101
1101
0110
,
1100
0101
1010
0011
1100
0101
1001
0110
,
1100
0101
1110
0011
1100
0101
1001
0110
,
2201
0000
0000
0000
0001
0000
0000
0000
0001
0000
0000
3300
2021
0000
0000
0000
,
0001
0000
0000
0000
0001
0000
0000
3030
0212
0000
0000
0000
0010
0000
0000
0000
,
0010
0000
0000
0303
1022
0000
0000
0000
1000
0000
0000
0000
1000
0000
0000
0033
,
1200
0000
0000
0000
1000
0000
0000
0000
1000
0000
0000
0300
1020
0000
0000
0030
,
1001
0010
0101
1000
0201
0000
0001
0000
,
0001
0000
0000
0000
0011
0000
0000
0000
0001
0000
0000
0300
2001
0000
0000
3000
,
0120
0000
0000
0000
0100
0000
0000
0000
0100
0000
0000
0000
1100
0000
0000
0030
,
0101
0000
1000
0000
0101
0000
0010
0000
0201
0000
0000
0300
1010
0000
0001
0000
,
1010
0000
0100
0000
1002
0000
0000
0003
1010
0000
0100
0000
1001
0000
0010
0000
,
0201
0000
0000
0000
0001
0000
0000
0000
0001
0000
0000
0300
0021
0000
0000
0030
,
0101
1000
0101
0010
2001
0000
0001
0000
,
0001
0000
0000
3000
0201
0000
0000
0300
1020
0000
0000
0000
1000
0030
0200
0300
,
1020
0000
0000
0000
1000
0000
0000
0000
1000
0000
0000
0030
1002
0000
0000
0003
,
1020
0000
0000
0000
1000
0030
0200
0300
1020
0000
0000
0000
1000
0000
0000
0000
,
1000
0000
0000
0000
1001
0000
0000
0000
1000
0000
0000
0000
1000
0000
0000
0030
,
1002
0000
0000
0003
1000
0100
0010
0100
1010
0001
0010
0001
1200
0000
0000
0000
,
1000
0000
0000
0000
1000
0000
0000
0300
1002
0000
0000
0003
1100
0010
0001
0010
,
0101
1000
0100
0010
1002
0000
0000
0000
1000
0000
0000
0000
1000
0000
0000
0003
,
1020
0000
0000
0030
1001
0100
0010
0100
1010
0001
0010
0001
1020
0000
0000
0000
,
1000
0000
0000
0000
1000
0000
0000
0030
1200
0000
0000
0300
1001
0100
0010
0100
,
1010
0001
0010
0001
1020
0000
0000
0000
1000
0000
0000
0000
1000
0000
0000
0030
,
1002
0000
0000
0003
1100
0010
0001
0010
0101
1000
0100
0010
1002
0000
0000
0000
,
1000
0000
0000
0000
1000
0000
0000
0003
1020
0000
0000
0030
0110
0001
1000
0100
,
1010
0100
0010
0001
1020
0000
0000
0000
1000
0000
0000
0000
1000
0000
0000
0030
,
0201
0000
0000
0300
1001
0100
0010
0100
1010
0001
0010
0001
0120
0000
0000
0000
,
0100
0000
0000
0000
0100
0000
0000
0030
0201
0000
0000
0300
1001
0100
0010
0100
,
1010
0001
0010
0001
1020
0000
0000
0000
1000
0000
0000
0000
1000
0000
0000
0030
,
2001
0000
0000
0000
0001
0000
0000
0000
0011
0000
0000
0000
0001
0000
3000
0200
,
0001
0000
0000
0000
0301
0020
0000
0000
1100
0000
0030
0002
1000
0000
0003
0200
,
0010
0010
0011
0010
,
0010
0000
0000
0000
0010
0000
0000
0000
0011
0000
0000
0000
0010
0000
0000
0300
,
0021
0000
0000
0000
1000
0000
0000
0000
1100
0000
0000
0030
1001
0000
0010
0000
,
1002
0000
0000
0000
1000
0003
0020
0000
1100
0000
0000
0030
1002
0000
0000
0003
,
1001
0100
0010
0100
1010
0001
0010
0001
1010
0100
0010
0001
1010
0001
1000
0100
,
0011
0100
0010
0001
1010
0001
0010
0100
1001
0100
0010
0001
1010
0100
1000
0100
,
1012
1100
1010
1100
,
1010
0000
0000
0000
1100
0000
0000
0000
1010
0000
0000
0000
1100
0000
0000
0003
,
1101
1100
0001
0220
0001
0000
0001
0330
,
1101
0000
1100
0000
0001
0000
0220
0000
1000
0000
0000
0000
1000
0000
0000
0330
,
2001
0000
0000
0000
0001
3000
0020
0000
1000
0030
0001
0010
0101
1000
0100
0010
,
1200
0000
0000
0000
1000
0300
0020
0000
1000
0000
0000
0030
1001
0010
1000
0000
,
0201
0000
0000
0000
0001
0300
0020
0000
0001
0000
0000
0030
1002
0000
0000
0003
,
1020
0000
0000
0030
1100
0000
0010
0000
0101
0000
1000
0000
0201
0000
0000
0300
,
0220
0330
0000
0000
0000
0000
0000
0000
0000
0000
0000
0000
0000
0000
0000
0000
,
0000
0000
0000
0000
,
0000
0000
0000
0000
,
0000
0000
0000
0000
,
0000
0000
0000
0000
,
0000
0000
0000
0000
,
0000
0000
0000
0000
,
0000
0000
0000
0000
,
0200
0000
0010
0000
,
0000
0000
0000
0000
0000
0000
0000
0000
0010
0000
0000
0000
0000
0000
0000
0300
,
2000
0000
0010
0000
,
0000
0000
0000
0000
0000
0000
0000
0000
0010
0000
0000
0000
0000
0000
0000
3000
,
0200
0000
0010
0000
,
0000
0000
0000
0000
0000
0000
0000
0000
0010
0000
0000
0000
0000
0000
0000
0300
,
2000
0000
0010
0000
,
0000
0000
0000
0000
0000
0000
0000
0000
0010
0000
0000
0000
0000
0000
0000
3000
,
0110
0000
0110
0110
1202
0000
0000
0303
,
0101
0000
0000
0000
0101
0000
0101
0000
0122
0000
0000
0033
0220
0000
0330
0000
,
1100
0000
1100
1100
2021
0000
0000
3030
,
1010
0000
0000
0000
1010
0000
1010
0000
0221
0000
0000
0330
0022
0000
0033
0000
,
0110
0000
0110
0110
1202
0000
0000
0303
,
0101
0000
0000
0000
0101
0000
0101
0000
1022
0000
0000
0033
2200
0000
3300
0000
,
0110
0000
0000
0000
0110
0000
0110
0000
0212
0000
0000
0303
2020
0000
3030
0000
,
2200
0000
0000
3300
0220
0330
0202
0000
1000
0303
0022
0033
0220
0000
0000
0330
,
1100
0000
1100
1100
2021
0000
0000
3030
,
1010
0000
0000
0000
1010
0000
1010
0000
0221
0000
0000
0330
2200
0000
3300
0000
,
1100
0000
1100
1100
2021
0000
0000
3030
,
1010
0000
0000
0000
1010
0000
1010
0000
1220
0000
0000
0330
0022
0000
0033
0000
,
0110
0000
0110
0110
1202
0000
0000
0303
,
1010
0000
0000
0000
1010
0000
1010
0000
0221
0000
0000
0330
2200
0000
3300
0000
,
0110
0000
0110
0110
1202
0000
0000
0303
,
2200
0000
0000
3300
2020
3030
0220
0330
1202
0000
0000
0303
0220
0000
0000
0330
,
1022
0000
0000
0000
,
1000
0000
1000
0000
1000
0000
1000
0000
1000
0000
1000
0000
1000
0000
1000
0033
,
0211
0001
1001
0001
0011
0001
1001
0001
,
0011
0000
0001
0000
1001
0000
0001
0000
0011
0000
0001
0000
1001
0000
0001
0300
,
2111
0001
0101
0001
0111
0001
0101
0001
,
0111
0000
0001
0000
0101
0000
0001
0000
0111
0000
0001
0000
0101
0000
0001
3000
,
1120
1000
1001
1000
1100
1000
1001
1000
,
1100
0000
1000
0000
1001
0000
1000
0000
1100
0000
1000
0000
1001
0000
1000
0030
,
0202
0000
0000
0303
0010
0000
0010
0000
1100
0000
2000
0000
0011
3000
0200
0000
,
0011
0300
0010
0000
1001
0000
0010
0000
0101
0000
1000
0000
0101
0000
0010
0000
,
1112
1000
1010
1000
1110
1000
1010
1000
,
1110
0000
1000
0000
1010
0000
1000
0000
1110
0000
1000
0000
1010
0000
1000
0003
,
1120
1000
1001
1000
1100
1000
1001
1000
,
1100
0000
1000
0000
1001
0000
1000
0000
1100
0000
1000
0000
1001
0000
1000
0030
,
1100
0000
0000
0000
2020
0000
0000
3030
0000
0000
0000
0000
0000
0000
0000
0000
,
0101
0000
0000
0000
0202
0000
0000
0303
0000
0000
0000
0000
0000
0000
0000
0000
,
0000
0000
0000
0000
,
0000
0110
0110
0110
2200
3300
0000
0000
,
0000
0011
0011
0011
0220
0330
0000
0000
;

//---------------dance-single - Trills----------------
#NOTES:
     dance-single:
     Trills:
     Hard:
     11:
     1.000,1.000,1.000,1.000,0.646,1641.000,424.000,466.000,0.000,0.000:
1010
0000
0100
0000
0010
0000
0100
0000
1000
0000
0100
0000
0001
0000
0010
0100
,
1000
0010
1000
2000
0000
0000
3000
0011
,
1100
0000
1000
0100
1000
0000
0100
0010
0001
0000
0010
0000
0001
0000
0100
0000
,
0010
0000
0100
0000
1000
0000
2000
0000
0000
0000
0000
0000
0000
3000
0011
0011
,
1100
0000
0010
0000
1000
0000
0100
0010
0100
0000
1000
0000
0100
0000
0010
0100
,
1000
0000
0010
0000
1000
0000
2000
0000
0000
3000
0100
0000
0010
0000
0002
0000
,
0003
0010
1000
0100
0010
0020
0030
0002
,
0000
0003
0010
0000
0100
0000
1000
0000
0100
0010
0100
1000
0010
0000
0020
0030
,
1000
0010
0100
0001
0100
1000
0001
0100
0010
0100
0010
1000
0010
1000
0010
0100
,
0001
0010
0100
1000
0010
0100
0001
1000
0001
0100
0001
0100
0010
1000
0001
0100
,
1000
0010
0100
0001
0100
0010
0100
0001
0100
0010
0100
0001
0100
0001
1000
0010
,
0100
0010
1000
0001
0100
0001
1000
0001
1000
0001
0010
0100
1000
0010
0100
0001
,
1000
0010
0100
0001
0100
0010
1000
0100
0010
0001
1000
0010
1000
0001
0100
0001
,
1000
0001
0010
0100
0001
1000
0010
0100
0001
0100
0010
1000
0010
0100
0001
1000
,
0010
0100
0001
1000
0010
0100
0010
1000
0010
0100
0001
1000
0010
0100
0001
1000
,
0010
0100
0001
1000
0010
0100
0001
0100
1000
0001
0100
0001
0010
1000
0001
0100
,
0010
1000
0001
0100
0010
0001
1000
0010
0100
0001
1000
0100
0010
0100
0001
0100
,
0001
1000
0010
1000
0100
0001
0100
0010
1000
0010
0001
0100
0001
0010
0100
1000
,
0010
0100
0001
1000
0100
0001
0100
0010
1000
0001
0100
0010
0100
0001
1000
0010
,
0100
0010
1000
0001
0100
0010
0100
0001
0100
0001
1000
0001
0010
0100
0001
0010
,
1000
0010
0100
0001
1000
0010
1000
0010
0100
0010
1000
0010
0100
0001
0100
0001
,
1000
0010
0100
0001
0100
0010
1000
0010
0001
0100
0010
1000
0010
0100
0010
0100
,
0001
0010
0100
0001
0100
0010
1000
0001
0100
0010
1000
0001
0010
0100
1000
0010
,
0100
0001
1000
0010
0100
1000
0010
1000
0001
0100
0010
1000
0001
0100
0010
1000
,
0010
0100
1000
0010
0100
0001
1000
0010
0100
1000
0001
0100
0001
0100
0010
1000
,
0010
0100
0001
1000
0100
0010
1000
0001
0100
0001
1000
0010
1000
0010
0100
0001
,
1000
0010
1000
0010
1000
0010
1000
0010
1000
0000
0000
0000
0000
0000
0000
0000
,
0010
1000
0010
1000
0010
1000
0010
1000
0010
0000
0000
0000
0000
0000
0000
0000
,
2200
0000
0000
3300
0220
0330
0202
0303
0022
0000
0000
0033
0202
0303
0220
0330
,
2200
0000
0000
3300
0220
0330
0022
0033
0220
0000
0000
0000
0000
0000
0000
0330
,
0200
0000
0000
0000
0000
0000
0000
0000
0000
0300
0000
0000
0010
0000
0100
0000
1000
0000
0100
0000
0010
0000
0001
0000
,
0200
0000
0000
0000
0000
0000
0000
0000
0300
0000
0000
0000
2000
0000
0000
3000
0000
0000
0020
0000
0000
0000
0000
0000
0000
0000
0000
0000
0000
0000
0130
0000
0000
0000
0000
0000
0010
0000
0000
0000
0000
0000
0001
0000
0000
0000
0000
0000
,
2000
0000
0000
3000
0000
0100
0010
1000
0100
0002
0000
0003
,
0020
0000
0000
0000
0000
0000
0000
0000
0030
0000
0000
0000
0200
0000
0000
0300
0000
0000
0002
0000
0000
0000
0000
0000
0003
0000
0000
0000
0000
0000
1000
0000
0000
0000
0000
0000
0100
0000
0000
0000
0000
0000
0010
0000
0000
0000
0000
0000
,
0001
0100
0001
0100
0001
0100
0001
0100
0001
0000
0000
0000
0000
0000
0000
0000
,
0010
1000
0010
1000
0010
1000
0010
1000
0010
0000
0000
0000
0000
0000
0000
0000
,
2200
0000
0000
3300
0220
0330
0202
0303
0022
0000
0000
0033
0202
0303
0220
0330
,
2200
0000
0000
3300
0220
0330
0022
0033
0220
0000
0000
0000
0000
0000
0000
0330
,
1000
0100
0010
0001
0010
0100
1000
0100
0010
0001
0010
0100
1000
0100
0010
0001
,
0010
0100
1000
0100
0010
0001
0010
0100
0010
0100
0010
0100
0001
0010
0001
0010
,
0100
0010
0100
0010
0100
0010
0100
0010
0100
1000
0100
1000
0010
0100
0010
0100
,
0002
0000
0000
0000
1000
0000
2000
0000
0000
0000
0000
0000
0000
0000
0000
3000
,
1000
0000
0000
0003
0100
0000
0200
0000
0000
0000
0000
0300
0010
0000
0100
0000
,
0010
0000
0002
0000
0000
0003
0002
0000
0000
0000
0000
0000
0000
0003
0100
0000
,
0010
0000
0200
0000
0300
0000
0002
0000
0000
0000
0000
0000
0000
0000
0000
0003
,
0200
0000
0000
0000
0000
0300
0020
0000
0000
0030
0001
0010
0100
1000
0100
0010
,
0200
0000
0000
0000
0000
0300
0020
0000
0000
0000
0000
0030
0001
0010
1000
0000
,
0200
0000
0000
0000
0000
0300
0020
0000
0000
0000
0000
0030
0002
0000
0000
0003
,
0020
0000
0000
0030
2000
0000
0000
3000
0200
0000
0000
0300
0020
0000
0000
0030
,
0102
1000
0100
1000
0100
1003
0100
1000
0100
0000
0000
0000
0000
0000
0000
0000
,
0010
1000
0010
1000
0010
1000
0010
1000
0010
0000
0000
0000
0000
0000
0000
0000
,
2200
0000
0000
3300
0220
0330
0202
0303
0022
0000
0000
0033
0202
0303
0220
0330
,
2200
0000
0000
3300
0220
0330
0022
0033
0220
0000
0000
0000
0000
0000
0000
0330
,
0200
0000
0000
0000
0000
0000
0000
0000
0000
0300
0000
0000
0010
0000
0100
0000
1000
0000
0100
0000
0010
0000
0001
0000
,
0200
0000
0000
0000
0000
0000
0000
0000
0300
0000
0000
0000
2000
0000
0000
3000
0000
0000
0020
0000
0000
0000
0000
0000
0000
0000
0000
0000
0000
0000
0130
0000
0000
0000
0000
0000
0010
0000
0000
0000
0000
0000
0001
0000
0000
0000
0000
0000
,
2000
0000
0000
3000
0000
0100
0010
1000
0100
0002
0000
0003
,
0020
0000
0000
0000
0000
0000
0000
0000
0030
0000
0000
0000
0200
0000
0000
0300
0000
0000
0002
0000
0000
0000
0000
0000
0003
0000
0000
0000
0000
0000
0010
0000
0000
0000
0000
0000
0100
0000
0000
0000
0000
0000
0001
0000
0000
0000
0000
0000
,
1000
0010
1000
0010
1000
0010
1000
0010
1000
0000
0000
0000
0000
0000
0000
0000
,
0100
0001
0100
0001
0100
0001
0100
0001
0100
0000
0000
0000
0000
0000
0000
0000
,
2200
0000
0000
3300
0220
0330
0202
0303
0022
0000
0000
0033
0202
0303
0220
0330
,
2200
0000
0000
3300
0220
0330
0022
0033
0220
0000
0000
0000
0000
0000
0000
0330
,
2002
0000
0000
0000
0000
0000
0000
0000
0000
0000
0000
0000
0000
0000
0000
3003
,
0110
0000
0000
0000
0000
0000
0200
0000
0000
0300
0020
0030
0002
0000
0000
0003
,
0020
0000
0000
0000
0000
0000
0000
0030
0002
0000
0000
0003
2000
0000
0000
3000
,
0210
0000
0010
0000
0000
0300
0000
0000
0010
0000
0100
0000
0010
0000
1000
0000
,
0110
0000
0000
0000
0110
0000
0110
0000
0202
0000
0000
0000
0000
0000
0000
0303
,
1010
0000
0000
0000
1010
0000
1010
0000
0220
0000
0000
0330
2200
0000
3300
0000
,
1100
0000
1100
1100
2020
0000
0000
3030
,
1010
0000
0000
0000
1010
0000
1010
0000
0220
0000
0000
0330
2200
0000
0000
3300
,
1100
0000
1100
1100
2020
0000
0000
3030
,
0110
0000
0000
0000
0110
0000
0110
0000
0202
0000
0000
0303
2200
0000
3300
0000
,
0101
0000
0101
0101
0022
0000
0000
0033
,
2200
0000
0000
3300
0220
0330
0202
0000
0000
0303
2020
3030
0220
0000
0000
0330
,
1010
0000
1010
1010
0220
0000
0000
0330
,
1100
0000
0000
0000
1100
0000
1100
0000
2020
0000
0000
3030
0022
0000
0033
0000
,
1100
0000
1100
1100
2020
0000
0000
3030
,
0110
0000
0000
0000
0110
0000
0110
0000
0202
0000
0000
0303
0022
0000
0033
0000
,
0110
0000
0000
0000
0110
0000
0110
0000
0202
0000
0000
0000
0000
0000
0000
0303
,
1010
0000
0000
0000
1010
0000
1010
0000
0202
0000
0000
0303
0022
0000
0033
0000
,
0110
0000
0110
0110
0202
0000
0000
0303
,
2200
0000
0000
3300
2020
3030
2200
0000
0000
0000
0000
3300
0022
0000
0000
0033
,
1000
0010
0100
0001
0100
1000
0001
0100
0010
0100
0010
1000
0010
1000
0010
0100
,
0001
0010
0100
1000
0010
0100
0001
1000
0001
0100
0001
0100
0010
1000
0001
0100
,
1000
0010
0100
0001
0100
0010
0100
0001
0100
0010
0100
0001
0100
0001
1000
0010
,
0100
0010
1000
0001
0100
0001
1000
0001
1000
0001
0010
0100
1000
0010
0100
0001
,
1000
0010
0100
0001
0100
0010
1000
0100
0010
0001
1000
0010
1000
0001
0100
0001
,
1000
0001
0010
0100
0001
1000
0010
0100
0001
0100
0010
1000
0010
0100
0001
1000
,
0010
0100
0001
1000
0010
0100
0010
1000
0010
0100
0001
1000
0010
0100
0001
1000
,
0010
0100
0001
1000
0010
0100
0001
0100
1000
0001
0100
0001
0010
1000
0001
0100
,
0010
1000
0001
0100
0010
0001
1000
0010
0100
0001
1000
0100
0010
0100
0001
0100
,
0001
1000
0010
1000
0100
0001
0100
0010
1000
0010
0001
0100
0001
0010
0100
1000
,
0010
0100
0001
1000
0100
0001
0100
0010
1000
0001
0100
0010
0100
0001
1000
0010
,
0100
0010
1000
0001
0100
0010
0100
0001
0100
0001
1000
0001
0010
0100
0001
0010
,
1000
0010
0100
0001
1000
0010
1000
0010
0100
0010
1000
0010
0100
0001
0100
0001
,
1000
0010
0100
0001
0100
0010
1000
0010
0001
0100
0010
1000
0010
0100
0010
0100
,
0001
0010
0100
0001
0100
0010
1000
0001
0100
0010
1000
0001
0010
0100
1000
0010
,
0100
0001
1000
0010
0100
1000
0010
1000
0001
0100
0010
1000
0001
0100
0010
1000
,
0010
0100
1000
0010
0100
0001
1000
0010
0100
1000
0001
0100
0001
0100
0010
1000
,
0010
0100
0001
1000
0100
0010
1000
0001
0100
0001
1000
0010
1000
0010
0100
0010
,
1000
0001
1000
0001
1000
0001
1000
0001
1000
0000
0000
0000
0000
0000
0000
0000
,
0010
0100
0010
0100
0010
0100
0010
0100
0010
0000
0000
0000
0000
0000
0000
0000
,
2200
0000
0000
3300
0220
0330
0202
0303
0022
0000
0000
0033
0202
0303
0220
0330
,
2200
0000
0000
3300
0220
0330
0022
0033
0220
0000
0000
0000
0000
0000
0000
0330
,
0200
0000
0000
0000
0000
0000
0000
0000
0000
0300
0000
0000
0010
0000
0100
0000
1000
0000
0100
0000
0010
0000
0001
0000
,
0200
0000
0000
0000
0000
0000
0000
0000
0300
0000
0000
0000
2000
0000
0000
3000
0000
0000
0020
0000
0000
0000
0000
0000
0000
0000
0000
0000
0000
0000
0130
0000
0000
0000
0000
0000
0010
0000
0000
0000
0000
0000
0001
0000
0000
0000
0000
0000
,
2000
0000
0000
3000
0000
0100
0010
1000
0100
0002
0000
0003
,
0020
0000
0000
0000
0000
0000
0000
0000
0030
0000
0000
0000
0200
0000
0000
0300
0000
0000
0002
0000
0000
0000
0000
0000
0003
0000
0000
0000
0000
0000
0010
0000
0000
0000
0000
0000
0100
0000
0000
0000
0000
0000
1000
0000
0000
0000
0000
0000
,
0010
0100
0010
0100
0010
0100
0010
0100
0010
0000
0000
0000
0000
0000
0000
0000
,
0010
1000
0010
1000
0010
1000
0010
1000
0010
0000
0000
0000
0000
0000
0000
0000
,
2200
0000
0000
3300
0220
0330
0202
0303
0022
0000
0000
0033
0202
0303
0220
0330
,
2200
0000
0000
3300
0220
0330
0022
0033
0220
0000
0000
0000
0000
0000
0000
0330
,
2002
0000
0000
0000
0000
0000
0000
0000
0000
0000
0000
0000
0000
0000
0000
3003
,
0110
0000
0000
0000
0100
0000
0200
0000
0000
0300
0020
0030
0002
0000
0000
0003
,
0020
0000
0000
0000
0000
0000
0000
0030
0002
0000
0000
0003
2000
0000
0000
3000
,
0210
0000
0010
0000
0000
0300
0000
0000
0010
0000
0100
0000
0010
0000
1000
0000
,
0110
0000
0000
0000
0110
0000
0110
0000
0202
0000
0000
0000
0000
0000
0000
0303
,
1010
0000
0000
0000
1010
0000
1010
0000
0220
0000
0000
0330
2200
0000
3300
0000
,
1100
0000
1100
1100
2020
0000
0000
3030
,
1010
0000
0000
0000
1010
0000
1010
0000
0220
0000
0000
0330
2200
0000
0000
3300
,
1100
0000
1100
1100
2020
0000
0000
3030
,
0110
0000
0000
0000
0110
0000
0110
0000
0202
0000
0000
0303
2200
0000
3300
0000
,
0101
0000
0101
0101
0022
0000
0000
0033
,
2200
0000
0000
3300
0220
0330
0202
0000
0000
0303
2020
3030
0220
0000
0000
0330
,
1010
0000
1010
1010
0220
0000
0000
0330
,
1100
0000
0000
0000
1100
0000
1100
0000
2020
0000
0000
3030
0022
0000
0033
0000
,
1100
0000
1100
1100
2020
0000
0000
3030
,
0110
0000
0000
0000
0110
0000
0110
0000
0202
0000
0000
0303
0022
0000
0033
0000
,
0110
0000
0000
0000
0110
0000
0110
0000
0202
0000
0000
0000
0000
0000
0000
0303
,
1010
0000
0000
0000
1010
0000
1010
0000
0202
0000
0000
0303
0022
0000
0033
0000
,
0110
0000
0110
0110
0202
0000
0000
0303
,
2200
0000
0000
3300
2020
3030
2200
0000
0000
0000
0000
3300
0022
0000
0000
0033
,
0110
0001
0001
1001
,
0001
0001
0011
0001
,
0001
1001
0001
0001
,
0201
0000
0000
0000
0001
0000
0000
0000
0001
0000
0000
0300
2001
0000
0000
0000
,
0001
0000
0000
0000
0001
0000
0000
3000
0210
0000
0000
0000
0010
0000
0000
0000
,
0010
0000
0000
0300
1020
0000
0000
0000
1000
0000
0000
0000
1000
0000
0000
0030
,
0102
0000
0000
0000
0100
0000
0000
0000
0100
0000
0000
0003
0201
0000
0000
0000
,
0001
0000
0000
0000
0001
0000
0000
0300
1020
0000
0000
0000
1000
0000
0000
0000
,
1000
0000
0000
0030
1200
0000
0000
0000
1000
0000
0000
0000
1000
0000
0000
0300
,
0210
0000
0000
0000
0010
0000
0000
0000
0010
0000
0000
0300
1002
0000
0000
0000
,
1000
0000
0000
0000
1000
0000
0000
0003
0201
0000
0000
0000
0001
0000
0000
0000
,
0001
0000
0000
0300
2001
0000
0000
0000
0001
0000
0000
0000
0001
0000
0000
3000
,
1100
0011
1100
0011
1100
0011
1100
0011
,
1100
0011
1100
0011
1010
0101
1010
0101
,
1010
0101
1010
0101
1010
0101
1010
0101
,
1001
0110
1001
0110
1001
0110
1001
0110
,
1001
0011
1100
0011
1100
0011
1100
0011
,
1100
0011
1100
0011
1100
0011
1100
0011
,
1001
0110
1001
0110
1001
0110
1001
0110
,
1001
0101
1010
0101
1010
0101
1010
0101
,
1010
0101
1010
0101
1100
0011
1100
0011
,
1100
0011
1100
0011
1100
0011
1100
0011
,
1100
0011
1100
0011
1100
0110
1001
0110
,
1001
0110
1001
0110
1001
0110
1001
0110
,
0201
0000
0000
0000
0001
0000
0000
0000
0001
0000
0000
0300
2001
0000
0000
0000
,
0001
0000
0000
0000
0001
0000
0000
3000
0210
0000
0000
0000
0010
0000
0000
0000
,
0010
0000
0000
0300
1020
0000
0000
0000
1000
0000
0000
0000
1000
0000
0000
0030
,
0200
0000
0000
0000
0000
0000
0000
0000
0000
0000
0000
0300
0020
0000
0000
0030
,
0001
0010
0100
1000
0200
0000
0000
0000
,
0000
0000
0000
0000
0000
0000
0000
0000
0000
0000
0000
0300
2000
0000
0000
3000
,
0020
0000
0000
0000
0000
0000
0000
0000
0000
0000
0000
0000
0000
0000
0000
0030
,
0100
0000
1000
0000
0100
0000
0010
0000
0200
0000
0000
0300
0010
0000
0001
0000
,
0010
0000
0100
0000
0002
0000
0000
0003
0010
0000
0100
0000
0001
0000
0010
0000
,
0200
0000
0000
0000
0000
0000
0000
0000
0000
0000
0000
0300
0020
0000
0000
0030
,
0100
1000
0100
0010
2000
0000
0000
0000
,
0000
0000
0000
3000
0200
0000
0000
0300
0020
0000
0000
0000
0000
0030
0200
0300
,
0020
0000
0000
0000
0000
0000
0000
0000
0000
0000
0000
0030
0002
0000
0000
0003
,
0020
0000
0000
0000
0000
0030
0200
0300
0020
0000
0000
0000
0000
0000
0000
0000
,
0000
0000
0000
0000
0000
0000
0000
0000
0000
0000
0000
0000
0000
0000
0000
0030
,
0002
0000
0000
0003
1000
0100
0010
0100
0010
0001
0010
0001
0200
0000
0000
0000
,
0000
0000
0000
0000
0000
0000
0000
0300
0002
0000
0000
0003
0100
0010
0001
0010
,
0100
1000
0100
0010
0002
0000
0000
0000
0000
0000
0000
0000
0000
0000
0000
0003
,
0020
0000
0000
0030
1000
0100
0010
0100
0010
0001
0010
0001
0020
0000
0000
0000
,
0000
0000
0000
0000
0000
0000
0000
0030
0200
0000
0000
0300
1000
0100
0010
0100
,
0010
0001
0010
0001
0020
0000
0000
0000
0000
0000
0000
0000
0000
0000
0000
0030
,
0002
0000
0000
0003
0100
0010
0001
0010
0100
1000
0100
0010
0002
0000
0000
0000
,
0000
0000
0000
0000
0000
0000
0000
0003
0020
0000
0000
0030
0010
0001
1000
0100
,
0010
0100
0010
0001
0020
0000
0000
0000
0000
0000
0000
0000
0000
0000
0000
0030
,
0200
0000
0000
0300
1000
0100
0010
0100
0010
0001
0010
0001
0020
0000
0000
0000
,
0000
0000
0000
0000
0000
0000
0000
0030
0200
0000
0000
0300
1000
0100
0010
0100
,
0010
0001
0010
0001
0020
0000
0000
0000
0000
0000
0000
0000
0000
0000
0000
0030
,
2000
0000
0000
0000
0000
0000
0000
0000
0000
0000
0000
0000
0000
0000
3000
0200
,
0000
0000
0000
0000
0300
0020
0000
0000
0000
0000
0030
0002
0000
0000
0003
0200
,
0000
0000
0000
0000
,
0000
0000
0000
0000
0000
0000
0000
0000
0000
0000
0000
0000
0000
0000
0000
0300
,
0020
0000
0000
0000
0000
0000
0000
0000
0000
0000
0000
0030
0001
0000
0010
0000
,
0002
0000
0000
0000
0000
0003
0020
0000
0000
0000
0000
0030
0002
0000
0000
0003
,
1000
0100
0010
0100
0010
0001
0010
0001
0010
0100
0010
0001
0010
0001
1000
0100
,
0010
0100
0010
0001
0010
0001
0010
0100
1000
0100
0010
0001
0010
0100
1000
0100
,
0002
0000
0000
0000
,
0000
0000
0000
0000
0000
0000
0000
0000
0000
0000
0000
0000
0000
0000
0000
0003
,
1100
1100
0000
0220
0000
0000
0000
0330
,
1100
0000
1100
0000
0000
0000
0220
0000
0000
0000
0000
0000
0000
0000
0000
0330
,
2000
0000
0000
0000
0000
3000
0020
0000
0000
0030
0001
0010
0100
1000
0100
0010
,
0200
0000
0000
0000
0000
0300
0020
0000
0000
0000
0000
0030
0001
0010
1000
0000
,
0200
0000
0000
0000
0000
0300
0020
0000
0000
0000
0000
0030
0002
0000
0000
0003
,
0020
0000
0000
0030
0100
0000
0010
0000
0100
0000
1000
0000
0200
0000
0000
0300
,
0220
0330
0000
0000
0000
0000
0000
0000
0000
0000
0000
0000
0000
0000
0000
0000
,
0000
0000
0000
0000
,
0000
0000
0000
0000
,
0000
0000
0000
0000
,
0000
0000
0000
0000
,
0000
0000
0000
0000
,
0000
0000
0000
0000
,
0000
0000
0000
0000
,
0200
0000
0010
0000
,
0000
0000
0000
0000
0000
0000
0000
0000
0010
0000
0000
0000
0000
0000
0000
0300
,
2000
0000
0010
0000
,
0000
0000
0000
0000
0000
0000
0000
0000
0010
0000
0000
0000
0000
0000
0000
3000
,
0200
0000
0010
0000
,
0000
0000
0000
0000
0000
0000
0000
0000
0010
0000
0000
0000
0000
0000
0000
0300
,
2000
0000
0010
0000
,
0000
0000
0000
0000
0000
0000
0000
0000
0010
0000
0000
0000
0000
0000
0000
3000
,
0110
0000
0110
0110
0202
0000
0000
0303
,
0101
0000
0000
0000
0101
0000
0101
0000
0022
0000
0000
0033
0220
0000
0330
0000
,
1100
0000
1100
1100
2020
0000
0000
3030
,
1010
0000
0000
0000
1010
0000
1010
0000
0220
0000
0000
0330
0022
0000
0033
0000
,
0110
0000
0110
0110
0202
0000
0000
0303
,
0101
0000
0000
0000
0101
0000
0101
0000
0022
0000
0000
0033
2200
0000
3300
0000
,
0110
0000
0000
0000
0110
0000
0110
0000
0202
0000
0000
0303
2020
0000
3030
0000
,
2200
0000
0000
3300
0220
0330
0202
0000
0000
0303
0022
0033
0220
0000
0000
0330
,
1100
0000
1100
1100
2020
0000
0000
3030
,
1010
0000
0000
0000
1010
0000
1010
0000
0220
0000
0000
0330
2200
0000
3300
0000
,
1100
0000
1100
1100
2020
0000
0000
3030
,
1010
0000
0000
0000
1010
0000
1010
0000
0220
0000
0000
0330
0022
0000
0033
0000
,
0110
0000
0110
0110
0202
0000
0000
0303
,
1010
0000
0000
0000
1010
0000
1010
0000
0220
0000
0000
0330
2200
0000
3300
0000
,
0110
0000
0110
0110
0202
0000
0000
0303
,
2200
0000
0000
3300
2020
3030
0220
0330
0202
0000
0000
0303
0220
0000
0000
0330
,
0002
0000
0000
0000
,
0100
0000
0100
0000
0100
0000
0100
0000
0100
0000
0100
0000
0100
0000
0100
0003
,
0200
0010
0001
0010
,
0001
0000
0000
0000
0010
0000
0000
0000
0001
0000
0000
0000
0010
0000
0000
0300
,
2000
0010
0001
0010
,
0001
0000
0000
0000
0010
0000
0000
0000
0001
0000
0000
0000
0010
0000
0000
3000
,
0020
0001
1000
0001
,
1000
0000
0000
0000
0001
0000
0000
0000
1000
0000
0000
0000
0001
0000
0000
0030
,
0202
0000
0000
0303
1000
0000
0010
0000
0100
0000
2000
0000
0000
3000
0200
0000
,
0000
0300
0010
0000
0001
0000
0010
0000
0100
0000
1000
0000
0100
0000
0010
0000
,
0002
1000
0100
1000
,
0100
0000
0000
0000
1000
0000
0000
0000
0100
0000
0000
0000
1000
0000
0000
0003
,
0020
0001
1000
0001
,
1000
0000
0000
0000
0001
0000
0000
0000
1000
0000
0000
0000
0001
0000
0000
0030
,
1100
0000
0000
0000
2020
0000
0000
3030
0000
0000
0000
0000
0000
0000
0000
0000
,
0101
0000
0000
0000
0202
0000
0000
0303
0000
0000
0000
0000
0000
0000
0000
0000
,
0000
0000
0000
0000
,
0000
0110
0110
0110
2200
3300
0000
0000
,
0000
0011
0011
0011
0220
0330
0000
0000
;

//---------------dance-single - Easy----------------
#NOTES:
     dance-single:
     Easy:
     Easy:
     6:
     0.624,0.751,0.058,1.000,0.036,1008.000,20.000,490.000,0.000,0.000:
1000
0100
0010
0100
1000
0100
0001
0010
,
1000
0010
1000
0200
0000
0000
0000
0300
,
0001
0100
0010
0100
1000
0100
0001
0010
,
1000
0010
1000
0020
0000
0000
0000
0030
,
0100
0010
1000
0100
0010
1000
0100
0010
,
1000
0010
1000
0020
0030
0100
0010
0002
,
0003
0010
1000
0100
0010
0200
0300
0002
,
0000
0003
0010
0000
0100
0000
0010
0000
1000
0000
0010
0000
0100
0000
0010
0000
,
2000
3000
0020
0030
0100
0020
0030
0000
,
2000
3000
0010
0200
0300
1000
0100
0010
,
0002
0003
0200
0300
0100
0002
0003
0020
,
0030
1000
0100
0010
0001
0010
1000
0001
,
2000
3000
0100
0001
0100
0002
0003
0200
,
0300
0001
0100
0010
1000
0010
0100
0001
,
2000
3000
0020
0030
0100
0002
0003
0200
,
0300
0010
0100
0001
1000
0100
0010
0001
,
0100
0001
0010
1000
0100
1000
0020
0030
,
0200
0300
0002
0003
1000
0020
0030
0000
,
0200
0300
0010
2000
3000
0001
0010
0100
,
2000
3000
0002
0003
1000
0020
0030
0002
,
0003
0100
0010
0002
0003
1000
0200
0300
,
0002
0003
0010
1000
0001
0200
0300
0020
,
0030
0001
0100
0001
0100
1000
0010
1000
,
0020
0030
0200
0300
0001
2000
3000
0020
,
0030
1000
0100
0010
0100
0010
0001
1000
,
0010
0001
0100
0001
0100
1000
0020
0030
,
2000
0000
3000
0000
,
0020
0000
0030
0000
,
2000
0000
0000
3000
0200
0300
0002
0003
0020
0000
0000
0030
0200
0300
0020
0030
,
2000
0000
0000
3000
0200
0300
0020
0030
0200
0000
0000
0000
0000
0000
0000
0300
,
2000
0000
0000
0000
0000
0000
0000
0000
0000
3000
0000
0000
0010
0000
0100
0000
1000
0000
0100
0000
0010
0000
0001
0000
,
0200
0000
0000
0000
0000
0000
0000
0000
0300
0000
0000
0000
2000
0000
0000
3000
0000
0000
0020
0000
0000
0000
0000
0000
0000
0000
0000
0000
0000
0000
0130
0000
0000
0000
0000
0000
0010
0000
0000
0000
0000
0000
0100
0000
0000
0000
0000
0000
,
2000
0000
0000
3000
0000
0100
0010
1000
0100
0002
0000
0003
,
0020
0000
0000
0000
0030
0000
0100
0000
0000
0002
0000
0000
0003
0000
0000
0010
0000
0000
0100
0000
0000
1000
0000
0000
,
0002
0000
0003
0000
,
0020
0000
0030
0000
,
2000
0000
0000
3000
0020
0030
0200
0300
0020
0000
0000
0030
0002
0003
0200
0300
,
2000
0000
0000
3000
0200
0300
0002
0003
0200
0000
0000
0000
0000
0000
0000
0300
,
1000
0010
0010
1000
0001
0001
1000
0100
,
0100
0000
1000
0000
0010
0000
0010
0000
0200
0000
0000
0300
0002
0000
0000
0003
,
0020
0000
0000
0000
0000
0000
0000
0030
2000
0000
0000
3000
0020
0000
0000
0030
,
0002
0000
0000
0000
1000
0000
2000
0000
0000
0000
0000
0000
0000
0000
0000
3000
,
1000
0000
0000
0003
0100
0000
0200
0000
0000
0000
0000
0300
0010
0000
0100
0000
,
0010
0000
0200
0000
0000
0300
0002
0000
0000
0000
0000
0000
0000
0003
0100
0000
,
0010
0000
0200
0000
0300
0000
0002
0000
0000
0000
0000
0000
0000
0000
0000
0003
,
0200
0000
0000
0000
0000
0300
0020
0000
0000
0030
0001
0000
0100
0000
0010
0000
,
0200
0000
0000
0000
0000
0300
0020
0000
0000
0000
0000
0030
0001
0000
1000
0000
,
0200
0000
0000
0000
0000
0300
0020
0000
0000
0000
0000
0030
0002
0000
0000
0003
,
0020
0000
0000
0030
2000
0000
0000
3000
0200
0000
0000
0300
0020
0000
0000
0030
,
0202
0000
0000
0000
0000
0003
0000
0000
0300
0000
0000
0000
0000
0000
0000
0000
,
0020
0000
0030
0000
,
2000
0000
0000
3000
0200
0300
0002
0003
0020
0000
0000
0030
0200
0300
0020
0030
,
2000
0000
0000
3000
0020
0030
0002
0003
0200
0000
0000
0000
0000
0000
0000
0300
,
2000
0000
0000
0000
0000
0000
0000
0000
0000
0000
0000
0000
0000
0000
0000
0000
0000
0000
0000
0000
0000
3000
0000
0000
0010
0000
0000
0000
0100
0000
0000
0000
1000
0000
0000
0000
0100
0000
0000
0000
0010
0000
0000
0000
0001
0000
0000
0000
,
0200
0000
0000
0000
0000
0000
0000
0000
0300
0000
0000
0000
2000
0000
0000
3000
0000
0000
0020
0000
0000
0000
0000
0000
0000
0000
0000
0000
0000
0000
0130
0000
0000
0000
0000
0000
0010
0000
0000
0000
0000
0000
0100
0000
0000
0000
0000
0000
,
2000
0000
0000
3000
0000
0100
0010
1000
0100
0002
0000
0003
,
0020
0000
0000
0000
0030
0000
0100
0000
0000
0002
0000
0000
0003
0000
0000
0001
0000
0000
0100
0000
0000
0010
0000
0000
,
2000
0000
3000
0000
,
0200
0000
0300
0000
,
2000
0000
0000
3000
0200
0300
0002
0003
0020
0000
0000
0030
0200
0300
0020
0030
,
2000
0000
0000
3000
0020
0030
0200
0300
0020
0000
0000
0000
0000
0000
0000
0030
,
2002
0000
0000
0000
0000
0000
0000
0000
0000
0000
0000
0000
0000
0000
0000
3003
,
0110
0000
0000
0000
0000
0000
0200
0000
0000
0300
0020
0030
0002
0000
0000
0003
,
0020
0000
0000
0000
0000
0000
0000
0030
0002
0000
0000
0003
2000
0000
0000
3000
,
0201
0000
0001
0000
0000
0300
0000
0000
0010
0000
0100
0000
0010
0000
1000
0000
,
0100
0000
0000
0000
0000
0000
0000
0000
0002
0000
0000
0003
0020
0000
0000
0030
,
2000
0000
0000
3000
0100
0000
0020
0000
0000
0030
0200
0300
0020
0030
2000
0000
,
0000
0000
0000
3000
0200
0000
0000
0300
0020
0000
0000
0030
2000
0000
0000
3000
,
0200
0000
0000
0300
0020
0030
2000
0000
0000
3000
0020
0030
2000
0000
0000
0000
,
0000
0000
0000
0000
3000
0000
0000
0000
0020
0000
0000
0030
0200
0000
0000
0300
,
0002
0000
0000
0003
0200
0300
0002
0000
0000
0003
0020
0030
0200
0000
0000
0000
,
0000
0000
0000
0000
0300
0000
0000
0000
0002
0000
0000
0003
0020
0000
0000
0030
,
2000
0000
0000
3000
0200
0300
0002
0000
0000
0003
2000
3000
0200
0000
0000
0000
,
0000
0000
0300
0000
0000
0000
0000
0000
0020
0000
0000
0030
0002
0000
0000
0003
,
2000
0000
0000
3000
0200
0300
0020
0000
0000
0030
2000
3000
0002
0003
0200
0000
,
0000
0000
0000
0300
2000
0000
0000
3000
0020
0000
0000
0030
0200
0000
0000
0300
,
0020
0000
0000
0030
0020
0030
0200
0000
0000
0300
0002
0003
0020
0000
0000
0000
,
0000
0000
0000
0000
0030
0000
0000
0000
0002
0000
0000
0003
0020
0000
0000
0030
,
2000
0000
0000
3000
0200
0300
2000
0000
0000
3000
0002
0003
0200
0000
0000
0000
,
0300
0000
0000
0000
0200
0000
0000
0300
0002
0000
0000
0003
0200
0000
0000
0300
,
2000
0000
0000
0000
0000
3000
0200
0000
0000
0000
0000
0300
0020
0000
0000
0030
,
2000
0000
0000
0000
0000
0000
0000
0000
0000
0000
0000
0000
0000
3000
0000
0000
,
2000
3000
0010
0200
0300
1000
0100
0010
,
0002
0003
0200
0300
0100
0002
0003
0020
,
0030
1000
0100
0010
0001
0010
1000
0001
,
2000
3000
0100
0001
0100
0002
0003
0200
,
0300
0001
0100
0010
1000
0010
0100
0001
,
2000
3000
0020
0030
0100
0002
0003
0200
,
0300
0010
0100
0001
1000
0100
0010
0001
,
0100
0001
0010
1000
0100
1000
0020
0030
,
0200
0300
0002
0003
1000
0020
0030
0000
,
0200
0300
0010
2000
3000
0001
0010
0100
,
2000
3000
0002
0003
1000
0020
0030
0002
,
0003
0100
0010
0002
0003
1000
0200
0300
,
0002
0003
0010
1000
0001
0200
0300
0020
,
0030
0001
0100
0001
0100
1000
0010
1000
,
0020
0030
0200
0300
0001
2000
3000
0020
,
0030
1000
0100
0010
0100
0010
0001
1000
,
0010
0001
0100
0001
0100
1000
0020
0030
,
2000
0000
3000
0000
,
0020
0000
0030
0000
,
2000
0000
0000
3000
0200
0300
0002
0003
0020
0000
0000
0030
0200
0300
0020
0030
,
2000
0000
0000
3000
0200
0300
0002
0003
0020
0000
0000
0000
0000
0000
0000
0030
,
0200
0000
0000
0000
0000
0000
0000
0000
0000
0300
0000
0000
0010
0000
0100
0000
1000
0000
0100
0000
0010
0000
0001
0000
,
0200
0000
0000
0000
0000
0000
0000
0000
0300
0000
0000
0000
2000
0000
0000
3000
0000
0000
0020
0000
0000
0000
0000
0000
0000
0000
0000
0000
0000
0000
0130
0000
0000
0000
0000
0000
0010
0000
0000
0000
0000
0000
0100
0000
0000
0000
0000
0000
,
2000
0000
0000
3000
0000
0100
0010
1000
0100
0002
0000
0003
,
0020
0000
0000
0000
0030
0000
0100
0000
0000
0002
0000
0000
0003
0000
0000
0010
0000
0000
0100
0000
0000
1000
0000
0000
,
0200
0000
0300
0000
,
0020
0000
0030
0000
,
2000
0000
0000
3000
0200
0300
0002
0003
0020
0000
0000
0030
0200
0300
0020
0030
,
2000
0000
0000
3000
0200
0300
0020
0030
0200
0000
0000
0000
0000
0000
0000
0300
,
2002
0000
0000
0000
0000
0000
0000
0000
0000
0000
0000
0000
0000
0000
0000
3003
,
0110
0000
0000
0000
0000
0000
0200
0000
0000
0300
0020
0030
0002
0000
0000
0003
,
0020
0000
0000
0000
0000
0000
0000
0030
0002
0000
0000
0003
2000
0000
0000
3000
,
0201
0000
0001
0000
0000
0300
0000
0000
0010
0000
0100
0000
0010
0000
1000
0000
,
0100
0000
0000
0000
0000
0000
0000
0000
0002
0000
0000
0003
0020
0000
0000
0030
,
2000
0000
0000
3000
0100
0000
0020
0000
0000
0030
0200
0300
0020
0030
2000
0000
,
0000
0000
0000
3000
0200
0000
0000
0300
0020
0000
0000
0030
2000
0000
0000
3000
,
0200
0000
0000
0300
0020
0030
2000
0000
0000
3000
0020
0030
2000
0000
0000
0000
,
0000
0000
0000
0000
3000
0000
0000
0000
0020
0000
0000
0030
0200
0000
0000
0300
,
0002
0000
0000
0003
0200
0300
0002
0000
0000
0003
0020
0030
0200
0000
0000
0000
,
0000
0000
0000
0000
0300
0000
0000
0000
0002
0000
0000
0003
0020
0000
0000
0030
,
2000
0000
0000
3000
0200
0300
0002
0000
0000
0003
2000
3000
0200
0000
0000
0000
,
0000
0000
0300
0000
0000
0000
0000
0000
0020
0000
0000
0030
0002
0000
0000
0003
,
2000
0000
0000
3000
0200
0300
0020
0000
0000
0030
2000
3000
0002
0003
0200
0000
,
0000
0000
0000
0300
2000
0000
0000
3000
0020
0000
0000
0030
0200
0000
0000
0300
,
0020
0000
0000
0030
0020
0030
0200
0000
0000
0300
0002
0003
0020
0000
0000
0000
,
0000
0000
0000
0000
0030
0000
0000
0000
0002
0000
0000
0003
0020
0000
0000
0030
,
2000
0000
0000
0000
0000
3000
2000
0000
0000
3000
0002
0000
0000
0003
0200
0000
,
0000
0000
0000
0000
0300
0000
0000
0000
0002
0000
0000
0003
0200
0000
0000
0300
,
2000
0000
0000
3000
0200
0300
0002
0000
0000
0000
0000
0003
0020
0000
0000
0030
,
2000
0000
0000
0000
0000
0000
0000
0000
0000
0000
0000
3000
0020
0000
0000
0000
,
0000
0000
0000
0030
0200
0000
0000
0300
0020
0000
0000
0030
0200
0300
0020
0000
,
0000
0000
0000
0000
0000
0000
0000
0000
0000
0000
0000
0030
2000
0000
0000
3000
,
0002
0000
0000
0000
0000
0000
0000
0000
0000
0000
0000
0003
2000
0000
0000
0000
,
0000
0000
0000
0000
0000
0000
0000
3000
0200
0000
0000
0000
0000
0000
0000
0000
,
0000
0000
0000
0300
0020
0000
0000
0000
0000
0000
0000
0000
0000
0000
0000
0030
,
0002
0000
0000
0000
0000
0000
0000
0000
0000
0000
0000
0003
0200
0000
0000
0000
,
0000
0000
0000
0000
0000
0000
0000
0300
0020
0000
0000
0000
0000
0000
0000
0000
,
0000
0000
0000
0030
0200
0000
0000
0000
0000
0000
0000
0000
0000
0000
0000
0300
,
2000
0000
0000
0000
0000
0000
0000
0000
0000
0000
0000
3000
0002
0000
0000
0000
,
0000
0000
0000
0000
0000
0000
0000
0003
0200
0000
0000
0000
0000
0000
0000
0000
,
0000
0000
0000
0300
2000
0000
0000
0000
0000
0000
0000
0000
0000
0000
0000
3000
,
0100
0010
0100
0010
0100
0010
0100
0010
,
0100
0010
0100
0010
1000
0001
1000
0001
,
1000
0001
1000
0001
1000
0001
1000
0001
,
1000
0010
1000
0010
1000
0010
1000
0010
,
1000
0010
0100
0010
0100
0010
0100
0010
,
0100
0010
0100
0010
0100
0010
0100
0010
,
1000
0010
1000
0010
1000
0010
1000
0010
,
1000
0001
1000
0001
1000
0001
1000
0001
,
1000
0001
1000
0001
0100
0010
0100
0010
,
0100
0010
0100
0010
0100
0010
0100
0010
,
0100
0010
0100
0010
1000
0010
1000
0010
,
1000
0010
1000
0010
1000
0010
1000
0010
,
0200
0000
0000
0000
0000
0000
0000
0000
0000
0000
0000
0300
2000
0000
0000
0000
,
0000
0000
0000
0000
0000
0000
0000
3000
0200
0000
0000
0000
0000
0000
0000
0000
,
0000
0000
0000
0300
0020
0000
0000
0000
0000
0000
0000
0000
0000
0000
0000
0030
,
0200
0000
0000
0000
0000
0000
0000
0000
0000
0000
0000
0300
0020
0000
0000
0030
,
0001
0010
0100
1000
0200
0000
0000
0000
,
0000
0000
0000
0000
0000
0000
0000
0000
0000
0000
0000
0300
2000
0000
0000
3000
,
0020
0000
0000
0000
0000
0000
0000
0000
0000
0000
0000
0000
0000
0000
0000
0030
,
0100
0000
1000
0000
0100
0000
0010
0000
0200
0000
0000
0300
0010
0000
0001
0000
,
0010
0000
0100
0000
0002
0000
0000
0003
0010
0000
0100
0000
0001
0000
0010
0000
,
0200
0000
0000
0000
0000
0000
0000
0000
0000
0000
0000
0300
0020
0000
0000
0030
,
0100
1000
0100
0010
2000
0000
0000
0000
,
0000
0000
0000
3000
0200
0000
0000
0300
0020
0000
0000
0000
0000
0030
0200
0300
,
0020
0000
0000
0000
0000
0000
0000
0000
0000
0000
0000
0030
0002
0000
0000
0003
,
0020
0000
0000
0000
0000
0030
0200
0300
0020
0000
0000
0000
0000
0000
0000
0000
,
0000
0000
0000
0000
0000
0000
0000
0000
0000
0000
0000
0000
0000
0000
0000
0030
,
0002
0000
0000
0003
1000
0000
0010
0000
0100
0000
0010
0000
0200
0000
0000
0000
,
0000
0000
0000
0000
0000
0000
0000
0300
0002
0000
0000
0003
0100
0000
0001
0000
,
0100
0000
1000
0000
0002
0000
0000
0000
0000
0000
0000
0000
0000
0000
0000
0003
,
0020
0000
0000
0030
1000
0000
0010
0000
0100
0000
0001
0000
0020
0000
0000
0000
,
0000
0000
0000
0000
0000
0000
0000
0030
0200
0000
0000
0300
1000
0000
0010
0000
,
0100
0000
0001
0000
0020
0000
0000
0000
0000
0000
0000
0000
0000
0000
0000
0030
,
0002
0000
0000
0003
0100
0000
0001
0000
0100
0000
0010
0000
0002
0000
0000
0000
,
0000
0000
0000
0000
0000
0000
0000
0003
0020
0000
0000
0030
0100
0000
1000
0000
,
0100
0000
1000
0000
0020
0000
0000
0000
0000
0000
0000
0000
0000
0000
0000
0030
,
0200
0000
0000
0300
1000
0000
0010
0000
0100
0000
0001
0000
0020
0000
0000
0000
,
0000
0000
0000
0000
0000
0000
0000
0030
0200
0000
0000
0300
1000
0000
0010
0000
,
0100
0000
0001
0000
0020
0000
0000
0000
0000
0000
0000
0000
0000
0000
0000
0030
,
2000
0000
0000
0000
0000
0000
0000
0000
0000
0000
0000
0000
0000
0000
3000
0200
,
0000
0000
0000
0000
0300
0020
0000
0000
0000
0000
0030
0002
0000
0000
0003
0200
,
0000
0000
0000
0000
,
0000
0000
0000
0000
0000
0000
0000
0000
0000
0000
0000
0000
0000
0000
0000
0300
,
0020
0000
0000
0000
0000
0000
0000
0000
0000
0000
0000
0030
0001
0000
0010
0000
,
0002
0000
0000
0000
0000
0003
0020
0000
0000
0000
0000
0030
0002
0000
0000
0003
,
1000
1000
0100
0100
0010
0010
0001
0001
,
1000
1000
0100
0100
0010
0010
1000
1000
,
0002
0000
0000
0000
,
0000
0000
0000
0000
0000
0000
0000
0000
0000
0000
0000
0000
0000
0000
0000
0003
,
1000
1000
0000
0020
0000
0000
0000
0030
,
1000
0000
1000
0000
0000
0000
0020
0000
0000
0000
0000
0000
0000
0000
0000
0030
,
2000
0000
0000
0000
0000
3000
0020
0000
0000
0030
0001
0000
0100
0000
1000
0000
,
0200
0000
0000
0000
0000
0300
0020
0000
0000
0000
0000
0030
0001
0000
1000
0000
,
0200
0000
0000
0000
0000
0300
0020
0000
0000
0000
0000
0030
0002
0000
0000
0003
,
0020
0000
0000
0030
0100
0000
0010
0000
0100
0000
1000
0000
0200
0000
0000
0300
,
0220
0330
0000
0000
0000
0000
0000
0000
0000
0000
0000
0000
0000
0000
0000
0000
,
0000
0000
0000
0000
,
0000
0000
0000
0000
,
0000
0000
0000
0000
,
0000
0000
0000
0000
,
0000
0000
0000
0000
,
0000
0000
0000
0000
,
0000
0000
0000
0000
,
0200
0000
0010
0000
,
0000
0000
0000
0000
0000
0000
0000
0000
0010
0000
0000
0000
0000
0000
0000
0300
,
2000
0000
0010
0000
,
0000
0000
0000
0000
0000
0000
0000
0000
0010
0000
0000
0000
0000
0000
0000
3000
,
0200
0000
0010
0000
,
0000
0000
0000
0000
0000
0000
0000
0000
0010
0000
0000
0000
0000
0000
0000
0300
,
2000
0000
0010
0000
,
0000
0000
0000
0000
0000
0000
0000
0000
0010
0000
0000
0000
0000
0000
0000
3000
,
0200
0000
0000
0000
0000
0000
0000
0300
0002
0000
0000
0003
0020
0000
0000
0030
,
2000
0000
0000
3000
0100
0000
0020
0000
0000
0030
0200
0300
0020
0030
2000
0000
,
0000
0000
0000
3000
0200
0000
0000
0300
0020
0000
0000
0030
2000
0000
0000
3000
,
0200
0000
0000
0300
0020
0030
2000
0000
0000
3000
0020
0030
2000
0000
0000
0000
,
0000
0000
0000
0000
3000
0000
0000
0000
0020
0000
0000
0030
0200
0000
0000
0300
,
0002
0000
0000
0003
0200
0300
0002
0000
0000
0003
0020
0030
0200
0000
0000
0000
,
0000
0000
0000
0000
0300
0000
0000
0000
0002
0000
0000
0003
0020
0000
0000
0030
,
2000
0000
0000
3000
0200
0300
0002
0000
0000
0003
2000
3000
0200
0000
0000
0000
,
0000
0000
0300
0000
0000
0000
0000
0000
0020
0000
0000
0030
0002
0000
0000
0003
,
2000
0000
0000
3000
0200
0300
0020
0000
0000
0030
2000
3000
0002
0003
0200
0000
,
0000
0000
0000
0300
2000
0000
0000
3000
0020
0000
0000
0030
0200
0000
0000
0300
,
0020
0000
0000
0030
0020
0030
0200
0000
0000
0300
0002
0003
0020
0000
0000
0000
,
0000
0000
0000
0030
0200
0000
0000
0300
0002
0000
0000
0003
0020
0000
0000
0030
,
2000
0000
0000
3000
0200
0300
2000
0000
0000
3000
0002
0000
0000
0003
0200
0000
,
0000
0000
0000
0000
0000
0000
0000
0300
0002
0000
0000
0003
0200
0000
0000
0300
,
0020
0030
0200
0000
0300
0000
2000
0000
0000
0000
0000
3000
0020
0000
0000
0030
,
0002
0000
0000
0000
,
0100
0000
0100
0000
0100
0000
0100
0000
0100
0000
0100
0000
0100
0000
0100
0003
,
0200
0010
0001
0010
,
0001
0000
0000
0000
0010
0000
0000
0000
0001
0000
0000
0000
0010
0000
0000
0300
,
2000
0010
0001
0010
,
0001
0000
0000
0000
0010
0000
0000
0000
0001
0000
0000
0000
0010
0000
0000
3000
,
0020
0001
1000
0001
,
1000
0000
0000
0000
0001
0000
0000
0000
1000
0000
0000
0000
0001
0000
0000
0030
,
0200
0000
0000
0300
1000
0000
0010
0000
0100
0000
2000
0000
0000
3000
0200
0000
,
0000
0300
0010
0000
0001
0000
0010
0000
0100
0000
1000
0000
0100
0000
0010
0000
,
0002
1000
0100
1000
,
0100
0000
0000
0000
1000
0000
0000
0000
0100
0000
0000
0000
1000
0000
0000
0003
,
0020
0001
1000
0001
,
1000
0000
0000
0000
0001
0000
0000
0000
1000
0000
0000
0000
0001
0000
0000
0030
,
1100
0000
0000
0000
2020
0000
0000
3030
0000
0000
0000
0000
0000
0000
0000
0000
,
0101
0000
0000
0000
0202
0000
0000
0303
0000
0000
0000
0000
0000
0000
0000
0000
,
0000
0000
0000
0000
,
0000
0110
0110
0110
2200
3300
0000
0000
,
0000
0011
0011
0011
0220
0330
0000
0000
;

//---------------dance-single - Index----------------
#NOTES:
     dance-single:
     Index:
     Medium:
     10:
     0.917,1.000,0.518,1.000,0.646,1638.000,180.000,414.000,0.000,0.000:
1010
0000
0100
0000
0010
0000
0100
0000
0001
0000
0100
0000
0001
0000
0010
0100
,
1000
0010
1000
2000
0000
0000
3000
0011
,
1100
0000
0100
0010
0100
0000
0010
0100
1000
0000
0100
0000
0010
0000
0100
0000
,
1000
0000
0001
0000
1000
0000
2000
0000
0000
0000
0000
0000
0000
3000
0001
1000
,
0001
0000
0010
0000
0001
0000
0100
0010
0100
0000
0010
0000
0100
0000
0010
0100
,
1000
0000
0010
0000
1000
0000
2000
0000
0000
3000
0100
0000
0010
0000
0002
0000
,
0003
0001
1000
0100
0010
0020
0030
0002
,
0000
0003
0010
0000
0100
0000
1000
0000
0100
0010
0100
1000
0010
0000
0020
0030
,
1000
0100
0010
0001
0100
0010
0100
0001
0010
0100
1000
0010
0100
0010
1000
0100
,
1000
0100
0010
0001
0010
0001
1000
0010
0100
0001
1000
0001
0100
0010
1000
0010
,
0100
0001
0100
0001
1000
0010
1000
0010
0100
0001
1000
0001
0010
0100
1000
0001
,
1000
0100
0010
0001
0010
0100
1000
0100
0010
0001
0100
0010
1000
0100
0010
0001
,
1000
0001
1000
0010
1000
0100
1000
0010
0100
0001
0100
0010
0100
0001
1000
0001
,
0010
0100
1000
0100
0010
0001
1000
0100
0010
0001
1000
0001
0010
0100
1000
0010
,
0100
0001
0010
0100
1000
0100
0010
0001
0100
0010
1000
0100
0010
0001
1000
0001
,
0010
0100
1000
0100
0010
0001
1000
0100
1000
0010
1000
0001
1000
0100
1000
0001
,
1000
0010
1000
0100
1000
0001
0010
0100
1000
0100
0010
0001
1000
0010
0100
0001
,
1000
0001
0010
0100
1000
0010
0100
0010
1000
0100
0010
0001
0100
0010
0100
0001
,
0010
0001
0010
0100
1000
0100
1000
0001
0100
0010
1000
0001
1000
0010
0100
0001
,
0100
0010
1000
0010
1000
0001
0100
0001
0100
0010
1000
0001
1000
0100
0010
0001
,
1000
0001
0010
0100
1000
0100
0010
0001
0010
0100
1000
0010
0100
0001
0010
0100
,
1000
0001
1000
0001
0100
0001
0010
0001
0100
0010
1000
0010
0100
0010
1000
0001
,
1000
0100
0010
0001
0010
0100
1000
0001
0010
0100
1000
0001
1000
0100
0010
0001
,
0100
0010
1000
0100
0010
0001
0010
0100
1000
0010
0100
0001
0010
0100
1000
0001
,
1000
0100
0010
0001
0010
0100
1000
0001
0010
0001
0100
0001
1000
0001
0010
0001
,
1000
0001
0100
0001
0010
0001
1000
0100
0010
0001
0010
0100
1000
0001
0100
0010
,
1000
0100
1000
0100
1000
0100
1000
0100
1000
0000
0000
0000
0000
0000
0000
0000
,
0001
0100
0001
0100
0001
0100
0001
0100
0001
0000
0000
0000
0000
0000
0000
0000
,
2200
0000
0000
3300
0020
0030
0002
0003
0022
0000
0000
0033
0002
0003
0020
0030
,
2200
0000
0000
3300
0020
0030
0002
0003
0220
0000
0000
0000
0000
0000
0000
0330
,
0200
0000
0000
0000
0000
0000
0000
0000
0000
0300
0000
0000
0010
0000
0100
0000
0001
0000
1000
0000
0010
0000
1000
0000
,
0200
0000
0000
0000
0000
0000
0000
0000
0300
0000
0000
0000
2000
0000
0000
3000
0000
0000
0020
0000
0000
0000
0000
0000
0000
0000
0000
0000
0000
0000
0130
0000
0000
0000
0000
0000
0010
0000
0000
0000
0000
0000
0001
0000
0000
0000
0000
0000
,
2000
0000
0000
3000
0000
0010
0100
0001
1000
0002
0000
0003
,
0020
0000
0000
0000
0000
0000
0000
0000
0030
0000
0000
0000
0200
0000
0000
0300
0000
0000
2000
0000
0000
0000
0000
0000
3000
0000
0000
0000
0000
0000
1000
0000
0000
0000
0000
0000
0100
0000
0000
0000
0000
0000
0010
0000
0000
0000
0000
0000
,
0001
0100
0001
0100
0001
0100
0001
0100
0001
0000
0000
0000
0000
0000
0000
0000
,
1000
0010
1000
0010
1000
0010
1000
0010
1000
0000
0000
0000
0000
0000
0000
0000
,
2200
0000
0000
3300
0020
0030
0002
0003
0022
0000
0000
0033
0002
0003
0020
0030
,
2200
0000
0000
3300
0020
0030
0002
0003
0220
0000
0000
0000
0000
0000
0000
0330
,
1000
0100
0010
0001
0010
0100
1000
0100
0010
0001
0010
0100
1000
0100
0010
0001
,
0010
0100
1000
0100
0010
0001
1000
0100
1000
0100
1000
0100
0010
0001
0010
0001
,
0100
0010
0100
0010
0100
0010
0100
0010
0100
0001
0100
0001
1000
0001
1000
0001
,
2000
0000
0000
0000
0001
0000
0002
0000
0000
0000
0000
0000
0000
0000
0000
0003
,
0001
0000
0000
3000
0010
0000
0020
0000
0000
0000
0000
0030
0100
0000
0010
0000
,
0100
0000
0002
0000
0000
0003
0002
0000
0000
0000
0000
0000
0000
0003
0010
0000
,
0100
0000
0020
0000
0030
0000
0002
0000
0000
0000
0000
0000
0000
0000
0000
0003
,
0020
0000
0000
0000
0000
0030
0200
0000
0000
0300
1000
0100
0010
0001
0010
0100
,
0020
0000
0000
0000
0000
0030
0200
0000
0000
0000
0000
0300
1000
0100
0010
0000
,
0002
0000
0000
0000
0000
0003
0200
0000
0000
0000
0000
0300
0020
0000
0000
0030
,
0200
0000
0000
0300
0002
0000
0000
0003
0020
0000
0000
0030
0200
0000
0000
0300
,
0020
0031
0010
0001
0010
0001
0010
0001
0010
0000
0000
0000
0000
0000
0000
0000
,
1000
0010
1000
0010
1000
0010
1000
0010
1000
0000
0000
0000
0000
0000
0000
0000
,
2200
0000
0000
3300
0020
0030
0002
0003
0022
0000
0000
0033
0002
0003
0020
0030
,
2200
0000
0000
3300
0020
0030
0002
0003
0220
0000
0000
0000
0000
0000
0000
0330
,
0200
0000
0000
0000
0000
0000
0000
0000
0000
0300
0000
0000
0010
0000
0100
0000
0001
0000
1000
0000
0010
0000
1000
0000
,
0200
0000
0000
0000
0000
0000
0000
0000
0300
0000
0000
0000
2000
0000
0000
3000
0000
0000
0020
0000
0000
0000
0000
0000
0000
0000
0000
0000
0000
0000
0130
0000
0000
0000
0000
0000
0010
0000
0000
0000
0000
0000
0001
0000
0000
0000
0000
0000
,
2000
0000
0000
3000
0000
0010
0100
0001
0100
0002
0000
0003
,
0020
0000
0000
0000
0000
0000
0000
0000
0030
0000
0000
0000
0200
0000
0000
0300
0000
0000
2000
0000
0000
0000
0000
0000
3000
0000
0000
0000
0000
0000
1000
0000
0000
0000
0000
0000
0100
0000
0000
0000
0000
0000
0010
0000
0000
0000
0000
0000
,
0001
0100
0001
0100
0001
0100
0001
0100
0001
0000
0000
0000
0000
0000
0000
0000
,
0100
0001
0100
0001
0100
0001
0100
0001
0100
0000
0000
0000
0000
0000
0000
0000
,
2200
0000
0000
3300
0020
0030
0002
0003
0022
0000
0000
0033
0002
0003
0020
0030
,
2200
0000
0000
3300
0020
0030
0002
0003
0220
0000
0000
0000
0000
0000
0000
0330
,
2002
0000
0000
0000
0000
0000
0000
0000
0000
0000
0000
0000
0000
0000
0000
3003
,
0110
0000
0000
0000
0000
0000
0200
0000
0000
0300
0002
0003
2000
0000
0000
3000
,
0200
0000
0000
0000
0000
0000
0000
0300
0020
0000
0000
0030
0002
0000
0000
0003
,
0210
0000
0010
0000
0000
0300
0000
0000
1000
0000
0100
0000
0010
0000
0001
0000
,
0110
0000
0000
0000
1000
0000
0010
0000
0202
0000
0000
0000
0000
0000
0000
0303
,
1010
0000
0000
0000
0010
0000
1000
0000
0220
0000
0000
0330
2200
0000
3300
0000
,
1100
0000
1000
0100
2020
0000
0000
3030
,
1010
0000
0000
0000
1000
0000
0010
0000
0220
0000
0000
0330
2200
0000
0000
3300
,
1100
0000
1000
0100
2020
0000
0000
3030
,
0110
0000
0000
0000
0100
0000
0010
0000
0202
0000
0000
0303
2200
0000
3300
0000
,
0101
0000
0001
0100
0022
0000
0000
0033
,
2200
0000
0000
3300
0020
0030
0002
0000
0000
0003
2000
3000
0200
0000
0000
0300
,
1010
0000
0010
1000
0220
0000
0000
0330
,
1100
0000
0000
0000
1000
0000
0100
0000
2020
0000
0000
3030
0022
0000
0033
0000
,
1100
0000
1000
0100
2020
0000
0000
3030
,
0110
0000
0000
0000
0100
0000
0010
0000
0202
0000
0000
0303
0022
0000
0033
0000
,
0110
0000
0000
0000
0100
0000
0010
0000
0202
0000
0000
0000
0000
0000
0000
0303
,
1010
0000
0000
0000
1000
0000
0010
0000
0202
0000
0000
0303
0022
0000
0033
0000
,
0110
0000
0100
0010
0202
0000
0000
0303
,
2200
0000
0000
3300
2020
3030
2200
0000
0000
0000
0000
3300
0022
0000
0000
0033
,
1000
0100
0010
0001
0100
0010
0100
0001
0010
0100
1000
0010
0100
0010
1000
0100
,
1000
0100
0010
0001
0010
0001
1000
0010
0100
0001
1000
0001
0100
0010
1000
0010
,
0100
0001
0100
0001
1000
0010
1000
0010
0100
0001
1000
0001
0010
0100
1000
0001
,
1000
0100
0010
0001
0010
0100
1000
0100
0010
0001
0100
0010
1000
0100
0010
0001
,
1000
0001
1000
0010
1000
0100
1000
0010
0100
0001
0100
0010
0100
0001
1000
0001
,
0010
0100
1000
0100
0010
0001
1000
0100
0010
0001
1000
0001
0010
0100
1000
0010
,
0100
0001
0010
0100
1000
0100
0010
0001
0100
0010
1000
0100
0010
0001
1000
0001
,
0010
0100
1000
0100
0010
0001
1000
0100
1000
0010
1000
0001
1000
0100
1000
0001
,
1000
0010
1000
0100
1000
0001
0010
0100
1000
0100
0010
0001
1000
0010
0100
0001
,
1000
0001
0010
0100
1000
0010
0100
0010
1000
0100
0010
0001
0100
0010
0100
0001
,
0010
0001
0010
0100
1000
0100
1000
0001
0100
0010
1000
0001
1000
0010
0100
0001
,
0100
0010
1000
0010
1000
0001
0100
0001
0100
0010
1000
0001
1000
0100
0010
0001
,
1000
0001
0010
0100
1000
0100
0010
0001
0010
0100
1000
0010
0100
0001
0010
0100
,
1000
0001
1000
0001
0100
0001
0010
0001
0100
0010
1000
0010
0100
0010
1000
0001
,
1000
0100
0010
0001
0010
0100
1000
0001
0010
0100
1000
0001
1000
0100
0010
0001
,
0100
0010
1000
0100
0010
0001
0010
0100
1000
0010
0100
0001
0010
0100
1000
0001
,
1000
0100
0010
0001
0010
0100
1000
0001
0010
0001
0100
0001
1000
0001
0010
0001
,
1000
0001
0100
0001
0010
0001
1000
0100
0010
0001
0010
0100
1000
0001
0100
0010
,
1000
0100
1000
0100
1000
0100
1000
0100
1000
0000
0000
0000
0000
0000
0000
0000
,
0001
0100
0001
0100
0001
0100
0001
0100
0001
0000
0000
0000
0000
0000
0000
0000
,
2200
0000
0000
3300
0020
0030
0002
0003
0022
0000
0000
0033
0002
0003
0020
0030
,
2200
0000
0000
3300
0020
0030
0002
0003
0220
0000
0000
0000
0000
0000
0000
0330
,
0200
0000
0000
0000
0000
0000
0000
0000
0000
0300
0000
0000
0010
0000
0100
0000
0001
0000
1000
0000
0010
0000
1000
0000
,
0200
0000
0000
0000
0000
0000
0000
0000
0300
0000
0000
0000
2000
0000
0000
3000
0000
0000
0020
0000
0000
0000
0000
0000
0000
0000
0000
0000
0000
0000
0130
0000
0000
0000
0000
0000
0010
0000
0000
0000
0000
0000
0001
0000
0000
0000
0000
0000
,
2000
0000
0000
3000
0000
0010
0100
0001
1000
0002
0000
0003
,
0020
0000
0000
0000
0000
0000
0000
0000
0030
0000
0000
0000
0200
0000
0000
0300
0000
0000
2000
0000
0000
0000
0000
0000
3000
0000
0000
0000
0000
0000
1000
0000
0000
0000
0000
0000
0100
0000
0000
0000
0000
0000
0010
0000
0000
0000
0000
0000
,
0001
0100
0001
0100
0001
0100
0001
0100
0001
0000
0000
0000
0000
0000
0000
0000
,
1000
0010
1000
0010
1000
0010
1000
0010
1000
0000
0000
0000
0000
0000
0000
0000
,
2200
0000
0000
3300
0020
0030
0002
0003
0022
0000
0000
0033
0002
0003
0020
0030
,
2200
0000
0000
3300
0020
0030
0002
0003
0220
0000
0000
0000
0000
0000
0000
0330
,
2002
0000
0000
0000
0000
0000
0000
0000
0000
0000
0000
0000
0000
0000
0000
3003
,
0110
0000
0000
0000
0000
0000
0200
0000
0000
0300
0002
0003
2000
0000
0000
3000
,
0200
0000
0000
0000
0000
0000
0000
0300
0020
0000
0000
0030
0002
0000
0000
0003
,
0210
0000
0010
0000
0000
0300
0000
0000
1000
0000
0100
0000
0010
0000
0001
0000
,
0110
0000
0000
0000
1000
0000
0010
0000
0202
0000
0000
0000
0000
0000
0000
0303
,
1010
0000
0000
0000
0010
0000
1000
0000
0220
0000
0000
0330
2200
0000
3300
0000
,
1100
0000
1000
0100
2020
0000
0000
3030
,
1010
0000
0000
0000
1000
0000
0010
0000
0220
0000
0000
0330
2200
0000
0000
3300
,
1100
0000
1000
0100
2020
0000
0000
3030
,
0110
0000
0000
0000
0100
0000
0010
0000
0202
0000
0000
0303
2200
0000
3300
0000
,
0101
0000
0001
0100
0022
0000
0000
0033
,
2200
0000
0000
3300
0020
0030
0002
0000
0000
0003
2000
3000
0200
0000
0000
0300
,
1010
0000
0010
1000
0220
0000
0000
0330
,
1100
0000
0000
0000
1000
0000
0100
0000
2020
0000
0000
3030
0022
0000
0033
0000
,
1100
0000
1000
0100
2020
0000
0000
3030
,
0110
0000
0000
0000
0100
0000
0010
0000
0202
0000
0000
0303
0022
0000
0033
0000
,
0110
0000
0000
0000
0100
0000
0010
0000
0202
0000
0000
0000
0000
0000
0000
0303
,
1010
0000
0000
0000
1000
0000
0010
0000
0202
0000
0000
0303
0022
0000
0033
0000
,
0110
0000
0100
0010
0202
0000
0000
0303
,
2200
0000
0000
3300
2020
3030
2200
0000
0000
0000
0000
3300
0022
0000
0000
0033
,
0110
0001
0001
1001
,
0001
0001
0011
0001
,
0001
1001
0001
0001
,
0201
0000
0000
0000
0001
0000
0000
0000
0001
0000
0000
0300
2001
0000
0000
0000
,
0001
0000
0000
0000
0001
0000
0000
3000
0210
0000
0000
0000
0010
0000
0000
0000
,
0010
0000
0000
0300
1020
0000
0000
0000
1000
0000
0000
0000
1000
0000
0000
0030
,
0102
0000
0000
0000
0100
0000
0000
0000
0100
0000
0000
0003
0201
0000
0000
0000
,
0001
0000
0000
0000
0001
0000
0000
0300
1020
0000
0000
0000
1000
0000
0000
0000
,
1000
0000
0000
0030
1200
0000
0000
0000
1000
0000
0000
0000
1000
0000
0000
0300
,
0210
0000
0000
0000
0010
0000
0000
0000
0010
0000
0000
0300
1002
0000
0000
0000
,
1000
0000
0000
0000
1000
0000
0000
0003
0201
0000
0000
0000
0001
0000
0000
0000
,
0001
0000
0000
0300
2001
0000
0000
0000
0001
0000
0000
0000
0001
0000
0000
3000
,
1000
0010
1000
0010
1000
0010
1000
0010
,
1000
0010
1000
0010
0100
0001
0100
0001
,
0100
0001
0100
0001
0100
0001
0100
0001
,
1000
0001
1000
0001
1000
0001
1000
0100
,
1000
0100
1000
0100
1000
0100
1000
0100
,
1000
0100
1000
0100
1000
0100
1000
0100
,
0010
0001
0010
0001
0010
0001
0010
0001
,
0010
0001
0010
0001
1000
0001
1000
0001
,
1000
0001
1000
0001
1000
0001
1000
0001
,
0100
0010
0100
0010
0100
0010
1000
0001
,
1000
0001
1000
0001
1000
0100
1000
0100
,
1000
0100
1000
0100
1000
0100
1000
0100
,
0201
0000
0000
0000
0001
0000
0000
0000
0001
0000
0000
0300
2001
0000
0000
0000
,
0001
0000
0000
0000
0001
0000
0000
3000
0210
0000
0000
0000
0010
0000
0000
0000
,
0010
0000
0000
0300
1020
0000
0000
0000
1000
0000
0000
0000
1000
0000
0000
0030
,
0200
0000
0000
0000
0000
0000
0000
0000
0000
0000
0000
0300
0020
0000
0000
0030
,
0001
0010
0100
1000
0200
0000
0000
0000
,
0000
0000
0000
0000
0000
0000
0000
0000
0000
0000
0000
0300
2000
0000
0000
3000
,
0020
0000
0000
0000
0000
0000
0000
0000
0000
0000
0000
0000
0000
0000
0000
0030
,
0100
0000
0001
0000
0100
0000
0010
0000
0200
0000
0000
0300
0010
0000
1000
0000
,
0010
0000
0100
0000
0002
0000
0000
0003
0010
0000
0100
0000
1000
0000
0010
0000
,
0200
0000
0000
0000
0000
0000
0000
0000
0000
0000
0000
0300
0020
0000
0000
0030
,
0100
0001
0100
0010
2000
0000
0000
0000
,
0000
0000
0000
3000
0200
0000
0000
0300
0020
0000
0000
0000
0000
0030
0200
0300
,
0020
0000
0000
0000
0000
0000
0000
0000
0000
0000
0000
0030
0002
0000
0000
0003
,
0020
0000
0000
0000
0000
0030
0200
0300
0020
0000
0000
0000
0000
0000
0000
0000
,
0000
0000
0000
0000
0000
0000
0000
0000
0000
0000
0000
0000
0000
0000
0000
0030
,
0002
0000
0000
0003
1000
0100
0010
0100
0010
0001
0010
0001
0200
0000
0000
0000
,
0000
0000
0000
0000
0000
0000
0000
0300
0002
0000
0000
0003
0010
0100
1000
0100
,
0010
0001
0010
0100
2000
0000
0000
0000
0000
0000
0000
0000
0000
0000
0000
3000
,
0020
0000
0000
0030
1000
0100
0010
0100
0010
0001
0010
0001
0020
0000
0000
0000
,
0000
0000
0000
0000
0000
0000
0000
0030
0200
0000
0000
0300
1000
0100
0010
0100
,
0010
0001
0010
0001
0020
0000
0000
0000
0000
0000
0000
0000
0000
0000
0000
0030
,
0002
0000
0000
0003
0010
0100
1000
0100
0010
0001
0010
0100
2000
0000
0000
0000
,
0000
0000
0000
0000
0000
0000
0000
3000
0020
0000
0000
0030
0100
0001
1000
0100
,
0010
0100
0010
0001
0020
0000
0000
0000
0000
0000
0000
0000
0000
0000
0000
0030
,
0200
0000
0000
0300
1000
0100
0010
0100
0010
0001
0010
0001
0020
0000
0000
0000
,
0000
0000
0000
0000
0000
0000
0000
0030
0200
0000
0000
0300
1000
0100
0010
0100
,
0010
0001
0010
0001
0200
0000
0000
0000
0000
0000
0000
0000
0000
0000
0000
0300
,
2000
0000
0000
0000
0000
0000
0000
0000
0000
0000
0000
0000
0000
0000
3000
0200
,
0000
0000
0000
0000
0300
0020
0000
0000
0000
0000
0030
0002
0000
0000
0003
0200
,
0000
0000
0000
0000
,
0000
0000
0000
0000
0000
0000
0000
0000
0000
0000
0000
0000
0000
0000
0000
0300
,
0020
0000
0000
0000
0000
0000
0000
0000
0000
0000
0000
0030
1000
0000
0001
0000
,
0002
0000
0000
0000
0000
0003
0020
0000
0000
0000
0000
0030
0002
0000
0000
0003
,
1000
0100
0010
0100
0010
0001
0010
0001
0010
0100
0010
0001
0010
0001
1000
0100
,
0010
0100
0010
0001
0010
0001
0010
0100
1000
0100
0010
0001
0010
0100
1000
0100
,
0020
0000
0000
0000
,
0000
0000
0000
0000
0000
0000
0000
0000
0000
0000
0000
0000
0000
0000
0000
0030
,
1000
0100
0000
0220
0000
0000
0000
0330
,
1000
0000
0100
0000
0000
0000
0220
0000
0000
0000
0000
0000
0000
0000
0000
0330
,
0002
0000
0000
0000
0000
0003
0200
0000
0000
0300
0001
0010
0100
1000
0100
0010
,
0200
0000
0000
0000
0000
0300
0020
0000
0000
0000
0000
0030
0001
0010
0100
0000
,
2000
0000
0000
0000
0000
3000
0200
0000
0000
0000
0000
0300
0020
0000
0000
0030
,
0002
0000
0000
0003
0100
0000
0010
0000
0100
0000
0001
0000
0200
0000
0000
0300
,
0220
0330
0000
0000
0000
0000
0000
0000
0000
0000
0000
0000
0000
0000
0000
0000
,
0000
0000
0000
0000
,
0000
0000
0000
0000
,
0000
0000
0000
0000
,
0000
0000
0000
0000
,
0000
0000
0000
0000
,
0000
0000
0000
0000
,
0000
0000
0000
0000
,
0200
0000
0010
0000
,
0000
0000
0000
0000
0000
0000
0000
0000
0010
0000
0000
0000
0000
0000
0000
0300
,
2000
0000
0010
0000
,
0000
0000
0000
0000
0000
0000
0000
0000
0010
0000
0000
0000
0000
0000
0000
3000
,
0200
0000
0010
0000
,
0000
0000
0000
0000
0000
0000
0000
0000
0010
0000
0000
0000
0000
0000
0000
0300
,
2000
0000
0010
0000
,
0000
0000
0000
0000
0000
0000
0000
0000
0010
0000
0000
0000
0000
0000
0000
3000
,
0110
0000
0000
0000
1000
0000
0010
0000
0202
0000
0000
0000
0000
0000
0000
0303
,
1010
0000
0000
0000
0010
0000
1000
0000
0220
0000
0000
0330
2200
0000
3300
0000
,
1100
0000
1000
0100
2020
0000
0000
3030
,
1010
0000
0000
0000
1000
0000
0010
0000
0220
0000
0000
0330
2200
0000
0000
3300
,
1100
0000
1000
0100
2020
0000
0000
3030
,
0110
0000
0000
0000
0100
0000
0010
0000
0202
0000
0000
0303
2200
0000
3300
0000
,
0101
0000
0001
0100
0022
0000
0000
0033
,
2200
0000
0000
3300
0020
0030
0002
0000
0000
0003
2000
3000
0200
0000
0000
0300
,
1010
0000
0010
1000
0220
0000
0000
0330
,
1100
0000
0000
0000
1000
0000
0100
0000
2020
0000
0000
3030
0022
0000
0033
0000
,
1100
0000
1000
0100
2020
0000
0000
3030
,
0110
0000
0000
0000
0100
0000
0010
0000
0202
0000
0000
0303
0022
0000
0033
0000
,
0110
0000
0000
0000
0100
0000
0010
0000
0202
0000
0000
0000
0000
0000
0000
0303
,
1010
0000
0000
0000
1000
0000
0010
0000
0202
0000
0000
0303
0022
0000
0033
0000
,
0110
0000
0100
0010
0202
0000
0000
0303
,
2200
0000
0000
3300
2020
3030
2200
0000
0000
0000
0000
3300
0022
0000
0000
0033
,
0002
0000
0000
0000
,
0100
0000
0100
0000
0100
0000
0100
0000
0100
0000
0100
0000
0100
0000
0100
0003
,
0200
0010
0001
0010
,
0001
0000
0000
0000
0010
0000
0000
0000
0001
0000
0000
0000
0010
0000
0000
0300
,
2000
0010
0001
0010
,
0001
0000
0000
0000
0010
0000
0000
0000
0001
0000
0000
0000
0010
0000
0000
3000
,
0020
0100
1000
0100
,
1000
0000
0000
0000
0100
0000
0000
0000
1000
0000
0000
0000
0100
0000
0000
0030
,
0202
0000
0000
0303
0001
0000
0010
0000
0100
0000
2000
0000
0000
3000
0200
0000
,
0000
0300
0010
0000
0001
0000
0010
0000
0100
0000
1000
0000
0100
0000
0010
0000
,
0002
1000
0100
1000
,
0100
0000
0000
0000
1000
0000
0000
0000
0100
0000
0000
0000
1000
0000
0000
0003
,
0020
0100
0001
0100
,
0001
0000
0000
0000
0100
0000
0000
0000
0001
0000
0000
0000
0100
0000
0000
0030
,
1100
0000
0000
0000
2020
0000
0000
3030
0000
0000
0000
0000
0000
0000
0000
0000
,
0101
0000
0000
0000
0202
0000
0000
0303
0000
0000
0000
0000
0000
0000
0000
0000
,
0000
0000
0000
0000
,
0000
0100
0100
0100
2200
3300
0000
0000
,
0000
0001
0001
0001
0220
0330
0000
0000
;
