#TITLE:Sandstorm (Audioscape Remix);
#SUBTITLE:Voltage Special;
#ARTIST:Nukleuz Kollective;
#TITLETRANSLIT:;
#SUBTITLETRANSLIT:;
#ARTISTTRANSLIT:;
#CREDIT:;
#BANNER:[Round 1] - Sandstorm Audioscape Remix (Braeden Special).png;
#BACKGROUND:[Round 1] - Sandstorm Audioscape Remix (Braeden Special)-bg.png;
#LYRICSPATH:;
#CDTITLE:../CDTitleBRAEDEN.png;
#MUSIC:[Round 1] - Sandstorm Audioscape Remix (Braeden Special).ogg;
#OFFSET:-5.544;
#SAMPLESTART:56.280;
#SAMPLELENGTH:12.000;
#SELECTABLE:YES;
#BPMS:0.000=350.000,96.000=175.000,128.000=350.000,526.000=175.000;
#STOPS:256.000=0.343
;
#BGCHANGES:;
// cache tags:
#FIRSTBEAT:8.000;
#LASTBEAT:526.000;
#SONGFILENAME:Songs/Index Gradation/Sandstorm Audioscape Remix - [Braeden]/[Round 1] - Sandstorm Audioscape Remix (Braeden Special).sm;
#HASMUSIC:1;
#HASBANNER:1;
#MUSICLENGTH:108.715;
// end cache tags

//---------------dance-single - ----------------
#NOTES:
     dance-single:
     :
     Challenge:
     31:
     1.000,1.000,0.184,0.147,0.750,1014.000,20.000,16.000,0.000,0.000:

0000
0000
0000
0000
,
0000
0000
0000
0000
,
1000
0000
0000
0100
0000
0000
0010
0000
,
0001
0000
0000
0010
0000
0000
0100
0000
,
1000
0000
0000
0010
0100
0000
0001
0100
,
0001
0000
0000
0100
0000
0000
0010
0000
,
1000
0010
0100
0001
1000
0100
0010
0001
,
1000
0000
0100
0000
0010
0000
0001
0000
1000
0100
0010
0001
0010
0100
1000
0001
,
1000
0100
1000
0100
1000
0000
0001
0100
,
0020
0000
1030
0010
0100
0000
0001
0000
,
1000
0100
1000
0100
1000
0000
0001
0010
,
0200
1300
0100
1000
0100
0010
0001
0000
,
0001
0010
0100
1000
0010
0000
0100
0001
,
0101
0000
0000
1010
0000
0000
1000
0010
,
2000
0000
0000
3100
0000
0000
0001
0000
,
0101
0000
0000
0110
0000
0000
1001
0000
,
0001
0010
0001
0010
0001
0100
0010
1000
,
0010
0000
1000
0000
0010
0000
1000
0000
0010
0100
0001
1000
0100
0010
0001
1000
,
0010
0100
0001
0010
0100
1000
0100
0010
,
0001
0000
0100
0000
0001
0000
1000
0000
0001
0010
0100
1000
0100
0010
0001
1000
,
0001
0000
1000
0000
0010
0000
1000
0000
0001
0010
0100
1000
0100
0010
0001
1000
,
0001
0000
1000
0000
0010
0000
0100
0000
0001
0010
0100
1000
0100
0010
0001
1000
,
0010
0100
0001
1000
0100
0010
0001
0010
0100
1000
0001
0100
0010
1000
0100
0010
,
0001
0100
0010
1000
0002
0000
0000
0000
0023
0000
0000
0000
0130
0000
0000
0000
,
1000
0010
0100
0001
0100
0000
0000
0000
1000
0000
0000
0001
0000
0000
1000
0000
,
0010
0000
0000
0100
0000
0000
0001
0000
0100
0000
0000
0010
1000
0000
0010
0000
,
0100
0001
0100
0010
1000
0000
0000
0000
0001
0000
0000
1000
0000
0000
0010
0000
,
0100
0000
0000
0001
0000
0000
0100
0000
0001
0000
0000
0010
0000
0000
0100
0000
,
1000
0010
0100
0001
0100
0000
0000
0000
0010
0000
0000
1000
0000
0000
0010
0000
,
0100
0000
0000
0001
0000
0000
0010
0000
0100
0000
0000
1000
0000
0000
0100
0000
,
0010
0001
0100
0010
1000
0000
0000
0000
0001
0000
0000
1000
0000
0000
0100
0000
,
0010
0000
0000
0001
0000
0000
0100
0000
0010
0000
0000
1000
0000
0000
0001
0000
,
1000
0100
1000
0100
1000
0000
0200
0000
,
0320
0000
0000
0032
0000
0000
1003
0000
,
1000
0001
1000
0001
0010
0000
0200
0000
,
2300
0000
0000
3020
0000
0000
0130
0000
,
0001
1000
0001
1000
0200
0000
0000
0000
,
0310
0001
0010
0001
0010
0000
1001
0000
,
1000
0010
0100
0010
0100
0000
1001
0000
,
0001
0100
0010
0100
0010
0000
1001
0000
,
1000
0010
0100
0010
2000
0000
3001
0000
,
0001
0100
0010
0100
0002
0000
1003
0000
,
1000
0010
0100
0001
0100
0000
0101
0000
,
1000
0100
1000
0001
0010
0000
1001
0000
,
1000
0000
0100
0000
1000
0000
0100
0000
1000
0100
0010
0001
0010
0100
1000
0001
,
1000
0100
1000
0100
1000
0010
1000
0001
,
1000
0000
0100
0000
0010
0000
0001
0000
1000
0100
0010
0001
1000
0010
0100
0001
,
0010
0100
1000
0001
0100
0001
0100
0001
,
0010
0001
0010
0100
1000
0001
0100
0001
,
0100
0010
1000
0100
0010
0001
0010
0100
,
0010
0001
0100
0001
1000
0100
1000
0100
,
1000
0010
0100
0001
1000
0100
0010
0001
,
0010
0000
0100
0000
1000
0000
0001
0000
1000
0100
0010
0001
0010
0100
1000
0001
,
1000
0000
0100
0000
0010
0000
0001
0000
1000
0100
0010
0001
0010
0100
1000
0001
,
1000
0000
0100
0000
1000
0000
0001
0000
0100
0010
1000
0001
0010
0100
1000
0001
,
1000
0000
0010
0000
1000
0000
0001
0000
1000
0100
0010
0001
0010
0100
1000
0001
,
1000
0000
0100
0000
0010
0000
0001
0000
0010
0100
1000
0001
0100
0010
1000
0100
,
0010
0000
0001
0000
1000
0000
0010
0000
0100
0001
0100
0010
1000
0100
0010
0001
,
0010
0100
1000
0001
0010
0100
1000
0001
0100
0010
1000
0100
0010
0100
1000
0001
,
0010
0100
1000
0001
0100
0010
1000
0100
0010
0100
1000
0100
1000
0100
1000
0001
,
0100
0010
1000
0100
0010
0001
1000
0010
0100
0001
0010
0100
1000
0001
0010
0100
,
1000
0001
0100
0010
1000
0100
0010
0001
0010
0100
1000
0001
0100
0010
1000
0100
,
0010
0001
0010
0100
1000
0001
0010
0100
1000
0001
0100
0010
0100
0001
1000
0100
,
0010
0100
1000
0001
0100
0010
1000
0100
0010
0001
0010
0100
1000
0001
0100
0010
,
1000
0000
0000
0000
,
1000
0100
0010
0001
0010
0100
1000
0001
1000
0000
0100
0000
0010
0000
0001
0000
,
0010
0000
0100
1000
0001
0100
0010
1000
,
0010
0000
1000
0100
0010
0001
0010
0100
,
1000
0000
0001
0100
0001
1000
0010
1000
,
0010
0000
1000
0100
0010
0001
0010
0100
,
1000
0000
0001
0100
0010
0100
0001
1000
,
0001
0000
1000
0010
0100
0010
1000
0001
,
1000
0000
0100
0010
0001
0100
0010
1000
,
0001
0000
0100
0001
0100
0010
1000
0010
,
1000
0000
0001
0100
0010
0100
0001
0100
,
0010
0000
1000
0100
0010
0001
0010
0100
,
1000
0000
0100
0010
0001
0100
0010
0100
,
0001
0000
1000
0010
0100
0001
0010
0100
,
0010
0000
0001
0100
0010
1000
0100
1000
,
0100
0000
1000
0010
0100
0001
0100
0010
,
1000
0000
1000
0100
0010
0001
0010
0100
,
1000
0000
0100
0000
0001
0010
0100
1000
,
0100
0000
0010
0001
0010
0001
0100
0001
,
0100
0000
0001
0010
0001
0100
0010
1000
,
0100
0000
0010
0001
0010
0001
0100
0010
,
0100
0000
0010
0001
0010
0001
1000
0100
,
0010
0000
0001
0100
0010
0100
0001
0100
,
0010
0000
1000
0010
0100
0001
0100
0010
,
1000
0000
0100
0010
0001
0010
0100
1000
,
0001
0000
0100
0010
1000
0010
0100
0001
,
1000
0000
1000
0100
0010
0001
1000
0001
,
1000
0000
0100
0010
0001
0100
0010
1000
,
0001
0000
1000
0100
0010
0100
0010
0100
,
1000
0000
0001
0100
0001
1000
0010
1000
,
0010
0000
0100
0001
0100
0010
1000
0010
,
1000
0000
1000
0100
0010
0001
0100
0010
,
1000
0000
0010
0000
0100
0000
0001
0000
1000
0000
0100
0000
0010
0001
0010
0100
,
1000
0001
0100
0010
1000
0000
0000
0000
0001
0000
0010
0000
0001
0000
0010
0000
,
0001
0000
1000
0100
0010
0001
0010
0100
,
1000
0000
1001
0000
0001
0100
0001
0100
,
0001
0000
1000
0100
1000
0100
0010
0001
,
1000
0000
1001
0000
0001
0010
0001
1000
,
0001
0000
0100
0001
0100
0001
1000
0001
,
1000
0000
1001
0000
0010
1000
0010
0100
,
0001
0000
0001
0010
0001
1000
0010
1000
,
0010
0000
1001
0000
0001
0010
0100
1000
,
0010
0000
1000
0010
0100
1000
0100
0010
,
0100
0000
1001
0000
0001
0010
0100
1000
,
0001
0000
0100
0010
0100
0001
1000
0010
,
0100
0000
1010
0000
1000
0100
0010
0100
,
1000
0000
0001
1000
0010
0100
0001
1000
,
0001
0000
0001
0010
0100
1000
0100
0010
,
0001
0000
1000
0010
1000
0010
1000
0001
,
1001
0000
0110
0000
1000
0001
1000
0100
,
0010
0000
0010
0100
1000
0010
1000
0001
,
0100
0000
1001
0000
1000
0001
1000
0001
,
0010
0100
1000
0100
0010
0001
0100
0010
,
1000
0100
0010
0000
0001
1000
0010
1000
,
0001
0000
0010
0001
1000
0010
0100
0001
,
0100
0010
1000
0100
1000
0100
0010
0001
,
0010
0000
0100
1000
0010
0100
0001
0100
,
0010
1000
0100
1000
0100
1000
0100
1000
,
0100
1000
0100
1000
0100
0010
0001
0010
,
0100
0010
0001
0010
0100
1000
0001
0010
0100
0000
0010
0000
0001
0000
1000
0000
,
0010
1000
0010
0100
0001
0100
0001
1000
,
0001
0010
0100
1000
0100
0010
0001
1000
0001
0000
0100
0000
0010
0000
1000
0000
,
0001
0100
0010
1000
0001
0010
0100
1000
0001
0000
0100
0000
0010
0000
1000
0000
,
0001
0010
0100
1000
0001
0100
0010
1000
0001
0000
0010
0000
0100
1000
0001
0100
,
0010
1000
0100
1000
0001
0010
0100
1000
0001
0010
0100
1000
0001
0100
0010
0000
,
1000
0001
2002
0000
,
0000
0000
0000
0000
,
0000
0000
3003
0000
;

//---------------dance-single - ----------------
#NOTES:
     dance-single:
     :
     Hard:
     21:
     1.000,1.000,0.202,0.083,0.699,938.000,22.000,9.000,0.000,0.000:

0000
0000
0000
0000
,
0000
0000
0000
0000
,
1000
0000
0000
0100
0000
0000
0010
0000
,
0001
0000
0000
0010
0000
0000
0100
0000
,
1000
0000
0000
0010
0100
0000
0001
0100
,
0001
0000
0000
0100
0000
0000
0010
0000
,
1000
0010
0100
0001
1000
0100
0010
0001
,
1000
0000
0000
0100
0000
0000
0010
0000
0000
0001
0000
0000
1000
0000
0001
0000
1000
0000
0001
0000
1000
0000
0001
0000
,
1000
0100
1000
0100
1000
0000
0001
0100
,
0020
0000
1030
0010
0000
0000
1000
0000
,
0001
0100
0001
0100
0001
0000
1000
0010
,
0200
0301
0100
0001
0100
0010
1000
0000
,
0001
0010
0100
1000
0010
0000
0100
0001
,
0101
0000
0000
1010
0000
0000
1000
0010
,
2000
0000
0000
3100
0000
0000
0001
0000
,
0101
0000
0000
0110
0000
0000
1001
0000
,
0001
0010
0001
0010
0001
0100
0010
1000
,
0010
0000
0000
1000
0000
0000
0010
0000
0000
1000
0000
0000
0010
0000
1000
0000
0010
0000
1000
0000
0010
0000
1000
0000
,
0010
0100
0001
0010
0100
1000
0100
0010
,
0001
0000
0000
0100
0000
0000
0001
0000
0000
1000
0000
0000
0001
0000
0010
0000
0100
0000
1000
0000
0100
0000
0010
0000
,
0001
0000
0000
1000
0000
0000
0010
0000
0000
1000
0000
0000
0010
0000
0100
0000
0001
0000
0100
0000
0010
0000
1000
0000
,
0001
0000
0000
1000
0000
0000
0010
0000
0000
0100
0000
0000
0001
0000
1000
0000
0010
0000
1000
0000
0001
0000
1000
0000
,
0010
1000
0010
0100
0001
0100
0001
1000
0010
1000
0010
0100
,
0001
1000
0010
2000
0000
0000
3020
0000
0000
1030
0000
0000
,
1001
0010
0100
1000
0100
0000
0000
0000
1000
0000
0000
0001
0000
0000
1000
0000
,
0010
0000
0000
0100
0000
0000
0001
0000
0100
0000
0000
0010
1000
0000
0010
0000
,
0100
0001
0100
0010
1000
0000
0000
0000
0001
0000
0000
1000
0000
0000
0010
0000
,
0100
0000
0000
0001
0000
0000
0100
0000
0001
0000
0000
0010
0000
0000
0100
0000
,
1000
0010
0100
0001
0100
0000
0000
0000
0010
0000
0000
1000
0000
0000
0010
0000
,
0100
0000
0000
0001
0000
0000
0010
0000
0100
0000
0000
1000
0000
0000
0100
0000
,
0010
0001
0100
0010
1000
0000
0000
0000
0001
0000
0000
1000
0000
0000
0100
0000
,
0010
0000
0000
0001
0000
0000
0100
0000
0010
0000
0000
1000
0000
0000
0001
0000
,
1000
0010
1000
0010
1000
0000
0100
0000
,
0010
0000
0000
0001
0000
0000
1000
0000
,
1000
0001
1000
0001
0010
0000
0100
0000
,
1000
0000
0000
0010
0000
0000
0100
0000
,
0001
1000
0001
1000
0100
0000
0000
0000
,
0010
0001
0010
0001
0010
0000
1001
0000
,
1000
0010
0100
0010
0100
0000
1001
0000
,
0001
0100
0010
0100
0010
0000
1001
0000
,
1000
0010
0100
0010
2000
0000
3001
0000
,
0001
0100
0010
0100
0002
0000
1003
0000
,
1000
0010
0100
0001
0100
0000
0101
0000
,
1000
0100
1000
0001
0010
0000
1001
0000
,
1000
0100
1000
0100
1000
0001
0100
0001
,
1000
0100
1000
0100
1000
0001
0100
0001
,
1000
0100
0010
0001
1000
0100
1000
0001
,
0010
0100
1000
0001
0100
0001
1000
0100
,
0010
0001
0010
0100
1000
0001
0100
0001
,
0100
0010
1000
0100
0010
0001
0010
0100
,
0010
0001
0100
0001
1000
0100
0001
0100
,
1000
0010
0100
0001
1000
0100
0010
0001
,
0010
0000
0000
0100
0000
0000
1000
0000
0000
0001
0000
0000
1000
0000
0010
0000
1000
0000
0010
0000
1000
0000
0010
0000
,
1000
0000
0000
0100
0000
0000
0010
0000
0000
0001
0000
0000
1000
0000
0010
0000
1000
0000
0010
0000
1000
0000
0010
0000
,
1000
0000
0000
0100
0000
0000
1000
0000
0000
0001
0000
0000
0100
0000
0010
0000
1000
0000
0010
0000
1000
0000
0010
0000
,
1000
0000
0000
0010
0000
0000
1000
0000
0000
0001
0000
0000
1000
0000
0001
0000
1000
0000
0001
0000
1000
0000
0001
0000
,
1000
0000
0000
0100
0000
0000
0010
0000
0000
0001
0000
0000
0010
0000
0100
0000
1000
0000
0100
0000
0010
0000
0100
0000
,
0010
0000
0000
0001
0000
0000
1000
0000
0000
0010
0000
0000
1000
0000
0100
0000
1000
0000
0100
0000
1000
0000
0100
0000
,
1000
0001
0100
0001
1000
0010
1000
0001
1000
0001
1000
0001
,
1000
0100
0010
0001
0010
0100
1000
0001
1000
0001
1000
0001
,
1000
0100
0010
0001
0100
0001
1000
0010
1000
0010
1000
0010
,
1000
0001
0010
0100
1000
0001
0010
0100
0010
0100
0010
0100
,
0010
0001
0010
0001
0010
0001
1000
0100
1000
0100
1000
0100
,
0010
0100
0010
0100
0010
0100
1000
0001
1000
0001
1000
0001
,
1000
0000
0000
0000
,
1000
0000
0001
0000
1000
0000
0001
0000
1000
0000
0001
0000
1000
0000
0000
0100
0000
0000
0010
0000
0000
0001
0000
0000
,
0010
0000
0100
1000
0001
0100
0010
1000
,
0010
0000
1000
0100
0010
0001
0010
0100
,
1000
0000
0001
0100
0001
1000
0010
1000
,
0010
0000
1000
0100
0010
0001
0010
0100
,
1000
0000
0001
0100
0010
0100
0001
1000
,
0001
0000
1000
0010
0100
0010
1000
0001
,
1000
0000
0100
0010
0001
0100
0010
1000
,
0001
0000
0100
0001
0100
0010
1000
0010
,
1000
0000
0001
0100
0010
0100
0001
0100
,
0010
0000
1000
0100
0010
0001
0010
0100
,
1000
0000
0100
0010
0001
0100
0010
0100
,
1000
0000
0001
0010
0100
1000
0010
0100
,
0010
0000
1000
0100
0010
0001
0100
1000
,
0100
0000
0001
0010
0100
1000
0100
0010
,
0001
0000
1000
0100
0010
0001
0010
0100
,
1001
0000
0100
0000
0001
0010
0100
1000
,
0100
0000
0010
0001
0010
0001
0100
1000
,
0100
0000
0001
0010
0001
0100
0010
1000
,
0100
0000
0010
0001
0010
0001
0100
0010
,
0100
0000
0010
0001
0010
0001
1000
0100
,
0010
0000
0001
0100
1000
0100
0001
0100
,
0010
0000
1000
0010
0100
0001
0100
0010
,
1000
0000
0100
0010
0001
0010
0100
1000
,
0001
0000
0100
0010
1000
0010
0100
0001
,
1000
0000
1000
0100
0010
0001
1000
0001
,
1000
0000
1000
0100
0001
0100
1000
0100
,
0010
0000
0001
0100
0010
0100
0010
0100
,
0001
0000
0001
0100
0001
1000
0010
1000
,
0010
0000
0100
0001
0100
0010
1000
0010
,
1000
0000
1000
0100
0010
0001
0100
0010
,
1000
0000
0000
0010
0000
0000
0100
0000
0000
0001
0000
0000
1000
0000
0000
0100
0000
0000
0010
0000
0001
0000
0010
0000
,
0100
0000
0010
0000
0001
0000
0010
0000
0000
0000
0000
0000
0001
0000
0000
0010
0000
0000
0001
0000
0000
0010
0000
0000
,
0001
0000
1000
0100
0010
0001
0010
0100
,
1000
0000
1001
0000
0001
0100
0001
0100
,
0001
0000
1000
0100
0001
0100
0010
0001
,
1000
0000
1001
0000
0001
0010
0001
1000
,
0001
0000
0100
1000
0100
0001
1000
0001
,
1000
0000
1001
0000
0010
1000
0010
0100
,
0001
0000
0001
0010
0001
1000
0010
1000
,
0010
0000
1001
0000
0001
0010
0100
1000
,
0010
0000
1000
0010
0100
1000
0100
0010
,
0100
0000
1001
0000
0001
0010
0100
1000
,
0001
0000
0100
0010
0100
0001
1000
0010
,
0100
0000
1010
0000
1000
0100
0010
0100
,
1000
0000
0001
1000
0010
0100
0001
1000
,
0001
0000
0001
0010
0100
1000
0100
0010
,
0001
0000
1000
0010
1000
0010
1000
0001
,
1001
0000
0110
0000
1000
0001
1000
0100
,
0010
0000
0010
0100
1000
0010
1000
0001
,
0100
0000
1001
0000
1000
0001
1000
0001
,
0010
0100
1000
0100
0010
0001
0100
0010
,
1000
0100
0010
0000
0001
1000
0010
1000
,
0001
0000
0010
0001
1000
0010
0100
0001
,
0100
0010
1000
0100
1000
0100
0010
0001
,
0010
0000
0100
1000
0010
0100
0001
0100
,
0010
1000
0100
1000
0100
0001
0100
0001
,
0100
1000
0100
1000
0100
0010
0001
0010
,
0100
0000
1000
0000
0100
0000
1000
0000
0100
0000
1000
0000
0100
0000
0000
0010
0000
0000
0001
0000
0000
1000
0000
0000
,
0010
1000
0010
0100
0001
0100
0001
1000
,
0001
0000
0100
0000
0010
0000
1000
0000
0010
0000
0100
0000
0001
0000
0000
0100
0000
0000
0010
0000
0000
1000
0000
0000
,
0001
0000
1000
0000
0010
0000
1000
0000
0010
0000
1000
0000
0001
0000
0000
0100
0000
0000
0010
0000
0000
1000
0000
0000
,
0001
0000
0000
0000
1000
0000
0000
0000
0010
0000
0000
0000
1000
0000
0000
0000
0001
0000
0000
0000
1000
0000
0000
0000
0001
0000
0000
0000
0000
0000
0010
0000
0000
0000
0000
0000
0100
0000
0000
1000
0000
0000
0100
0000
0000
1000
0000
0000
,
0100
0000
0000
0000
1000
0001
1000
0001
1000
0000
0000
0000
0010
0100
0010
0100
,
0010
1000
0001
0000
2002
0000
0000
0000
,
0000
0000
0000
0000
,
0000
0000
3003
0000
;
