#TITLE:Nemesis;
#SUBTITLE:;
#ARTIST:Arch Enemy;
#TITLETRANSLIT:;
#SUBTITLETRANSLIT:;
#ARTISTTRANSLIT:;
#CREDIT:;
#BANNER:Nemesis-banner.png;
#BACKGROUND:Nemesis-bg.png;
#LYRICSPATH:;
#CDTITLE:ViciousPixie-cd.png;
#MUSIC:Arch Enemy - Nemesis.mp3;
#OFFSET:-0.500;
#SAMPLESTART:98.300;
#SAMPLELENGTH:12.000;
#SELECTABLE:YES;
#BPMS:0.000=191.000,560.000=127.333,599.667=191.000;
#STOPS:;
#BGCHANGES:;
// cache tags:
#FIRSTBEAT:0.000;
#LASTBEAT:732.417;
#SONGFILENAME:Songs/toune 5/Nemesis_ArchEnemy/Nemesis.sm;
#HASMUSIC:1;
#HASBANNER:1;
#MUSICLENGTH:252.342;
// end cache tags

//---------------dance-single - Copied from Copied f----------------
#NOTES:
     dance-single:
     Copied from Copied f:
     Hard:
     11:
     0.906,1.000,0.531,1.000,0.674,1126.000,134.000,340.000,0.000,0.000:
1100
0000
0110
0000
0011
0000
0000
0110
,
0000
1100
0000
0001
0010
0100
1000
0100
,
0011
0000
0110
0000
0000
1100
0000
0110
,
0000
0000
1000
0100
0010
0001
0010
0000
,
1001
0000
1001
0000
0000
0110
0000
0110
,
0000
0000
1000
0100
0001
0010
1000
0000
,
1100
0000
0011
0000
0000
0110
0000
1100
,
0000
0000
0000
0000
0001
0000
0010
0000
1000
0000
0100
0000
0001
0010
0001
0010
,
0001
0010
0001
0010
0100
0010
0100
0010
0100
0010
0100
1000
0100
1000
0100
1000
,
0100
1000
0100
0010
0001
0010
0100
1000
0100
0010
0001
0010
0001
0010
0001
0010
,
0001
0010
0100
1000
0100
1000
0100
1000
0100
1000
0001
0010
0001
0010
0100
1000
,
0100
1000
0100
0010
0001
1000
0001
1000
0001
1000
0001
1000
0100
0010
0100
0010
,
0100
0010
0100
0010
0001
0010
0001
0010
0100
0010
0100
1000
0100
1000
0100
0010
,
0100
0010
0001
0010
0001
0010
0100
1000
0001
0010
0001
1000
0100
1000
0100
0010
,
0100
0010
0100
0010
1000
0100
0010
0001
0010
0100
1000
0100
0010
0001
0010
0100
,
1000
0100
1000
0000
0011
0000
0110
0000
1100
0000
0110
0000
1000
0000
1000
0000
,
0002
0000
0013
0100
1000
2000
0000
3100
,
0100
0010
0001
0001
0001
0001
0010
0100
,
0001
0000
0000
0100
0000
0000
0010
0000
0000
1000
0000
0000
0002
0000
0000
0000
0000
0000
0020
0000
0000
0000
0003
0000
,
0200
0030
2000
0300
0000
3001
0100
0001
,
0100
0001
1000
0010
1000
0010
1000
0010
,
1000
0010
0100
1000
0100
0010
0001
0010
,
0100
1000
0001
0000
0110
0000
1100
0000
,
0001
0000
0000
1020
0000
0100
0000
0000
0001
0000
0000
0100
,
0000
0030
1001
0000
0100
0100
0001
0001
,
0010
0100
1000
0001
0010
0001
1000
0100
,
1000
0001
0010
0100
1000
0100
0010
0100
,
0010
0000
0000
0001
0000
0000
2000
0000
0000
0000
0000
0000
0200
0000
0000
0000
3000
0000
0020
0000
0300
0000
0000
0000
,
0002
0000
0030
0000
0000
0000
0000
0000
0003
0000
0000
0000
0001
0000
0000
0010
0000
0000
0100
0000
0000
1000
0000
0000
,
0100
0100
1000
0100
0010
0001
0010
0001
,
0100
1000
0100
1000
0100
0010
0001
0010
,
0100
0000
0022
0033
2020
3030
2200
3300
,
0202
0303
0000
0000
2200
3300
0220
0330
,
0022
0000
0033
0000
1000
0100
1000
0100
1000
0100
1000
0100
0010
0100
0010
0100
,
0010
0100
0010
0001
0010
0001
0010
0001
0010
0001
1000
0001
1000
0001
1000
0001
,
1000
0100
0010
0100
0010
0100
0010
0100
0010
0001
0010
0100
1000
0100
0010
0001
,
0010
0100
1000
0100
0010
0001
0010
0100
0010
0001
0010
0100
1000
0100
0010
0100
,
1000
0100
0010
0001
0010
0001
0010
0001
0010
0100
0010
0100
1000
0100
1000
0100
,
0010
0100
0010
0001
0010
0001
0010
0100
1000
0010
0001
0010
1000
0100
1000
0010
,
0001
1000
0100
1000
0010
0001
0100
1000
0100
0001
0010
0100
0000
0001
1000
0001
,
1000
0100
0010
0001
0010
0100
1000
0010
0001
0010
0200
0000
0000
0000
0300
0000
,
1100
0110
0011
1100
0100
0010
0001
0010
,
0100
1000
0100
0010
0001
1000
1000
1000
,
0100
0010
0100
0010
0001
0010
0001
0010
,
2200
3300
0220
0330
0022
0033
2200
3300
,
0001
0010
0100
1000
0100
0010
0001
1000
,
0100
1000
0100
1000
0100
0001
0010
0001
,
0010
0001
1000
0010
0100
1000
0100
2020
,
3030
2200
3300
0202
0303
0022
0033
2020
,
3030
2200
3300
0202
0303
0022
0033
0100
,
1000
0100
0010
0100
0010
0100
0001
0010
,
0001
0010
0001
0010
0100
1000
0001
1000
,
0001
1000
0100
0010
0001
0010
0001
2200
,
3300
0220
0330
0022
0033
0220
0330
0010
,
0001
0010
0001
1000
0100
1000
0100
0010
,
0100
0001
0010
0100
1000
0100
0010
0001
,
1000
0100
1000
0100
1000
0000
0220
0330
,
0220
0000
0000
0330
0000
0000
0220
0000
0000
0330
0000
0000
0220
0000
0000
0330
1001
0000
0000
0000
0000
0000
0220
0000
,
0330
0000
0220
0330
0000
0220
0330
0000
0000
2002
0000
0000
,
0000
0000
0000
3003
0200
0000
0000
0320
,
0000
0000
0200
0000
0000
0000
0000
0330
,
0000
0000
0000
0000
2000
0000
3000
0020
,
0000
0002
0000
0033
0000
0000
0000
0000
,
0000
0000
0000
0000
0000
0000
0002
0000
0000
0000
0000
0000
0003
0000
2000
0000
0000
0000
0000
0000
0000
0200
0000
0000
,
0000
3300
0000
0000
,
0000
0000
0200
0000
0300
0020
0000
0000
,
2000
0000
0000
3030
0000
0000
0000
0000
,
0002
0000
0000
0023
0000
0200
0000
0000
,
0000
0330
0000
0000
0000
0000
0000
2000
,
0000
3000
0200
0000
0020
0000
0000
0330
,
0000
0000
0000
0002
,
0003
0020
0000
0000
0000
0200
0000
0000
,
0330
0000
0000
0000
1100
0110
0000
0000
,
0011
0000
1001
0110
,
0110
0000
0000
0000
0011
0000
0000
0000
1100
0000
0000
0000
,
0000
0000
0000
0000
1001
0000
0000
0000
0010
0100
0010
0100
0010
0100
0010
0100
,
0010
0001
0010
0001
0010
0001
0010
0001
1000
0100
1000
0100
1000
0100
1000
0100
,
0010
0100
0010
0100
0010
0100
0010
0001
1000
0001
1000
0001
1000
0001
1000
0100
,
0010
0100
0010
0100
0010
0100
0010
0100
1000
0100
1000
0100
1000
0100
1000
0100
,
0010
0100
0010
0100
0010
0000
0001
0010
0100
1000
0001
0010
0100
1000
0001
0010
,
0100
1000
0001
0010
0100
1000
1000
0100
0010
0001
1000
0100
0010
0001
1000
0100
,
0010
0001
1000
0100
0010
0001
0000
1000
0100
1000
0100
0000
0001
0010
0001
0010
,
0000
1000
0100
1000
0100
0000
0001
0010
0200
0000
0000
0000
0000
0000
0000
0000
,
0000
0000
0000
0300
0020
0000
0000
0000
0000
0000
0030
0000
0100
0000
1000
0000
,
0100
0010
0001
0010
0100
1000
0100
0010
,
0001
0010
0010
0100
1000
0100
1000
0100
,
0010
0000
2200
3300
0220
0330
0022
0033
,
0220
0330
1000
1000
0100
0010
0001
0010
,
0100
1000
0100
1000
0100
0010
0001
0010
,
0001
0010
0100
1000
0100
1000
0100
0010
,
0001
0010
2200
3300
0220
0330
0022
0033
,
0220
0330
2200
3300
0220
0330
0022
0033
,
0220
0330
0001
0001
0010
0001
0010
0100
,
1000
0100
1000
0010
0001
0010
1000
0100
,
1000
0100
0010
0001
0010
0100
0010
0100
,
1000
0220
0330
2002
3003
2200
3300
0022
,
0033
0100
0100
1000
0100
0010
0001
0010
,
0100
1000
0010
0100
0001
0010
0100
0010
,
0001
1000
0100
0010
0100
1000
0010
0001
,
0220
0330
2200
3300
0022
0033
2002
3003
,
0220
0330
2002
3003
0220
0330
2002
3003
,
0020
0000
0000
0000
0000
0000
0000
0030
,
0200
0000
0000
0320
0000
0000
0200
0000
,
0000
0000
0000
0330
0000
0000
0000
2000
,
0000
0000
3000
0020
0000
0002
0000
0033
,
0000
0000
0000
0002
,
2003
0000
0000
0200
0000
0000
3300
0000
,
0000
0000
0000
0000
0000
0200
0000
0000
,
0300
0020
0000
0000
2000
0000
0000
3030
,
0000
0000
0000
0000
0002
0000
0000
0023
,
0000
0200
0000
0000
0000
0330
0000
0000
,
0000
0000
0000
2000
0000
3000
0200
0000
,
0020
0000
0000
0330
0000
0000
0000
0000
,
0000
0000
0002
0000
0003
0020
0000
0000
,
0000
0200
0000
0000
0330
0000
0000
0000
,
1100
0110
0000
0000
0011
0000
0000
0000
,
1000
0100
1000
0000
0100
0000
0100
0000
0100
0000
0100
0000
0100
0000
0100
0000
,
0001
0010
0001
0000
0010
0000
0010
0000
0010
0000
0010
0000
0010
0000
0010
0000
,
0100
1000
0100
0000
1000
0000
1000
0000
1000
0000
1000
0000
1000
0000
1000
0000
,
0010
0001
0010
0000
0001
0000
0001
0000
0001
0000
0001
0000
0001
0000
0001
0000
,
1000
0100
1000
0000
0011
0000
0110
0000
1100
0000
0110
0000
0011
0000
0110
0000
,
0001
0010
0001
0000
0110
0000
1100
0000
0110
0000
0011
0000
0110
0000
1100
0000
,
0000
2200
0000
3300
0000
0220
0000
0000
0330
0000
0022
0000
,
0033
0000
0220
0330
0000
2200
0000
3300
0000
0110
0000
0000
,
1000
0010
1000
0000
0010
0000
0010
0000
0010
0000
0010
0000
0010
0000
0010
0000
,
0001
0100
0001
0000
0100
0000
0100
0000
0100
0000
0100
0000
0100
0000
0100
0000
,
2000
3200
2300
3200
0320
0032
0023
0032
,
0023
0230
2300
3200
0320
0032
0023
0230
,
1300
0001
1000
0000
0001
0000
0001
0000
0001
0000
0001
0000
0001
0000
0001
0000
,
0010
0100
0010
0000
0100
0000
0100
0000
0100
0000
0100
0000
0100
0000
0100
0000
,
0002
0023
0230
2300
3200
0320
0032
2003
,
3200
2300
3200
0320
0032
0023
0032
0023
,
0130
1000
0100
0000
1000
0000
1000
0000
1000
0000
1000
0000
1000
0000
1000
0000
,
0001
0010
0001
0000
0010
0000
0010
0000
0010
0000
0010
0000
0010
0000
0010
0000
,
2000
3002
0023
0230
0320
0032
0023
0230
,
2300
3200
0320
0230
2300
3200
0320
0032
,
1003
0010
1000
0000
0010
0000
0010
0000
0010
0000
0010
0000
0010
0000
0010
0000
,
0001
0100
0001
0000
0100
0000
0100
0000
0100
0000
0100
0000
0100
0000
0100
0000
,
2000
3200
2300
3200
2300
3020
0032
0023
,
0032
0023
0230
2300
3200
0320
0032
0023
,
2030
0000
0000
0000
0000
0000
0000
3000
0200
0000
0000
0300
,
0002
0003
0020
0000
0000
0030
2000
3000
0200
0000
0000
0000
,
0000
0000
0000
0000
0000
0300
0020
0000
0000
0000
0000
0000
,
0000
0000
0000
0000
0000
0000
0000
0000
0000
0000
0000
0000
0000
0000
0000
0000
0000
0000
0000
0000
0000
0000
0000
0000
0000
0000
0000
0000
0000
0000
0000
0000
0030
0000
0000
0000
0000
0000
0000
0000
0000
0000
0000
0000
0000
0000
0000
0000
2000
0000
0000
0000
0000
0000
0000
0000
0000
0000
0000
0000
0000
0000
0000
0000
3000
0000
0000
0000
0000
0000
0000
0000
0000
0000
0200
0000
0000
0000
0000
0000
0000
0000
0000
0000
0000
0000
0000
0000
0000
0000
0000
0000
0000
0000
0000
0000
0000
0000
0000
0000
0000
0000
0000
0000
0000
0000
0320
0000
0000
0000
0000
0000
0000
0000
0000
0000
0000
0000
0000
0000
0000
0000
0000
0000
0000
0000
0000
0000
0002
0000
0000
0000
0000
0000
0000
0000
0000
0000
0030
0000
0000
0000
0000
0000
0000
0000
0000
0000
0000
0000
0000
0000
0000
0000
0000
0000
0000
0000
0000
0000
0000
0000
0000
0000
0000
0000
0000
0000
0000
0000
0000
0000
0000
0000
0000
0000
0003
0000
0000
0000
0000
0000
0000
0000
0000
0000
0000
0000
0000
0000
0000
0000
,
2000
0000
0000
0000
0000
0000
0000
0000
0000
0000
0000
0000
0000
0000
0000
0000
3000
0000
0000
0000
0000
0200
0000
0000
0000
0000
0000
0000
0000
0000
0000
0000
0000
0000
0000
0000
0000
0000
0000
0000
0000
0000
0000
0000
0000
0000
0000
0000
0000
0000
0000
0000
0000
0000
0000
0000
0000
0000
0000
0000
0000
0000
0000
0000
0000
0000
0000
0000
0000
0000
0000
0000
0000
0000
0000
0000
0000
0000
0000
0000
0000
0000
0000
0000
0000
0000
0000
0000
0000
0000
0000
0000
0000
0000
0000
0000
0000
0000
0000
0000
0000
0000
0000
0000
0000
0000
0000
0000
0000
0000
0000
0000
0000
0000
0000
0000
0000
0300
0000
0000
0000
0000
0000
0000
0000
0000
0000
0000
0000
0000
0000
0000
0000
0000
0000
0000
0000
0000
2000
0000
0000
0000
0000
0000
0000
0000
0000
0000
0000
0000
0000
0000
0000
0000
0000
0000
0000
0000
0000
0000
0000
0000
0000
0000
0000
0000
0000
0000
0000
0000
0000
0000
0000
0000
0000
0000
0000
0000
0000
0000
0000
3000
0000
0000
0000
0000
0000
0000
0000
0000
0000
0000
,
0000
0000
0000
0000
0000
0000
0000
0000
0000
0000
0002
0000
0000
0000
0000
0000
0000
0000
0000
0000
0000
0000
0000
0000
0000
0000
0000
0000
0000
0000
0000
0000
0000
0000
0000
0000
0000
0000
0000
0000
0000
0000
0000
0000
0000
0000
0000
0000
0000
0000
0000
0000
0000
0000
0000
0000
0000
0000
0000
0000
0000
0000
0000
0000
0000
0000
0000
0000
0000
0000
0000
0000
0000
0000
0000
0000
0000
0000
0000
0000
0000
0000
0000
0000
0000
0000
0000
0000
0000
0000
0000
0000
0000
0000
0000
0000
0000
0000
0000
0000
0000
0000
0000
0000
0000
0000
0000
0000
0000
0000
0000
0000
0003
0000
0000
0000
0000
0000
0000
0000
0000
0000
0000
0000
0000
0000
0000
0000
0200
0000
0000
0000
0000
0000
0000
0000
0000
0000
0000
0000
0000
0000
0000
0000
0000
0000
0000
0000
0000
0000
0000
0000
0000
0000
0000
0000
0000
0000
0000
0000
0000
0000
0000
0000
0000
0000
0000
0000
0000
0000
0000
0000
0000
0000
0000
0000
0300
0000
0000
0000
0000
0000
0000
0000
0000
0000
0000
0000
0000
0000
0000
0000
,
0020
0000
0000
0000
0000
0000
0000
0000
0000
0000
0000
0000
0000
0000
0000
0000
0030
0000
0000
0000
0000
0000
0000
0000
0000
0000
0000
0000
0000
0000
0000
0000
2000
0000
0000
0000
0000
0000
0000
0000
0000
0000
0000
0000
0000
0000
0000
0000
0000
0000
0000
0000
0000
0000
0000
0000
0000
0000
0000
0000
0000
0000
0000
0000
3000
0000
0000
0000
0000
0000
0000
0000
0000
0000
0000
0000
0000
0000
0000
0000
0000
0000
0000
0000
0000
0200
0000
0000
0000
0000
0000
0000
0000
0000
0000
0000
0000
0000
0000
0000
0000
0000
0000
0000
0000
0000
0300
0000
0000
0000
0000
0000
0000
0000
0000
0000
0000
0002
0000
0000
0000
0000
0000
0000
0000
0000
0000
0000
0000
0000
0000
0000
0000
0000
0000
0000
0000
0000
0000
0000
0000
0000
0000
0000
0000
0000
0000
0000
0000
0000
0000
0000
0000
0000
0000
0000
0000
0000
0000
0000
0000
0000
0000
0000
0000
0000
0000
0000
0000
0000
0000
0000
0000
0000
0000
0000
0000
0000
0000
0000
0000
0000
0000
0000
0000
0000
0000
0000
0000
0000
0000
0000
,
0000
0000
0000
0000
0000
0000
0000
0000
0000
0000
0000
0000
0000
0000
0000
0000
0000
0000
0000
0000
0000
0000
0000
0000
0000
0000
0000
0000
0000
0000
0000
0000
0000
0000
0000
0000
0000
0000
0000
0000
0000
0000
0000
0000
0000
0000
0000
0000
0003
0000
0000
0000
0000
0000
0000
0000
0000
0000
0000
0000
0000
0000
0000
0000
1000
0000
0000
0000
0000
0000
0000
0000
0000
0000
0100
0000
0000
0000
0000
0000
0000
0000
0000
0000
0000
2000
0000
0000
0000
0000
0000
0000
0000
0000
0000
0000
0000
0000
0000
0000
0000
0000
0000
0000
0000
0000
0000
0000
0000
0000
0000
0000
0000
0000
0000
0000
0000
0000
0000
0000
0000
0000
0000
0000
0000
0000
0000
0000
0000
0000
0000
0000
0000
0000
0000
0000
0000
0000
0000
0000
0000
0000
0000
0000
0000
0000
0000
0000
0000
0000
0000
0000
0000
0000
0000
0000
0000
0000
0000
0000
0000
0000
0000
0000
0000
0000
0000
0000
0000
0000
0000
0000
0000
0000
0000
0000
3000
0000
0000
0000
0000
0000
0000
0000
0000
0000
0000
0000
0000
0000
0000
0000
,
0200
0000
0000
0000
0000
0000
0000
0000
0000
0000
0000
0000
0000
0000
0000
0000
0000
0000
0000
0000
0000
0000
0000
0000
0000
0000
0000
0000
0000
0000
0000
0000
0000
0000
0000
0000
0000
0000
0000
0000
0000
0000
0000
0000
0000
0000
0000
0000
0000
0000
0000
0000
0000
0000
0000
0000
0000
0000
0000
0000
0000
0000
0000
0000
0000
0000
0000
0000
0000
0000
0000
0000
0000
0000
0000
0000
0000
0000
0000
0000
0300
0000
0000
0000
0000
0000
0000
0000
0000
0000
0000
0000
0000
0000
0000
0000
0020
0000
0000
0000
0000
0000
0000
0000
0000
0000
0000
0000
0000
0000
0000
0000
0030
0000
0000
0000
0000
0002
0000
0000
0000
0000
0000
0000
0000
0000
0000
0000
0000
0000
0000
0000
0000
0000
0000
0000
0000
0000
0000
0000
0000
0000
0000
0000
0003
0000
0000
0000
0000
2000
0000
0000
0000
0000
0000
0000
0000
0000
0000
0000
0000
0000
0000
0000
0000
0000
0000
0000
0000
0000
0000
0000
0000
0000
0000
0000
0000
0000
0000
0000
0000
0000
0000
0000
0000
0000
0000
0000
0000
0000
0000
0000
,
0000
0000
0000
0000
0000
0000
0000
0000
0000
0000
0000
0000
0000
0000
0000
0000
0000
0000
0000
0000
0000
0000
0000
0000
0000
0000
0000
0000
0000
0000
0000
0000
0000
0000
0000
0000
0000
0000
0000
0000
0000
0000
0000
0000
0000
0000
0000
0000
3000
0000
0000
0000
0000
0000
0000
0000
0000
0000
0000
0000
0000
0000
0000
0000
0000
0000
0000
0000
0000
0000
0000
0000
0000
0000
0220
0000
0000
0000
0000
0000
0000
0000
0000
0000
0000
0000
0000
0000
0000
0000
0000
0000
0000
0000
0000
0000
0000
0000
0000
0000
0000
0000
0000
0000
0000
0000
0000
0000
0000
0000
0000
0000
0000
0000
0000
0000
0000
0000
0000
0000
0000
0000
0000
0000
0000
0000
0000
0000
0000
0000
0000
0000
0000
0000
0000
0000
0000
0000
0000
0000
0000
0000
0000
0000
0000
0000
0000
0000
0000
0000
0000
0000
0000
0000
0000
0000
0000
0000
0000
0000
0000
0000
0000
0000
0000
0000
0000
0000
0000
0000
0000
0000
0000
0000
0000
0000
0330
0000
0000
0000
0000
0000
0000
0000
0000
0000
0000
0000
0000
0000
0000
0000
,
0000
2002
0000
0000
0000
0000
0000
0000
0000
0000
0000
0000
0000
0000
0000
0000
0000
0000
0000
3003
0000
0000
0020
0000
,
0000
0000
0000
0000
0000
0000
0000
0230
0000
0000
0000
0000
0000
0000
0000
0000
0020
0000
0000
0000
0000
0000
0000
0000
,
0000
0000
0000
0000
0000
0000
0000
0330
0000
0000
0000
0000
0000
0000
0000
0000
0000
0000
0000
0002
0000
0000
0000
0000
,
0000
0000
0000
0000
0003
0000
0000
0200
0000
0000
0000
0000
0000
2000
0000
0000
0000
0000
0000
3300
0000
0000
0000
0000
,
0000
0000
0000
0000
0000
0000
0000
0000
2000
0000
0000
3002
,
0000
0000
0000
0000
0000
0000
0000
0020
0000
0000
0000
0000
0000
0000
0000
0000
0033
0000
0000
0000
0000
0000
0000
0000
,
0000
0000
0000
0000
0000
0000
0000
0000
0000
0000
0000
0000
0000
0020
0000
0000
0000
0000
0000
0000
0000
0000
0030
0000
,
0000
0200
0000
0000
0000
0000
0000
0000
0000
0000
0002
0000
0000
0000
0000
0000
0000
0000
0000
0303
0000
0000
0000
0000
,
0000
0000
0000
0000
0000
0000
0000
0000
0000
0000
2000
0000
0000
0000
0000
0000
0000
0000
0000
3200
0000
0000
0000
0000
,
0000
0020
0000
0000
0000
0000
0000
0000
0000
0000
0000
0000
0000
0330
0000
0000
0000
0000
0000
0000
0000
0000
0000
0000
,
0000
0000
0000
0000
0000
0000
0000
0002
0000
0000
0000
0000
0000
0003
0000
0000
0020
0000
0000
0000
0000
0000
0200
0000
,
0000
0000
0000
0000
0000
0000
0000
0330
0000
0000
0000
0000
0000
0000
0000
0000
0000
0000
0000
0000
0000
0000
0000
0000
,
0000
0000
0000
0000
2000
0000
0000
0000
0000
0000
3000
0000
0000
0200
0000
0000
0000
0000
0000
0000
0000
0000
0000
0000
,
0000
0020
0000
0000
0000
0000
0000
0000
0000
0000
0330
0000
0000
0000
0000
0000
0000
0000
0000
0000
0000
0000
0011
0000
,
0000
0110
0000
0000
0000
0000
0000
0000
0000
0000
1100
0000
0000
0000
0000
0000
0000
0000
0000
0000
0000
0000
0200
0000
,
0000
0000
0000
0000
0000
0000
0000
0000
0000
0000
0000
0000
0000
0000
0000
0000
0000
0000
0000
0300
0000
0000
0002
0000
,
0000
0020
0000
0000
0033
0000
0000
2200
0000
0000
3300
0000
0000
0220
0000
0000
0330
0000
0000
0022
0000
0000
0033
0000
,
0000
0220
0000
0000
0330
0000
0000
2200
0000
0000
0000
0000
0000
3300
0000
0000
0000
0220
0000
0330
0000
0000
0000
0022
,
0000
0033
0000
0000
0000
0220
0000
0330
0000
0000
0000
2200
0000
3300
0000
0000
0000
0220
0000
0000
0000
0000
0000
0000
,
0000
0000
0000
0000
0000
0000
0000
0000
0000
0000
0000
0000
0000
0000
0000
0000
0330
0000
0000
2000
0000
0000
3000
0000
,
0000
0200
0000
0000
0020
0000
0000
0000
0000
0000
0330
0000
0000
2000
0000
0200
3000
0320
0000
0000
0000
0000
0000
0000
,
0000
0000
0000
0000
0000
0000
0000
0000
0000
0000
0000
0000
0000
0000
0000
0000
0030
0000
0000
2000
0000
0000
3000
0000
,
0000
0200
0000
0000
0300
0000
0000
0020
0000
0000
0000
0000
0000
0000
0000
0000
0000
0000
0000
0000
0000
0000
0030
0000
,
0000
0002
0000
0000
0003
0000
0000
0020
0000
0000
0000
0000
0000
0030
0000
0000
0200
0000
0000
2300
0000
0000
3000
0000
,
0000
0002
0000
0000
0003
0000
0000
0020
0000
0000
0030
0000
0000
0200
0000
0000
2300
0000
0000
0000
0000
0000
0000
0000
,
0000
0000
0000
0000
0000
0000
0000
0000
0000
0000
3000
0000
0000
0200
0000
0000
0300
0000
0000
0002
0000
0000
0003
0000
,
0000
2000
0000
0000
0000
0000
0000
3000
0000
0000
0200
0000
0000
0320
0000
0000
0000
0000
0000
0000
0000
0000
0030
0000
,
0000
0000
2000
0000
0000
0000
0000
0000
3000
0000
0000
0000
0000
0000
0200
0000
0000
0000
0000
0000
0300
0000
0000
0000
0000
0000
0001
0000
0000
0010
0000
0000
0002
0000
0000
0000
0000
0000
0000
0000
0000
0000
0000
0000
0000
0000
0000
0000
,
0000
0000
0000
0000
0000
0000
0000
0000
0003
0000
0000
0000
0000
0000
2000
0000
0000
0000
0000
0000
0000
0000
0000
0000
0000
0000
0000
0000
0000
0000
0000
0000
3000
0000
0000
0000
0000
0000
0001
0000
0000
0010
0000
0000
0001
0000
0000
0010
,
0000
0000
0100
0000
0000
0010
0000
0000
0100
0000
0000
0010
0000
0000
0100
0000
0000
1000
0000
0000
0100
0000
0000
1000
0000
0000
0100
0000
0000
0010
0000
0000
0100
0000
0000
0010
0000
0000
0001
0000
0000
0010
0000
0000
0001
0000
0000
0010
,
0000
1100
0000
0000
0000
0000
0000
0110
0000
0000
0000
0000
0000
0000
0000
0000
0011
0000
0000
0000
0000
0000
0110
0000
,
0000
0000
0000
0000
0000
0000
0000
0000
1000
0000
0000
0100
0000
0000
1000
0000
0000
0100
0000
0000
1000
0000
0000
0100
0000
0000
1000
0000
0000
0100
0000
0000
1000
0000
0000
0100
0000
0000
0001
0000
0000
0010
0000
0000
0100
0000
0000
1000
,
0000
0000
0100
0000
0000
0010
0000
0000
0001
0000
0000
0010
0000
0000
0100
0000
0000
1000
0000
0000
0100
0000
0000
0010
0000
0000
0001
0000
0000
0010
0000
0000
0100
0000
0000
1000
0000
0000
0100
0000
0000
0010
0000
0000
0001
0000
0000
0010
,
0000
0000
0100
0000
0000
1000
0000
0000
0000
0000
0000
0000
0000
0000
0000
0000
0000
0000
0000
0000
0000
0000
0000
0000
0000
0000
0000
0000
0000
0000
0000
0000
0000
0000
0000
0000
0000
0000
0000
0000
0000
0000
0000
0000
0000
0000
0000
0000
;
