#TITLE:Aozora Gradation;
#SUBTITLE:;
#ARTIST:Kobaryo feat. you;
#TITLETRANSLIT:;
#SUBTITLETRANSLIT:;
#ARTISTTRANSLIT:;
#CREDIT:;
#BANNER:aozora gradation bn.png;
#BACKGROUND:aozora gradation bg.png;
#LYRICSPATH:;
#CDTITLE:;
#MUSIC:Aozora Gradation.ogg;
#OFFSET:-1.699;
#SAMPLESTART:143.621;
#SAMPLELENGTH:16.695;
#SELECTABLE:YES;
#BPMS:0.000=230.000;
#STOPS:;
#BGCHANGES:;
// cache tags:
#FIRSTBEAT:32.000;
#LASTBEAT:672.000;
#SONGFILENAME:Songs/Index Tournament 1/Aozora Gradation - [CondorTalon]/Aozora Gradation.sm;
#HASMUSIC:1;
#HASBANNER:1;
#MUSICLENGTH:179.252;
// end cache tags

//---------------dance-single - CondorTalon----------------
#NOTES:
     dance-single:
     CondorTalon:
     Challenge:
     16:
     1.000,1.000,0.385,0.285,1.000,1265.000,69.000,51.000,0.000,0.000:
0000
0000
0000
0000
,
0000
0000
0000
0000
,
0000
0000
0000
0000
,
0000
0000
0000
0000
,
0000
0000
0000
0000
,
0000
0000
0000
0000
,
0000
0000
0000
0000
,
0000
0000
0000
0000
,
0001
1000
0010
0100
0001
1000
0100
0010
,
0001
0010
0001
0100
0010
1000
0001
1000
,
0100
0010
0100
1000
0001
0100
0010
0100
,
0001
1000
0010
1000
0100
0010
0001
1000
,
0100
0010
0001
1000
0010
1000
0001
1000
,
0100
0010
0001
1000
0001
0100
0010
0100
,
0001
0010
0100
1000
0001
0100
0010
1000
,
0002
0000
0000
0000
,
1003
0000
1000
0000
0100
0000
0010
0001
,
0000
0001
1000
0000
0001
0000
0020
0030
,
0001
1000
0001
0100
0010
1000
0001
1000
0100
0010
0100
1000
0001
0010
0001
1000
,
0001
0010
0100
1000
0001
0100
0001
0100
0010
1000
0001
0100
0001
1000
0001
0010
,
0100
1000
0001
0010
0100
1000
0001
0100
0010
0100
0001
1000
0001
1000
0100
0010
,
0001
1000
0010
0100
0001
0100
0010
1000
0001
0000
0010
0100
4000
0000
3001
0100
,
0001
1000
0100
0010
0001
1000
0001
0100
0010
1000
0001
1000
0100
0010
0001
0010
,
0001
1000
0010
0100
0010
1000
0001
1000
0100
0010
0001
0010
0100
1000
0001
0100
,
0010
1000
0010
0100
0010
1000
0001
1000
0100
0010
0001
1000
0001
0010
0100
1000
,
0001
0000
0100
0010
1000
0000
0001
0000
0100
0010
1000
0010
0400
0000
0302
0000
,
1003
0100
0010
0001
1000
0100
0010
0100
1000
0001
0100
0001
0100
0010
1000
0001
,
1000
0001
0010
0100
1000
0001
1000
0010
0100
0001
0100
0010
1000
0001
0010
0100
,
0010
0001
1000
0100
0010
0001
1000
0010
0100
0010
1000
0010
0100
0001
1000
0100
,
1000
0000
0001
0100
0000
0010
1000
0000
0001
0010
0000
0100
4000
0000
3001
0100
,
0001
1000
0100
0010
0001
1000
0010
0100
0001
0100
0010
1000
0001
1000
0001
0010
,
0100
1000
0100
1000
0001
0100
0010
0100
0001
1000
0001
0010
0100
1000
0001
0000
,
0000
0000
0000
0000
1001
0000
0000
0000
1000
0000
0000
0010
0000
0000
1000
0000
,
0001
0010
0200
0000
2300
0000
3002
0000
0103
0000
0100
0010
4000
0000
3010
0100
,
0001
0000
1000
0000
0100
0000
1000
0001
1000
0000
0100
0000
0010
0000
0100
0000
,
1000
0000
0001
1000
0001
0010
0100
1000
0001
0000
1000
0000
0001
0000
0000
0000
,
1000
0001
0100
0010
1000
0100
0010
0100
,
1000
0001
0100
0010
1000
0001
0010
0001
,
1000
0100
0010
0001
1000
0010
0100
0010
,
1000
0001
0010
0200
0000
0310
0001
0100
,
0001
1000
0100
0010
0001
0010
0100
1000
,
0010
0100
0001
1000
0001
0100
0010
1000
,
0001
1000
0001
1000
0100
0010
0001
0100
,
0001
1000
0100
2000
0000
3100
0020
0000
,
0031
0000
0000
0000
,
1001
0000
0000
0000
,
1100
0000
0000
0000
,
1001
0000
0000
0000
,
1100
0000
0110
0000
,
0011
0000
1001
0000
,
1010
1010
1010
1010
,
1002
0000
2003
0000
,
3100
0000
0010
0000
0001
0000
1000
0010
1000
0000
0100
0000
0010
0000
0001
0000
,
1000
0000
0010
1000
0010
1000
0001
0010
0200
0000
0000
0000
0320
0000
0000
0000
,
0031
1000
0010
1000
0100
0010
0001
1000
,
0001
0000
0010
0100
1000
0001
1000
0000
0020
0000
0000
0030
0010
0000
0010
1000
,
0001
0000
0010
0000
0001
0000
1000
0100
0010
0000
0100
0000
1000
0000
0001
0000
,
0100
0000
0010
1000
0001
1000
0100
0010
0200
0000
0000
0000
2300
0000
0000
0000
,
3001
0100
0010
1000
0001
0010
0001
0100
,
0010
0000
1000
0001
1000
0001
0100
0000
0040
0000
0000
0000
1030
0000
0001
2000
,
0002
3003
2020
3030
,
0202
0303
1001
0110
,
2002
3003
2200
3300
,
0110
0000
0000
0000
0011
0000
0000
0000
0001
0000
1000
0000
0001
0100
0010
2000
,
0002
3003
0022
0033
,
0220
0330
1100
1001
,
0202
0303
1100
0011
,
2002
0003
3004
0023
,
0031
0100
0010
1000
0001
0100
0010
1000
,
0001
0010
0100
1000
0001
0010
0100
1000
,
0001
0000
1000
0000
0100
0000
0010
0001
,
0000
0010
0000
0001
1000
0010
0100
0001
,
0010
0000
0100
0000
1000
0001
0000
1000
,
0000
0000
0001
0000
0100
0000
0001
0000
1000
0000
0400
0000
0310
0001
0040
0000
,
0031
0000
0010
0000
0100
0000
0010
0001
,
0000
0000
1000
0000
0000
0000
0100
0000
0010
0000
0001
1000
0001
0000
0100
0000
,
0010
0000
1000
0000
0001
1000
0000
0001
,
0000
0000
0010
0000
0001
0000
1000
0000
0040
0000
0000
0130
0004
0000
0000
1003
,
0100
0000
0010
0000
0001
0000
1000
0010
,
0000
0100
0000
0010
1000
0001
0010
0100
,
1000
0000
0100
0000
0010
0001
1000
0001
,
0100
0000
0000
0000
0010
0000
1000
0000
0001
0010
0400
0000
1300
0000
0004
0000
,
1003
0000
0001
0000
0100
0000
0010
1000
,
0000
0000
0010
0000
0000
0000
1000
0000
0010
1000
0004
0000
0013
0000
0100
0000
,
1000
0000
0001
0000
1000
0100
0000
1000
,
0000
0100
0010
0001
0200
0000
0000
0000
,
0310
1000
0000
1000
0000
1000
0000
1000
,
0000
0001
0000
0001
0000
0001
0000
0001
,
0000
0100
0000
0100
0000
0100
0000
0100
,
0000
0010
0000
0010
0000
0010
0000
0010
,
0000
1000
0000
1000
0000
1000
0000
1000
,
0000
0100
0000
0100
0000
0100
0000
0100
,
0000
0010
0000
0010
0000
0010
0000
0010
,
0000
0001
0000
0000
0000
0000
0000
0000
,
1000
0000
0000
0000
,
0010
0000
0000
0000
,
0100
0000
0000
0000
,
0001
0000
0000
0000
,
0010
0000
0000
0000
,
0100
0000
0000
0000
,
1000
0000
0000
0000
,
0002
0000
0000
0000
,
1003
0000
0010
0000
0100
0000
0001
1000
,
0010
0000
1000
0100
0000
0010
0000
0002
,
0000
0000
0000
0000
1003
0000
0000
0000
0001
0000
1000
0010
0000
0100
0001
0000
,
1000
0000
0000
0001
0000
0000
0010
0000
0100
0000
0000
0000
1100
0000
0000
0000
,
1001
0000
0001
0000
0010
0000
0001
1000
,
0010
0000
0100
0001
0000
1000
0000
0200
,
0000
0000
0000
0000
0310
0000
0000
0000
0001
0000
1000
0010
0000
1000
0001
0000
,
0100
0000
0000
0001
0000
0000
0100
0000
0010
0000
0000
0000
0110
0000
0000
0000
,
1001
0000
1000
0000
0010
0000
1000
0100
,
0010
0000
0001
1000
0000
0010
0000
2000
,
0000
0000
0000
0000
3010
0000
0000
0000
1000
0000
0001
0100
0000
0010
1000
0000
,
0001
0011
1010
1100
,
1001
0000
0001
0000
0100
0000
0010
1000
,
0001
0000
0010
0100
0000
1000
0000
0002
,
0000
0000
0000
0000
1003
0000
0000
0000
0100
0000
0000
0010
0000
0000
0001
0000
,
2000
0000
0000
0000
,
3010
0000
0010
0000
0100
0000
0001
1000
,
0000
1000
0100
0000
1000
0000
0002
0003
,
1000
0010
0100
0001
1000
0001
0010
0100
1000
0100
1000
0001
0100
0001
0100
0010
,
1000
0001
0010
0100
0010
0001
1000
0010
0100
0010
1000
0001
1000
0100
0010
0001
,
0010
0001
1000
0100
1000
0001
0100
0001
0100
0010
1000
0010
0100
0001
1000
0100
,
0010
0001
0010
0100
1000
0001
1000
0010
0100
0010
1000
0001
0010
0000
0004
0000
,
1003
0010
1000
0010
0100
0001
1000
0001
0010
0100
1000
0100
1000
0001
1000
0100
,
0010
0001
1000
0010
0100
0010
1000
0001
0100
0010
1000
0001
0010
0100
0010
0001
,
1000
0100
0010
0100
1000
0001
0100
0010
1000
0001
1000
0010
0100
0001
1000
0001
,
1000
0100
0010
0001
0010
0001
1000
0001
0200
0000
0000
0000
0320
0000
0000
0000
,
1030
0001
0100
0010
1000
0010
0100
0001
1000
0000
0000
0000
0001
0010
0100
0010
,
0001
1000
0001
1000
0010
0100
0001
0100
0010
1000
0001
1000
0100
0010
0001
0010
,
0100
1000
0001
1000
0001
0100
0010
1000
0001
0010
0001
1000
0100
0010
0001
1000
,
0010
0100
0040
0000
1030
0001
4000
0000
3001
0010
0001
1000
0400
0000
0000
0000
,
1300
0001
0010
0001
1000
0010
0100
0010
1000
0010
0100
0001
1000
0001
0010
0100
,
1000
0100
0010
0001
1000
0010
0100
0010
1000
0001
1000
0100
0010
0100
1000
0000
,
0000
0000
0000
0000
1001
0000
0000
0000
0001
0000
0000
0010
0000
0000
0001
0000
,
1000
0100
0010
0001
1000
0001
0010
0100
1000
0001
1000
0001
2000
0000
0000
0000
,
3001
0100
0001
0100
0010
1000
0001
1000
0100
0010
0001
0010
0100
1000
0001
0100
,
0010
1000
0001
1000
0100
0010
0100
1000
0001
0100
0001
1000
0010
0100
0001
1000
,
0100
0010
0001
0010
0001
1000
0010
0100
0001
1000
0100
1000
0001
0010
0100
1000
,
0001
0100
0010
1000
0001
1000
0100
0010
0001
1000
0001
1000
0001
0000
0040
0000
,
0031
1000
0100
0010
0001
0010
0001
1000
0001
0100
0010
1000
0001
1000
0100
1000
,
0100
0010
0001
1000
0010
0100
0001
1000
0100
0010
0001
0010
0100
1000
0001
0010
,
0100
1000
0001
1000
0010
0100
0001
0100
0010
1000
0001
0010
0001
1000
0100
0010
,
0001
1000
0001
0100
0010
1000
0001
0010
0400
0000
0000
0000
2300
0000
0000
0000
,
3001
0010
0100
1000
0001
1000
0100
0010
0001
0000
0000
0000
1000
0010
0100
0010
,
1000
0001
0010
0100
1000
0100
1000
0001
0100
0010
1000
0001
1000
0100
1000
0001
,
0100
0010
1000
0001
1000
0100
1000
0100
0010
0001
0010
0100
1000
0001
1000
0010
,
1000
0001
4000
0000
3010
0100
0004
0000
1003
0100
0010
0100
4000
0000
0000
0000
,
3001
0010
0001
1000
0010
0100
0001
1000
0100
0010
0001
0010
0001
1000
0001
0100
,
0010
1000
0001
1000
0100
1000
0100
0010
0001
0010
0100
1000
0100
1000
0001
0000
,
0000
0000
0000
0000
0011
0000
0000
0000
0010
0000
0000
0001
0000
0000
1000
0000
,
0001
1000
0100
0010
0001
1000
0010
0100
0001
1000
0001
1000
0002
0000
0000
0000
,
1003
0010
0100
0001
1000
0001
0010
0100
,
1000
0100
1000
0001
0100
0010
0100
0001
,
1000
0001
1000
0100
0010
0001
1000
0001
,
0100
0000
0010
0000
0100
0000
0001
0000
1000
0001
0040
0000
0130
0000
1000
0000
,
0100
1000
0001
1000
0010
0100
0010
1000
,
0001
0010
0001
1000
0010
1000
0010
0100
,
0001
1000
0001
0010
0100
1000
0001
0010
,
0100
0000
0040
0000
0031
0000
4000
0000
3010
0000
0100
0001
0010
0000
0004
0000
,
1003
0100
0010
0100
1000
0010
0100
0001
,
0100
0010
1000
0001
1000
0100
1000
0010
,
0100
0001
1000
0001
0010
0100
1000
0100
,
1000
0000
0001
0000
0100
0000
0001
0000
0100
0010
4000
0000
3001
0010
0400
0000
,
0310
0001
1000
0001
0100
0010
1000
0001
,
1000
0001
0010
0100
1000
0010
0100
0001
,
1000
0001
0010
0100
4000
0000
0000
0000
3001
0000
0100
0010
1000
0000
0001
0000
,
2000
0000
0000
0000
0000
0000
0000
3000
,
1001
0000
0000
0000
;
