#TITLE:Tokyo;
#SUBTITLE:;
#ARTIST:The Books;
#TITLETRANSLIT:;
#SUBTITLETRANSLIT:;
#ARTISTTRANSLIT:;
#CREDIT:;
#BANNER:tokyo-bn.png;
#BACKGROUND:tokyo-bg.png;
#LYRICSPATH:;
#CDTITLE:!aptitle.png;
#MUSIC:the books - the lemon of pink - 03 - tokyo.mp3;
#OFFSET:-0.380;
#SAMPLESTART:62.108;
#SAMPLELENGTH:19.753;
#SELECTABLE:YES;
#BPMS:0.000=97.200,6.000=194.400,6.250=97.200,14.000=194.400,14.250=97.200,100.000=96.720,132.000=97.200,162.750=97.100;
#STOPS:6.000=0.077
,14.000=0.077
,140.750=0.077
,141.625=0.077
,142.000=0.077
,142.375=0.077
,143.250=0.077
,144.125=0.077
,156.000=0.077
,156.875=0.077
,157.250=0.077
,157.625=0.077
;
#BGCHANGES:;
// cache tags:
#FIRSTBEAT:0.000;
#LASTBEAT:194.000;
#SONGFILENAME:Songs/Community Keyboard Megapack - Volume 3/(AP) Tokyo/Tokyo.sm;
#HASMUSIC:1;
#HASBANNER:1;
#MUSICLENGTH:121.495;
// end cache tags

//---------------dance-single - ----------------
#NOTES:
     dance-single:
     :
     Challenge:
     11:
     0.918,1.000,0.675,0.741,1.000,609.000,82.000,90.000,0.000,25.000:  // measure 1
1002
0000
0000
0000
0000
0000
0000
0000
0100
0000
0000
0000
0000
0000
0000
0000
0010
0000
0000
0000
0000
0000
0000
0000
0100
0000
0000
0000
0000
0000
0000
0003
1002
0000
0000
0000
0000
0000
0000
0000
0100
0000
0000
0000
0000
0000
0000
0000
0010
0000
0000
0000
0000
0000
0000
0000
0100
0000
0000
0000
0000
0000
0000
0003
,  // measure 2
1002
0000
0000
0000
0000
0000
0000
0000
0100
0000
0000
0000
0000
0000
0000
0000
0010
0000
0000
0000
0000
0000
0000
0000
0100
0000
0000
0000
0000
0000
0000
0000
0003
0000
0000
0000
1002
0000
0000
0000
0000
0000
0000
0000
0100
0000
0000
0000
0000
0000
0000
0000
0010
0000
0000
0000
0000
0000
0000
0000
0100
0000
0000
0003
,  // measure 3
1002
0000
0000
0000
0000
0000
0000
0000
0100
0000
0000
0000
0000
0000
0000
0000
0010
0000
0000
0000
0000
0000
0000
0000
0100
0000
0000
0000
0000
0000
0000
0003
1002
0000
0000
0000
0000
0000
0000
0000
0100
0000
0000
0000
0000
0000
0000
0000
0010
0000
0000
0000
0000
0000
0000
0000
0100
0000
0000
0000
0000
0000
0000
0003
,  // measure 4
1002
0000
0000
0000
0000
0000
0000
0000
0100
0000
0000
0000
0000
0000
0000
0000
0010
0000
0000
0000
0000
0000
0000
0000
0100
0000
0000
0000
0000
0000
0000
0000
0003
0000
0000
0000
1002
0000
0000
0000
0000
0000
0000
0000
0100
0000
0000
0000
0000
0000
0000
0000
0010
0000
0000
0000
0000
0000
0000
0000
0100
0000
0000
0003
,  // measure 5
1002
0000
0000
0000
0000
0000
0100
0000
0000
0000
0000
0000
0213
0000
0000
0000
0320
0000
0100
0000
0032
0000
0000
0003
1002
0000
0000
0000
0000
0000
0100
0000
0000
0000
0000
0000
0213
0000
0000
0000
0320
0000
0100
0000
0032
0000
0000
0003
,  // measure 6
1002
0000
0000
0000
0000
0000
0100
0000
0000
0000
0000
0000
0213
0000
0000
0000
0320
0000
0100
0000
0032
0000
0000
0003
0002
0000
0000
0010
0000
0000
0000
0000
0000
0100
0000
0000
0213
0000
0000
1000
0320
0000
0000
0000
0032
0100
0000
0003
,  // measure 7
1002
0000
0000
0000
0000
0000
0100
0000
0000
0000
0000
0000
0213
0000
0000
0000
0320
0000
0100
0000
0032
0000
0000
0003
1002
0000
0000
0000
0000
0000
0100
0000
0000
0000
0000
0000
0213
0000
0000
0000
0320
0000
0100
0000
0032
0000
0000
0003
,  // measure 8
1002
0000
0000
0000
0000
0000
0100
0000
0000
0000
0000
0000
0213
0000
0000
0000
0320
0000
0100
0000
0032
0000
0000
0003
0002
0000
0000
0010
0000
0000
0000
0000
0000
0100
0000
0000
0213
0000
0000
1000
0320
0000
0000
0000
0032
0100
0000
0003
,  // measure 9
1000
0001
0100
0010
1000
0100
0001
0010
1000
0100
0001
0100
0010
0001
1000
0100
,  // measure 10
0010
0100
0001
0100
0010
1000
0100
0010
0001
0100
0001
0010
0100
0001
0100
0010
,  // measure 11
1000
0000
0001
0000
0100
0000
1000
0000
0010
0000
0100
0000
1000
0000
0010
0000
0100
0000
0001
0010
0100
0000
1000
0000
0010
0000
0100
0000
0001
0000
0010
0000
,  // measure 12
0001
1000
0100
0010
1000
0100
0001
0100
0010
0001
0010
0100
1000
0100
0010
0100
,  // measure 13
0001
0100
0010
0001
1000
0010
0100
0010
0001
0010
0100
1000
0001
0100
0010
1000
,  // measure 14
0100
0001
0100
0010
0001
0010
0100
1000
0010
0100
0001
1000
0100
0010
0001
1000
,  // measure 15
0010
0000
0100
0000
0010
0000
1000
0000
0100
0000
0010
0000
0001
0000
1000
0000
0010
0000
0100
0010
0001
0000
1000
0000
0001
0000
0010
0000
0100
0000
0001
0000
,  // measure 16
1000
0100
0001
1000
0001
0010
0100
1000
0010
0100
0001
0010
0100
0010
1000
0001
,  // measure 17
1000
0001
0100
0010
1000
0100
0001
0010
1000
0100
0001
0100
0010
0001
1000
0100
,  // measure 18
0010
0100
0001
0100
0010
1000
0100
0010
0001
0100
0001
0010
0100
0001
0100
0010
,  // measure 19
1000
0000
0001
0000
0100
0000
1000
0000
0010
0000
0100
0000
1000
0000
0010
0000
0100
0000
0001
0010
0100
0000
1000
0000
0010
0000
0100
0000
0001
0000
0010
0000
,  // measure 20
0001
1000
0100
0010
1000
0100
0001
0100
0010
0001
0010
0100
1000
0100
0010
0100
,  // measure 21
0002
0000
0000
0000
0000
0000
0000
0000
0000
0000
0000
0000
0010
0000
0000
0000
0000
0000
0000
0000
0000
0000
0000
0000
0123
0000
0000
0000
0000
0000
0000
0000
0000
0000
0000
0000
1032
0000
0000
0000
0000
0000
0000
0000
0000
0000
0000
0000
1203
0000
0000
0000
0000
0000
0000
0000
0010
0000
0000
0000
0000
0000
0000
0300
,  // measure 22
1200
0000
0010
0000
1302
0000
0000
0010
0000
0000
0123
0000
0000
1032
0000
0000
,  // measure 23
1203
0000
0010
0000
1300
0000
0010
0000
1002
0000
0000
0010
0000
0000
0123
0000
,  // measure 24
0000
0000
0000
0000
1032
0000
0000
0000
0000
0000
0000
0000
0000
0000
0000
0000
1203
0000
0000
0000
0000
0000
0000
0000
0010
0000
0000
0000
0000
0000
0000
0300
1200
0000
0000
0000
0000
0000
0000
0000
0010
0000
0000
0000
0000
0000
0000
0000
1302
0000
0000
0000
0000
0000
0000
0000
0000
0000
0000
0000
0010
0000
0000
0000
,  // measure 25
0000
0000
0123
0000
0000
1032
0000
0000
1203
0000
0010
0000
1300
0000
0010
0000
,  // measure 26
0000
0000
0000
0000
0000
0000
0000
0000
0000
0000
0000
0000
0000
0000
0000
0000
1000
0000
0000
0000
0000
0000
0000
0000
0000
0000
0000
0000
0010
0000
0000
0000
0000
0000
0000
0000
0000
0000
0000
0000
0000
0000
0000
0000
0000
0000
0000
0000
0100
0000
0000
0000
0000
0000
0000
0000
0001
0000
0000
0000
0000
0000
0000
0000
0000
0000
0000
0000
0000
0000
0000
0000
0010
0000
0000
0000
0000
0000
0000
0000
0000
0000
0000
0000
0000
0000
0000
0000
0000
0000
0000
0000
0000
0000
0000
0000
0001
0000
0000
0000
0000
0000
0000
0000
0000
0000
0000
0000
0100
0000
0000
0000
0000
0000
0000
0000
0000
0000
0000
0000
0010
0000
0000
0000
0000
0000
0000
0000
0000
0000
0000
0000
0100
0000
0000
0000
0000
0000
0000
0000
0000
0000
0000
0000
0000
0000
0000
0001
0000
0000
0000
0000
0000
0000
0000
0000
0000
0000
0000
0000
0100
0000
0000
0000
0000
0000
0000
0000
0000
0000
0000
0000
0000
0000
0000
0000
0010
0000
0000
0000
0000
0000
0000
0000
0000
0000
0000
0000
0000
0000
0000
0000
,  // measure 27
0000
0000
0000
0000
0000
0000
1000
0000
0000
0000
0010
0000
0000
0000
0000
0000
0000
0000
0010
0000
0000
0000
0200
0000
0000
0000
0300
0000
0000
0000
0000
0000
0000
0000
0000
0000
0000
0000
0000
0000
0000
0000
0000
0000
0000
0000
0000
0001
,  // measure 28
0000
0000
1000
0000
0000
0000
0010
0000
0100
0000
0000
0000
0001
0000
0000
0000
1000
0000
0000
0000
0100
0000
0000
0020
0000
0000
0000
0030
0000
0000
0000
0000
0000
0000
0000
0000
0000
0010
0000
0000
0100
0000
0001
0000
0000
0100
0000
0000
,  // measure 29
0000
0000
0000
0000
0001
0000
0000
0000
0000
0000
0000
0000
0000
0000
0000
0000
0010
0000
0000
0000
0000
0000
0000
0000
0000
0000
0000
0000
0100
0000
0000
0000
0000
0000
0000
0000
0000
0000
0000
0001
0000
0000
0000
0000
0000
0000
0000
0000
0010
0000
0000
0000
0000
0000
0000
0000
0000
0000
0000
0000
0001
0000
0000
0000
0000
0000
0000
0000
0000
0000
0000
0000
0100
0000
0000
0000
0000
0000
0000
0000
0000
0000
0000
0000
0010
0000
0000
0000
0000
0000
0000
0000
0000
0000
0000
0000
0100
0000
0000
0000
0000
0000
0000
0000
0000
0000
0000
0000
0001
0000
0000
0000
0000
0000
0000
0000
0000
0000
0000
0000
1000
0000
0000
0000
0000
0000
0000
0000
0000
0000
0000
0000
0100
0000
0000
0000
0000
0000
0000
0000
0000
0000
0000
0000
0010
0000
0000
0000
0000
0000
0000
0000
0000
0000
0000
0000
0001
0000
0000
0000
0000
0000
0000
0000
0000
0000
0000
0000
0100
0000
0000
0000
0000
0000
0000
0000
0000
0000
0000
0000
0020
0000
0000
0000
0000
0000
0000
0000
0000
0000
0000
0000
,  // measure 30
1030
0000
0000
0002
0000
0000
0000
0000
0103
0000
0000
0000
0000
0000
0000
0000
0000
0000
0000
0000
0000
0000
0000
0000
0000
0000
0000
0000
0000
0000
0000
0000
0000
0000
0100
0000
0000
0000
0000
0000
0010
0000
0000
0000
0000
0000
1000
0000
,  // measure 31
0000
0000
0000
0001
0000
0000
0100
0000
0000
0010
0000
0000
1000
0000
0000
0000
0100
0000
0000
0000
1000
0000
0000
0000
0020
0000
0000
0000
0000
0000
0030
0000
0000
0000
0000
0000
0000
0000
0000
0000
0100
0000
0000
0000
0000
0001
0000
0000
,  // measure 32
0000
0100
0000
0000
0000
0000
2000
0000
0000
0000
0000
0000
3000
0000
0000
0000
0000
0000
0000
0000
0000
0000
0000
0000
0000
0010
0000
0000
0000
0000
0100
0000
0000
0000
0001
0000
0000
0010
0000
0000
0000
0200
0000
0000
0300
0000
0000
0000
,  // measure 33
0000
0000
0000
0000
0000
0000
0000
0000
0000
0000
0000
0000
0000
0000
0000
0000
0000
0000
0000
0000
1000
0000
0000
0000
0000
0000
0000
0000
0000
0000
0000
0000
0000
0000
0000
0000
0100
0000
0000
0000
0000
0000
0000
0000
0000
0000
0000
0000
0000
0000
0000
0000
0020
0000
0000
0000
0000
0000
0000
0000
0000
0000
0000
0000
0000
0000
0000
0000
0000
0000
0000
0000
0030
0000
0000
0000
0000
0000
0000
0000
0000
0000
0000
0000
0000
0000
0000
0000
0000
0000
0000
0000
0000
0000
0000
0000
0000
0000
0000
0000
0000
0000
0000
0000
0000
0000
0000
0000
0000
0000
0000
0000
0000
0000
0000
0000
0000
0000
0000
0000
0000
0000
0000
0000
0000
0000
0000
0000
0000
0000
0000
0000
0001
0000
0000
0000
0000
0000
0000
0000
0000
0000
0000
0000
0000
0000
0000
0000
0000
0000
0100
0000
0000
0000
0000
0000
0000
0000
0000
0000
0000
0000
0000
0000
0000
0000
0000
0000
0010
0000
0000
0000
0000
0000
0000
0000
0000
0000
0000
0000
0100
0000
0000
0000
0000
0000
0000
0000
0000
0000
0000
0000
,  // measure 34
1000
0100
0010
1000
0010
0001
0100
0001
1000
0100
0001
0010
0100
0001
0100
0010
,  // measure 35
0100
0001
0200
0000
0320
0000
1030
0100
0010
0001
0100
0001
1000
0100
0001
0100
,  // measure 36
0020
0000
0030
0000
0002
0000
0003
0200
0000
0000
0000
0320
0000
0030
0002
0000
0003
2000
0000
3000
0010
0000
0100
0000
0020
0000
0030
0001
0000
0100
0000
2000
,  // measure 37
0000
3200
0000
0310
0001
1000
0010
0100
1000
0001
0100
0010
0100
0001
0100
1000
,  // measure 38
0010
0100
1000
0010
0100
0001
1000
0100
0001
1000
0100
0001
0010
0100
0010
2000
,  // measure 39
0000
3020
0000
0130
1000
0010
0001
1000
0100
0010
0100
0001
0100
0002
0000
2003
,  // measure 40
3000
0200
0000
0000
0000
0302
0000
0003
0020
0000
0030
2000
0000
3000
0100
0000
0001
0000
0010
0000
0000
0000
0010
0000
0001
0000
0200
0000
0000
0000
2302
0000
,  // measure 41
0000
3103
1000
0010
0001
0100
0001
1000
0010
0100
1000
0101
0011
0100
1000
0101
,  // measure 42
0011
1000
0100
1001
0011
0100
0010
1001
0011
0100
0001
1010
1100
0002
0000
1013
,  // measure 43
1100
0001
0100
1001
1010
1010
1010
1010
1010
0010
0010
0101
0000
0110
0000
1100
,  // measure 44
1100
0100
0100
1001
0000
0101
0000
0110
0110
0110
0110
1001
1001
0011
0011
1010
,  // measure 45
1010
1010
0000
1001
0110
1001
0000
0011
1100
0011
1100
0001
0100
0010
0000
0001
,  // measure 46
1000
0000
0010
0000
0100
0001
1000
0000
0100
0000
0001
0000
0100
1000
0010
0000
0100
0000
0001
0000
0100
0000
0010
0000
0001
0000
1000
0000
0010
0000
0001
0000
,  // measure 47
0010
0100
0001
1000
0100
0010
0100
0001
0100
0010
1000
0010
0100
0001
0010
1000
,  // measure 48
0100
0001
0010
0001
0100
0010
1000
0010
0100
0010
1000
0001
0010
0100
1000
0001
,  // measure 49
1000
0010
0100
0001
1000
0100
0010
0002
0003
0000
0000
0000
0000
0000
0000
0000
;
