#TITLE:Black Fire;
#SUBTITLE:;
#ARTIST:Dragonforce;
#TITLETRANSLIT:;
#SUBTITLETRANSLIT:;
#ARTISTTRANSLIT:;
#CREDIT:B. Abear;
#BANNER:Bn-BlackFire.png;
#BACKGROUND:Bg-BlackFire.png;
#LYRICSPATH:;
#CDTITLE:;
#MUSIC:03 - Black Fire.ogg;
#OFFSET:-0.221;
#SAMPLESTART:71.411;
#SAMPLELENGTH:24.877;
#SELECTABLE:YES;
#BPMS:0.000=195.000,482.000=133.000,583.750=195.000,584.000=195.000;
#STOPS:292.000=0.923
,449.000=0.923
;
#BGCHANGES:;
// cache tags:
#FIRSTBEAT:0.000;
#LASTBEAT:1063.500;
#SONGFILENAME:Songs/Dragonforce/Black Fire/Black Fire.sm;
#HASMUSIC:1;
#HASBANNER:1;
#MUSICLENGTH:347.219;
// end cache tags

//---------------dance-single - B. Abear----------------
#NOTES:
     dance-single:
     B. Abear:
     Challenge:
     15:
     1.000,1.000,0.274,0.302,1.000,2970.000,95.000,105.000,86.000,0.000:

0001
0100
0010
1000
0001
0100
0001
1000
0100
0010
0001
0010
0100
1000
0001
0100
,
0001
0100
0010
0100
0001
1000
0100
0010
0100
1000
0001
0100
0001
0000
1MM1
0000
,
2000
0000
0000
3200
0000
0000
0320
0000
,
0032
0000
0000
0203
0000
0000
0320
0000
,
1030
0001
0100
0010
0100
0001
1000
0001
0010
0100
0010
0001
1000
0100
1000
0001
,
0100
0010
1000
0001
1000
0100
0010
0100
0010
0001
1000
0001
0100
0000
M1M1
0000
,
0002
0000
0000
2003
0000
0000
3200
0000
,
1300
0001
1000
0001
1000
0001
1000
0001
0100
0010
1000
0001
1000
0001
1000
0001
,
0010
0100
1000
0001
0100
0001
0100
0010
1000
0001
0010
0100
1000
0100
1000
0001
,
0100
0010
1000
0001
0010
0001
1000
0100
1000
0001
0010
0100
1000
0000
1MM1
0000
,
0002
0000
0000
0023
0000
0000
0230
0000
,
2300
0000
0000
3002
0000
0000
0203
0000
,
0301
0100
0001
0010
0100
1000
0001
0010
0001
1000
0010
0100
0010
1000
0001
0010
,
0100
1000
0001
0010
0100
0010
0001
1000
0010
0100
0001
0010
0100
0000
11MM
0000
,
2000
0000
0000
3002
0000
0000
0203
0000
,
0310
1000
0010
1000
0010
1000
0010
1000
0001
1000
0001
1000
0001
1000
0001
1000
,
0040
4000
0000
0000
0000
0000
0030
0000
0004
0000
0000
0000
0000
0000
0000
3003
,
0110
0000
0220
0330
0220
0330
0022
0033
,
0001
0000
1000
0000
0010
0100
0010
0000
0100
0000
0001
0000
1000
0100
0010
0001
,
1000
0001
0100
0010
1000
0001
1000
0010
0100
0001
1000
0100
0010
0001
0010
0001
,
1000
0000
0020
0000
0000
0000
0130
0000
0002
0000
0000
1000
0103
0010
0100
1000
,
0001
0010
0100
0002
0000
0000
0103
1000
,
0001
0000
0200
0000
0000
0000
0310
0000
2000
0000
0000
0000
3001
0010
0100
1000
,
0001
0100
0010
1000
0001
1000
0001
0010
0100
1000
0001
0010
0001
1000
0100
0010
,
0001
0000
2000
0000
0000
0000
3001
0000
0010
0000
0100
0000
1000
0100
1000
0001
,
0100
0010
0100
0010
0100
0010
0100
0010
1000
0001
1000
0001
1000
0001
1000
0001
,
0010
0000
0001
0000
0100
0010
0100
0000
0010
0000
1000
0000
0001
0010
0100
1000
,
0001
1000
0010
0100
0001
1000
0001
0100
0010
1000
0001
0010
0100
1000
0100
1000
,
0001
0000
0200
0000
0000
0000
0310
0000
2000
0000
0000
0001
3010
0100
0010
0001
,
1000
0100
0010
2000
0000
0000
3010
0001
,
1000
0000
0020
0000
0000
0000
0130
0000
0002
0000
0000
0000
1003
0100
0010
0001
,
1000
0010
0100
0001
1000
0001
1000
0100
0010
0001
1000
0100
1000
0001
0010
0100
,
1000
0000
0002
0000
0000
0000
1003
0000
0100
0000
0010
0000
0001
0010
0001
1000
,
0010
0100
0010
0100
0010
0100
0010
0100
0001
1000
0001
1000
0001
1000
0001
1000
,
0100
0000
0010
0000
0001
0010
0001
0000
1000
0000
0010
0000
0100
0010
0100
0000
,
0001
0000
1000
0000
0001
1000
0001
0000
0010
0000
0100
0000
1000
0100
1000
0000
,
0001
0100
0010
1000
0001
1000
0100
0010
0100
1000
0001
1000
0001
0010
0100
1000
,
0010
0100
0001
0100
0010
1000
0001
0010
0001
1000
0100
1000
0001
0010
0100
1000
,
0001
0000
0100
0000
0010
1000
0010
0000
0100
0000
0001
0000
1000
0000
0100
0000
,
0010
0001
0010
0000
0100
0000
1000
0000
0001
0000
0100
0000
0001
0000
1000
0000
,
0100
0010
0001
1000
0001
0100
0010
1000
0001
1000
0100
0010
0001
1000
0010
0100
,
0001
1000
0100
0010
0100
0010
0100
0010
0001
1000
0100
0010
0100
0010
0100
0010
,
M001
0000
1000
0000
00M1
0100
0001
0000
1M00
0000
0001
0000
10M0
0100
0010
0001
,
1M00
0001
0100
0010
1M00
0001
1000
0010
M100
0001
1000
0100
M010
0001
0010
0001
,
1M00
0000
0020
0000
000M
0000
0130
0000
M002
0000
0000
1000
01M3
0010
0100
1000
,
00M1
0010
M100
0002
00M0
0000
M103
1000
,
00M1
0000
0200
0000
000M
0000
0310
0000
200M
0000
0000
0000
3M01
0010
0100
1000
,
00M1
0100
0010
1000
0M01
1000
0001
0010
010M
1000
0001
0010
0M01
1000
0100
0010
,
M001
0000
2000
0000
00M0
0000
3001
0000
0M10
0000
0100
0000
100M
0100
1000
0001
,
M100
0010
0100
0010
M100
0010
0100
0010
1M00
0001
1000
0001
1M00
0001
1000
0001
,
M010
0000
0100
0000
1000
0100
1000
0000
0001
0000
0100
0000
0010
0100
0010
0000
,
1000
0000
0001
0000
1000
0001
1000
0000
0100
0000
0010
0000
0001
0010
0001
0000
,
1000
0010
0100
0001
1000
0001
0010
0100
0010
0001
1000
0001
1000
0100
0010
0001
,
0100
0010
1000
0010
0100
0001
1000
0100
1000
0001
0010
0001
1000
0100
0010
0001
,
1000
0000
0010
0100
0010
0000
0100
0000
0010
0000
1000
0000
0001
0000
0010
0000
,
0100
1000
0001
0001
1000
0010
1000
0001
,
0010
0100
1000
0001
1000
0010
0100
0001
1000
0001
0010
0100
1000
0001
0100
0010
,
4000
0004
0000
0000
0000
0000
0000
0000
0000
0000
0000
0000
0000
0000
0000
3000
,
0103
0010
1000
0001
0010
0100
1000
0001
0010
0100
1000
0001
0100
0010
1000
0001
,
1000
0100
0010
0001
1000
0001
1000
0100
0010
0001
1000
0010
0100
0000
M11M
0000
,
0010
0000
1000
0000
0001
0010
0001
0000
1000
0000
0100
0000
0010
0000
0001
0000
,
1001
0000
1000
0000
0001
0010
0001
0000
1000
0000
0010
0000
0100
0001
0100
0000
,
0010
1000
0010
0100
0001
1000
0100
0010
0001
0100
0010
1000
0001
0100
0001
1000
,
0100
0010
0001
1000
0010
0100
0001
1000
0001
0010
0100
1000
0001
0000
M1M1
0000
,
0100
0000
0010
0000
1000
0001
1000
0000
0001
0000
0010
0000
0100
1000
0001
0000
,
1000
0100
0010
0001
0010
0001
0010
0001
1000
0100
0010
0001
0010
0001
0010
0001
,
1000
0000
0010
0000
0100
0001
0100
0000
0010
0000
1000
0000
0001
1000
0001
0000
,
0011
0000
0010
0000
0100
1000
0100
0000
0010
0000
0001
0000
1000
0010
1000
0000
,
1010
0000
0010
0000
0100
0001
0100
0000
0001
0000
1000
0000
0001
0010
0001
0000
,
1000
0001
0100
0010
0100
0010
1000
0001
0010
0100
0010
0001
1000
0001
0010
0100
,
1000
0001
0100
0010
0100
0010
1000
0001
0100
0010
0100
0010
1000
0001
0100
0010
,
1000
0001
0100
0010
0100
0010
1000
0001
0100
0010
0100
0010
1000
0001
0100
0010
,
1000
0000
0000
0001
0000
0000
0100
0000
0000
0010
0000
0000
0100
0000
0000
0010
0000
0000
0100
0000
0000
0010
0000
0000
0100
0000
0000
0010
0000
0000
0100
0000
0000
0010
0000
0000
0100
0000
0000
0010
0000
0000
1000
0000
0001
0000
1000
0000
,
0MM1
0000
2000
0000
0000
3002
0000
0013
,
0100
0000
1000
0000
0001
0100
0010
1000
0001
0010
0200
0000
0000
0000
1300
0000
,
0001
0101
0200
0000
0000
0320
0000
0000
,
2030
3002
0000
0023
,
0230
0000
2300
0000
0000
3002
0000
0203
,
0000
0000
0310
0000
1000
0001
0010
0100
1000
0001
0200
0000
0000
0000
0310
0000
,
1000
1001
0002
0000
0000
0203
0000
0000
,
0310
1000
0010
0100
0001
0100
0001
1000
0100
1000
0001
0100
0010
1000
0001
0010
,
0001
0010
0001
0010
0100
0000
1000
0000
0010
0100
0010
0000
0100
0000
0001
0000
,
1000
0100
0010
0001
1000
0001
0100
0010
1000
0001
1000
0010
0100
0001
1000
0100
,
0010
0001
0010
0001
1000
0000
0020
0000
0000
0000
0130
0000
0002
0000
0000
1000
,
0103
0010
0100
1000
0001
0000
0010
0000
0100
0000
0002
0000
0000
0000
0000
0000
,
0103
1000
0001
0200
0000
0310
2000
0000
,
3001
0010
0100
1000
0001
0100
0010
1000
0001
1000
0001
0010
0100
1000
0001
0010
,
0001
1000
0100
0010
0001
0000
2000
0000
0000
0000
3001
0000
0010
0000
0100
0000
,
1000
0100
1000
0001
0100
0010
0100
0010
0100
0010
0100
0010
1000
0001
1000
0001
,
1000
0001
1000
0001
0010
0000
0001
0000
0100
0010
0100
0000
0010
0000
1000
0000
,
0001
1000
0001
0000
0010
0000
0100
0000
1000
0100
1000
0000
0001
0000
0100
0000
,
0010
0100
0010
0000
0100
0001
1000
0100
0010
0001
0010
0100
0010
0001
1000
0001
,
0100
0010
1000
0001
1000
0010
0100
0010
1000
0001
0010
0100
1000
0100
0010
0000
,
0011
0000
0001
0000
0010
0000
0100
1000
0001
0100
0001
0000
1000
0000
0010
0000
,
0100
0000
0010
1000
0001
0010
0001
0000
0010
0000
0100
0000
1000
0000
0001
0000
,
1000
0000
0100
0000
0010
0001
0100
0010
1000
0010
0100
0001
1000
0001
0010
0100
,
1000
0001
0100
0010
0400
0004
0000
0000
0000
0000
0000
0000
0000
0000
0000
0000
,
0000
0000
0000
0300
1003
0010
1000
0001
0010
0100
1000
0001
0010
0100
1000
0001
,
0100
0010
1000
0001
1000
0100
0010
0001
1000
0001
1000
0100
0010
0001
1000
0010
,
0100
0000
M11M
0000
0010
0000
1000
0001
1000
0100
0010
0000
0001
0000
1000
0000
,
0100
0000
1000
0000
1001
0000
0010
1000
0001
0010
0001
0000
1000
0000
0010
0000
,
0100
0001
0100
0000
0010
1000
0010
0100
0001
1000
0100
0010
0001
0100
0010
1000
,
0001
0100
0001
1000
0100
0010
0001
1000
0010
0100
0001
1000
0001
0010
0100
1000
,
0001
0000
M1M1
0000
0100
0000
0010
1000
0001
1000
0001
0000
1000
0000
0100
0000
,
0010
0001
1000
0000
0001
0010
0100
1000
0100
1000
0100
1000
0001
0010
0100
1000
,
0100
1000
0100
1000
0001
0000
0100
0000
0010
1000
0010
0000
0100
0000
0001
0000
,
1000
0001
1000
0000
1100
0000
0100
0000
0010
0001
0010
0000
0100
0000
1000
0000
,
0001
0100
0001
0000
0101
0000
0100
0000
0010
1000
0010
0000
1000
0000
0001
0000
,
1000
0100
1000
0000
0001
1000
0010
0100
0010
0100
0001
1000
0100
0010
0100
1000
,
0001
1000
0100
0010
0001
1000
0010
0100
0010
0100
0001
1000
0010
0100
0010
0100
,
0001
1000
0010
0100
0001
1000
0010
0100
0010
0100
0001
1000
0010
0100
0010
0100
,
0001
1000
0010
0100
0001
1000
0010
0100
0010
0100
0010
0100
0010
0100
0010
0100
,
0010
0000
0000
0100
0000
0000
0001
0000
1000
0000
0001
0000
1MM0
0000
0000
0000
0000
0000
0000
0000
0000
0000
0000
0000
0001
0000
0000
0010
0000
0000
0100
0000
0000
1000
0000
0000
0001
0000
0000
0100
0000
0000
0010
0000
0000
0100
0000
0000
,
0001
1000
0100
1000
0100
0010
0001
1000
0010
0100
0001
0100
0010
1000
0001
0010
,
0100
1000
0001
0010
0100
0000
1100
0000
1000
0000
0001
1000
0100
0010
0100
0000
,
0010
0000
0001
0000
1000
0000
0001
0000
0010
0000
0100
1000
0001
1000
0001
0000
,
0100
0000
0010
0000
1000
0000
0001
0000
0100
0010
1000
0001
0010
0100
1000
0100
,
0010
0100
1000
0001
0010
0001
1000
0010
1000
0010
0100
0001
1000
0100
0010
0001
,
1000
0001
0100
0010
1000
0000
1010
0000
0010
0000
0100
0001
1000
0001
0010
0000
,
0100
0000
1000
0000
0100
0000
1000
0000
0001
0100
0001
0100
0001
0100
0001
0100
,
0001
1000
0100
1000
0001
1000
0100
1000
0002
0000
0000
0000
0000
0000
1003
0100
,
0010
0001
1000
0001
0100
0000
0010
0100
0001
1000
0100
1000
0001
0000
0010
0100
,
1000
0100
0010
0001
0100
0000
0010
1000
0001
1000
0100
0010
0001
0000
1000
0010
,
0100
0000
0000
0001
0000
0000
0100
0000
0000
0010
0000
0000
0100
0000
0000
0000
0000
0000
0010
0000
1000
0000
0001
0000
1000
0000
0000
0000
0000
0000
0000
0000
0000
0000
0000
0000
1001
0000
0000
0000
0000
0000
0100
0000
0000
0000
0000
0000
,
1001
0000
0010
0000
1001
0000
0001
1000
0001
0010
0100
0010
0001
0000
1000
0010
,
0100
0001
1000
0100
1000
0000
0001
0010
0100
1000
0010
0100
0001
0000
1000
0010
,
0100
0001
1000
0100
0010
0000
0100
0010
0011
0001
1000
0010
0100
0000
0010
1000
,
0001
1000
0001
0010
0100
0000
1000
0100
0010
0001
1000
0010
0100
0000
0010
0100
,
0001
1000
0100
1000
0001
0000
1000
0001
0101
0000
0000
0000
1001
0000
0000
0000
,
1100
0000
0000
0000
0110
0000
0000
0000
0011
0000
0000
0001
1000
0000
0100
0000
,
0000
0010
0001
0000
1000
0000
0000
0000
1010
0000
0000
0000
0110
0000
0000
0000
,
0101
0000
0000
0000
1001
0000
0000
0000
0011
0000
0001
0000
1000
0000
0000
0100
,
0010
0000
0000
0010
0001
0000
0000
1000
1001
0000
0000
0001
0100
0000
0010
0000
,
0000
1000
0010
0000
0010
0000
0000
0100
0001
1000
0001
0010
0001
0000
0000
0000
,
1000
0100
0010
0001
1000
0000
0001
0010
0011
0000
0000
0000
0001
0000
1000
0000
,
0000
0001
0010
0000
0100
0000
0000
1000
0001
0100
0001
0100
0010
0000
0100
0001
,
1000
0100
0110
0000
1001
0000
1000
0010
0110
0100
0001
1000
0100
0000
0010
0000
,
0000
0001
0010
0000
0100
0000
0000
0010
0001
1000
0001
1000
0010
0000
0000
0000
,
0100
0010
0100
0001
1000
0000
0000
0001
0010
0000
0000
0000
0100
0000
1000
0000
,
0000
0000
0000
0001
0000
0000
0100
0000
0000
0000
0000
0000
0010
0000
0000
0000
0000
0000
1000
0000
0000
0001
0000
0000
0010
0000
0000
0100
0000
0000
1000
0000
0000
0001
0000
0000
0100
0000
0010
0000
1000
0000
0001
0000
1000
0000
0100
0000
,
0010
0001
1000
0001
0100
0010
1000
0001
1002
0000
0000
0100
0000
0000
0010
0000
,
1000
0000
0000
0010
0000
0000
1003
0000
2001
0000
0000
0100
0000
0000
0001
0000
,
0020
0000
0000
3030
0120
0000
1000
0100
,
0000
0000
0001
0030
2010
0000
0001
0100
,
0000
0000
0001
0000
0000
0000
3100
0000
0120
0000
0000
0100
0000
0000
0001
0000
,
0100
0000
1000
0030
0012
0000
1000
0100
,
0003
0000
0000
0000
1000
0000
1001
0000
0MM0
0000
0MM0
0000
0001
0010
0100
1000
,
0100
1000
0001
0010
0100
1000
0100
1000
0001
0010
0100
1000
0001
0100
0010
1000
,
0010
1000
0001
0100
0010
1000
0010
1000
0001
0100
0001
0010
0001
0010
0100
0010
,
0100
0010
0100
1000
0100
1000
0001
1000
0001
0100
0010
1000
0001
0M00
0000
00M0
,
0000
M000
0000
000M
0000
0MM0
0000
0000
1001
0000
0000
0000
2000
0000
0000
0000
,
0000
0000
0000
0000
3100
0010
0002
0000
,
0000
2003
3002
0023
,
0000
0000
0000
0000
0000
0000
0000
0000
0130
1000
0001
0000
0200
0000
0000
0000
,
0310
0000
0200
0000
0000
0000
0000
0000
0301
1000
0100
0000
4000
0000
0000
0000
,
0000
0000
0000
0000
0000
0000
0000
0000
3M00
0000
M000
0000
0001
0100
0010
1000
,
0010
0100
0001
1000
0100
1000
0001
0010
0100
1000
0010
0100
0010
0100
0001
1000
,
0100
1000
0001
0010
0001
1000
0100
0010
0001
1000
0001
0100
0010
1000
0010
1000
,
0010
1000
0010
1000
0004
0000
0000
0000
0000
0000
0000
0000
2003
0000
0000
0000
,
0000
0000
0000
0000
0000
0000
0000
0000
3100
0010
0001
0000
1000
0000
0010
0000
,
0100
0001
1000
0200
0000
1300
0004
0000
,
0000
0000
0000
0000
0000
0000
0000
0000
0000
0000
0000
0000
0203
0000
0000
0000
0000
0000
0000
0000
0000
0000
0000
0000
0310
0000
0000
1000
0000
0000
0001
0000
0000
0000
0000
0000
1000
0000
0000
0000
0100
0000
0000
0000
0010
0000
0000
0000
,
0001
0000
0000
0000
1000
0000
0000
0000
0001
0000
0000
0000
0400
0000
0000
0000
0000
0000
0000
0000
0000
0000
0000
0000
0000
0000
0000
0000
0000
0000
0000
0000
0000
0000
0000
0000
0310
0000
0000
1000
0000
0000
0001
0000
0000
1000
0000
0000
,
0001
0010
0100
1000
0001
1000
0010
0100
0001
1000
0100
1000
0001
0010
0001
1000
,
0100
0000
0000
0010
0000
0000
0100
0000
0000
1000
0000
0000
0001
0000
0000
0100
0000
0000
0010
0000
0000
1000
0000
0000
0002
0000
0000
0000
0000
0000
0000
0000
0000
0000
0000
0000
1003
0000
0000
0000
0100
0000
0000
0000
1000
0000
0000
0000
,
0001
0000
0000
0000
0100
0000
0000
0000
0001
0000
0000
0000
1000
0000
0000
0000
0010
0000
0000
0000
1000
0000
0000
0000
0001
0000
0000
0000
0010
0000
0000
0000
0001
0000
0000
0000
1000
0000
0000
0100
0000
0000
1000
0000
0000
0100
0000
0000
,
1000
0100
1000
0100
1000
0001
1000
0001
1000
0001
1000
0001
0200
0000
0000
0000
,
0000
0000
0000
0300
0M10
0000
2000
0000
,
0000
0000
0000
3001
0010
0100
0020
0000
,
0000
0000
0000
0000
0000
0000
0031
0000
0010
0000
0100
0000
1000
0001
1000
0001
,
1000
0000
0001
0000
0110
0000
1000
0000
0001
1000
0100
0000
0020
0000
0000
0000
,
0000
0000
0000
0000
0130
1000
0020
0000
,
0000
0000
0000
0130
0010
0200
0000
0000
,
0000
0000
0000
0301
1000
0100
0010
0000
,
M01M
0000
0000
0000
0100
1000
0010
0100
0001
0010
0100
1000
0002
0000
0000
0000
,
0103
0000
0120
0000
0000
0000
1030
0100
0010
0000
0021
0000
0000
0000
0031
0000
,
1001
0000
0000
0000
1000
0100
0010
0001
1000
0100
0010
0001
2000
0000
0000
0000
,
3010
0000
0110
0000
0100
0001
1000
0100
0010
0000
0012
0000
0000
0000
1003
0000
,
1100
0000
0000
0000
0100
1000
0001
0010
0100
1000
0001
0010
0200
0000
0000
0000
,
1300
0000
2001
0000
0000
0000
3001
0100
0010
0000
1020
0000
0000
0000
0130
0000
,
0101
0000
0001
0000
1MM0
0000
1MM0
0000
0101
0000
0200
0000
0000
0301
1000
0001
,
1000
0000
1100
0000
0100
0010
0001
1000
0001
0000
0201
0000
0000
0000
0310
0000
,
1010
0000
1000
0000
0001
0010
0100
1000
0001
0010
0100
1000
0001
0100
0010
1000
,
0001
0000
0000
0000
1000
0000
0000
0000
0100
0000
0000
0000
1000
0000
0000
0000
0001
0000
0000
0000
0100
0000
0000
0000
0001
0000
0000
0000
1000
0000
0000
0000
0100
0000
0000
0000
0010
0000
0000
0000
0100
0000
0000
0000
1000
0000
0000
0000
0001
0000
0000
0100
0000
0000
0001
0000
0000
0100
0000
0000
0001
0000
0000
1000
,
0000
0000
0001
0000
0000
1000
0000
0000
0001
0000
0000
0100
0000
0000
0001
0000
0000
0100
0000
0000
0001
0000
0000
1000
0000
0000
0001
0000
0000
1000
0000
0000
0001
0000
0000
0000
0100
0000
0000
0000
0010
0000
0000
0000
1000
0000
0000
0000
0001
0000
0000
0000
0010
0000
0000
0000
0100
0000
0000
0000
1000
0000
0000
0000
,
0001
0000
0000
0000
0010
0000
0000
0000
0100
0000
0000
0000
1000
0000
0000
0000
0001
0000
0000
0100
0000
0000
0001
0000
0000
0100
0000
0000
0001
0000
0000
0100
0000
0000
0001
0000
0000
0100
0000
0000
0001
0000
0000
0100
0000
0000
0000
0000
0010
0000
0000
0000
1000
0000
0000
0000
0010
0000
0000
0000
1000
0000
0000
0000
,
0001
0000
0000
0010
0000
0000
0400
0000
0000
0000
0000
0000
0000
0000
0000
0000
0000
0000
1300
0000
0100
0000
1000
0000
,
0001
0100
0010
1000
0100
0010
0001
0010
0100
1000
0100
1000
,
0001
0100
0010
4000
0000
0000
0000
0000
0000
3001
0010
0001
,
1000
0000
0000
0000
0010
0000
0000
0000
1000
0000
0000
0000
0001
0000
0000
0000
0100
0000
0000
0000
0001
0000
0000
0000
1000
0000
0000
0000
0100
0000
0000
0000
1000
0000
0000
0000
0001
0000
0000
0100
0000
0000
0001
0000
0000
0100
0000
0000
,
0001
1000
0001
1000
0010
0100
0001
1000
0010
0100
0010
0100
0001
1000
0001
1000
,
0100
1000
0100
1000
0001
0010
0001
0010
0001
1000
0001
1000
0100
0010
0100
0010
,
0001
0010
0001
0010
0100
1000
0100
1000
0001
1000
0001
1000
0010
0000
0010
0100
,
0001
0000
1000
0000
0400
0010
0000
0010
0300
0000
1000
0000
0002
0000
0000
0000
,
0000
0000
1003
0010
0200
0000
0000
0000
0000
0000
0301
1000
0100
0010
0100
1000
,
0001
0100
0010
1000
0001
1000
0001
0010
0100
1000
0001
0100
0010
0100
0001
0100
,
0010
1000
0001
1000
0001
0010
0100
1000
0001
0010
0001
1000
0200
0000
0000
0000
,
0000
0300
0200
0000
0000
0000
0310
0100
1000
0000
0001
0000
1000
0100
0010
0001
,
0010
0001
1000
0100
0010
0001
0010
0001
1000
0000
1000
0000
1001
0000
0001
0000
,
0100
0010
0100
0000
0001
0000
1000
0000
0001
0010
0001
0000
0011
0000
0010
0000
,
0100
1000
0100
0000
0010
0000
0001
0000
1000
0010
1000
0000
0001
0100
0010
0000
,
0010
1000
0001
0000
0001
1000
0100
0010
0100
1000
0001
0000
2000
0000
0000
0000
,
0000
0000
3100
0010
0004
1000
0000
1000
0000
1000
0000
1003
0100
0010
0100
1000
,
0001
0100
0010
1000
0010
0100
0001
1000
0001
1000
0100
0010
0001
0010
0100
1000
,
0001
0100
0010
1000
0010
0100
0001
1000
0001
0010
0100
1000
0001
0100
0001
1000
,
0001
0010
0001
1000
0001
0100
0001
1000
0001
0010
0100
0000
0100
1000
0100
1000
,
0100
1000
0100
1000
0001
1000
0001
1000
0001
1000
0001
1000
0010
0000
0100
0000
,
0001
0100
0001
0000
1000
0000
0100
0000
0010
0100
0010
0000
0001
0000
1000
0000
,
0010
0100
0010
0000
0100
0000
0001
0000
1000
0100
1000
0000
1100
0000
0100
0000
,
0010
0001
0010
0000
0001
0000
1000
0000
0010
0100
0010
0000
0100
0000
0001
0000
,
1000
0100
1000
0000
0001
0000
0010
0000
0100
1000
0100
0000
1100
0000
1000
0000
,
0001
0100
0001
0000
0100
0000
0010
0000
1000
0010
1000
0000
0001
0000
0010
0000
,
0100
0010
0100
0000
1000
0000
0001
0000
1000
0001
1000
0000
1001
0000
0001
0000
,
0100
0010
0100
0000
0001
0000
1000
0000
0001
0010
0001
0000
1000
0100
1000
0100
,
1000
0100
1000
0100
0010
0001
1000
0100
1000
0100
1000
0100
0010
0000
0001
0000
,
1000
0010
1000
0000
0001
0000
0010
0000
0001
1000
0001
0000
1000
0000
0100
0000
,
0010
0100
0010
0000
0001
0000
1000
0000
0001
0100
0001
0000
0101
0000
0100
0000
,
0010
1000
0010
0000
0100
0000
0001
0000
1000
0100
1000
0000
0001
0000
0010
0000
,
0001
1000
0001
0000
0100
0000
0010
0000
0100
0001
0100
0000
0101
0000
0001
0000
,
1000
0100
1000
0000
0001
0000
0010
0000
0100
1000
0100
0000
0010
0000
0001
0000
,
1000
0010
1000
0000
0001
0000
0100
0000
0010
0100
0010
0000
0110
0000
0100
0000
,
0001
1000
0001
0000
0010
0000
0100
0000
1000
0001
1000
0000
0100
0010
0001
1000
,
0100
0010
0001
1000
0010
0100
0001
1000
0010
0100
0001
1000
0001
0000
1000
0000
,
0001
0010
0001
0000
1000
0000
0010
0000
0100
0010
0100
0000
0001
0000
1000
0000
,
0001
1000
0001
0000
0010
0000
0100
0000
1000
0100
1000
0000
0001
0100
0010
1000
,
0001
1000
0100
0010
0100
1000
0001
1000
0001
0010
0100
1000
0010
0100
0001
0100
,
0010
1000
0001
0010
0001
1000
0100
1000
0001
0010
0100
1000
0001
0000
1000
0001
,
0100
0010
1000
0000
0001
0000
0010
0000
0100
0000
1000
0100
0010
0001
1000
0000
,
0001
0000
0001
0000
1000
0000
0010
0000
1000
0000
0001
0000
0010
0100
1000
0001
,
1000
0010
0100
0001
1000
0001
0010
0100
1000
0001
0100
0010
4000
0004
0000
0000
,
0000
0000
0000
0000
0000
0000
0000
0000
0000
0000
0000
3000
0103
0010
1000
0001
,
0010
0100
1000
0001
0010
0100
1000
0001
0100
0010
1000
0001
1000
0100
0010
0001
,
1000
0001
1000
0100
0010
0001
1000
0010
0100
0000
M11M
0000
0010
0000
1000
0001
,
0100
0001
1000
0000
0001
0000
0010
0000
0100
0000
1000
0000
1001
0000
0001
1000
,
0100
0010
0001
0000
1000
0000
0010
0000
0100
0000
0001
0000
0100
0001
0100
0010
,
1000
0001
0010
0100
1000
0010
0100
0001
1000
0010
1000
0001
0010
0100
1000
0001
,
0100
0010
1000
0001
1000
0100
0010
0001
1000
0000
1M1M
0000
0010
0000
0100
0000
,
0001
1000
0001
0000
1000
0000
0100
0000
0010
0000
0001
0000
1000
0001
1000
0001
,
1000
0001
1000
0001
0100
0000
0110
0000
0010
1000
0010
1000
0001
0000
0010
0000
,
0100
1000
0100
0000
1000
0000
0001
0000
1000
0001
1000
0000
1100
0000
0100
0000
,
0010
0001
0010
0000
0100
0000
1000
0000
0001
0100
0001
1000
0100
0000
1000
0000
,
0001
0100
0001
0000
1000
0000
0001
0000
1000
0100
1000
0000
0001
1000
0010
0100
,
0010
0100
0001
1000
0100
0010
0100
1000
0001
0000
0001
0000
1000
0001
0100
0010
,
0100
0010
1000
0001
0100
0010
0100
0010
1000
0001
0100
0010
1000
0001
0100
0010
,
0100
0010
1000
0001
0100
0010
0100
0010
1000
0001
0100
0010
1000
0100
0010
0001
,
1000
0100
0010
0001
1000
0100
0010
0001
1000
0100
0010
0001
1000
0001
1000
0001
,
1000
0001
1000
0001
0100
0010
0100
0010
0100
0010
0100
0010
1000
0001
1000
0100
,
0010
0001
1000
0010
1000
0001
0100
0010
0100
0001
1000
0100
1000
0001
0010
0100
,
1000
0001
1000
0010
0100
0010
1000
0010
0100
0001
1000
0100
1000
0001
0010
0001
,
1000
0100
0010
0001
0010
0100
0010
0001
1000
0010
1000
0001
0100
0010
0100
0010
,
0100
0001
1000
0100
1000
0001
0010
0100
1000
0001
0100
0010
0100
0001
1000
0100
,
1000
0001
0100
0001
1000
0010
0100
0010
1000
0001
0010
0001
1000
0100
0010
0001
,
0010
0100
1000
0001
0100
0010
1000
0010
1000
0001
0100
0001
1000
0100
1000
0100
,
1000
0100
1000
0100
1000
0100
1000
0100
1000
0100
1000
0100
0010
0100
0010
0100
,
0010
0100
0010
0100
0010
0001
0010
0001
1000
0001
1000
0001
1000
0001
0100
0010
,
1000
0001
0010
0001
1000
0010
0100
0010
1000
0001
0010
0100
1000
0001
0100
0010
,
1000
0010
0100
0001
1000
0100
1000
0001
0010
0001
1000
0100
0010
0001
1000
0001
,
0010
0100
1000
0001
0100
0010
0100
0001
1000
0100
1000
0001
0010
0100
1000
0001
,
0100
0010
0100
0010
1000
0001
0010
0001
0010
0100
1000
0001
0100
0010
1000
0010
,
0100
0001
1000
0100
1000
0001
0010
0100
0010
0001
0010
0001
1000
0010
0100
0010
,
1000
0001
1000
0010
1000
0010
0100
0001
0100
0001
1000
0001
0010
0001
1000
0100
,
0010
0001
1000
0001
0010
0100
1000
0001
0100
0010
0100
0010
1000
0001
1000
0001
,
1000
0001
1000
0001
0100
0010
1000
0001
0100
0010
0100
0010
4000
0001
0000
0001
,
0000
0001
0000
0001
0000
0010
0000
3010
0100
0001
1000
0001
0010
0000
0000
0000
,
M11M
0000
11MM
0000
1MM1
0000
0110
1MM1
,
0000
0110
2MM2
0000
0000
0000
0003
3000
;
