#TITLE:My story;
#SUBTITLE:Shikabane Hime Aka ED theme;
#ARTIST:Angela;
#TITLETRANSLIT:;
#SUBTITLETRANSLIT:;
#ARTISTTRANSLIT:;
#CREDIT:ALICE_;
#BANNER:My story.png;
#BACKGROUND:My story.jpg;
#LYRICSPATH:;
#CDTITLE:cdtitle.png;
#MUSIC:My story.mp3;
#OFFSET:0.820;
#SAMPLESTART:45.140;
#SAMPLELENGTH:22.020;
#SELECTABLE:YES;
#BPMS:0.000=81.005,26.000=40.503,28.000=162.005,90.500=40.501,90.750=81.003,91.000=162.005;
#STOPS:;
#BGCHANGES:1.125=My story.avi=1.000=1=0=1,
99999=-nosongbg-=1.000=0=0=0 // don't automatically add -songbackground-
;
// cache tags:
#FIRSTBEAT:2.000;
#LASTBEAT:207.500;
#SONGFILENAME:Songs/alice 4th complete step/My story/My story.sm;
#HASMUSIC:1;
#HASBANNER:1;
#MUSICLENGTH:90.052;
// end cache tags

//---------------dance-single - ----------------
#NOTES:
     dance-single:
     :
     Hard:
     7:
     0.589,0.688,0.211,0.222,0.155,332.000,19.000,20.000,0.000,0.000:
0000
0000
0000
0000
,
0000
0000
0000
0000
,
0000
0000
0000
0000
0000
0000
0000
0000
1000
0100
0010
0001
0000
1000
0100
1000
,
0000
0010
0100
0010
0000
1000
0001
0000
0001
0010
0100
1000
0000
0001
0100
0001
,
0000
0010
0100
0010
0000
0001
1000
0000
0100
0010
0001
1000
0000
0100
0010
0100
,
0000
1000
0010
1000
0000
0001
0100
0000
0010
1000
0100
0001
0000
0100
1000
0010
,
0000
0100
0001
0100
0000
0001
0010
0000
0200
0000
0000
0000
0300
0000
0000
0000
,
1000
0000
0100
0010
0000
0001
0100
0010
,
0100
0000
1000
0010
0000
0100
0001
0010
,
0001
0000
0100
1000
0000
0010
0100
0001
,
0010
0000
0001
1000
0001
0010
0100
1000
,
0010
0000
0100
0001
0000
1000
0010
1000
,
0100
0000
0010
0001
0000
1000
0010
1000
,
0100
0000
1000
0001
0000
0100
0010
0100
,
0001
0000
0010
0100
0010
0001
1000
0100
,
1000
0010
0100
0011
0000
0100
0001
1000
,
0010
0100
0001
1100
0000
0001
0100
0001
,
1000
0010
0100
0100
0001
1000
0110
1001
,
0000
1000
0100
0110
0000
1000
0010
0001
,
0010
0010
0100
1001
0000
0001
0100
0001
,
1000
0100
0010
1100
0000
0010
0001
0100
,
0020
0200
0000
0000
0030
0300
0010
0100
,
0000
0001
1000
0100
0011
0101
1000
0010
,
0100
0010
0001
0010
1000
0100
0000
0001
,
0100
0001
0010
0100
1000
0000
1020
0000
,
0230
0302
0023
0230
,
0320
0000
0031
1000
0100
0000
1000
0100
,
0010
0100
0001
0100
1000
0010
0000
1000
,
0010
1000
0001
0010
0100
0000
2001
0000
,
3020
0032
0023
2030
,
3002
0000
0203
0000
0320
0000
1030
0001
,
0100
0001
0000
1000
0010
1000
0001
0100
,
0010
1000
0000
0001
0010
0100
1000
0001
,
0100
0010
0000
1000
0100
0001
0100
0010
,
0001
1000
0001
0100
0010
1000
0001
0010
,
0100
0010
0000
0100
0001
0100
1000
0010
,
0100
0010
0000
0100
1000
0100
0001
0010
,
0100
1000
0100
0010
0001
0100
1000
0010
,
0001
0010
1000
0100
1000
0010
0010
0000
,
1001
0100
0000
0010
0001
0010
0001
0000
,
1001
0100
0000
0010
1000
0010
1000
0100
,
0010
0100
1000
0010
0000
0110
0000
0001
,
0100
1000
0100
0002
0000
0003
1000
0000
,
0101
0010
0000
1000
0010
1000
0100
0000
,
1010
0100
0000
0001
0010
0001
0100
0010
,
0000
0100
0001
0000
1000
0010
0000
1000
,
0100
1000
0001
0010
0001
0100
0000
0001
,
1000
0000
0100
0010
0000
1000
0000
0001
,
0100
0010
0000
1000
0100
0010
0002
0000
,
0010
0003
1000
0100
0001
0000
0010
1000
,
0001
0010
0100
1000
0010
0100
0000
1001
,
0200
0000
0310
0000
0110
1001
0000
0000
;

//---------------dance-single - Copied from----------------
#NOTES:
     dance-single:
     Copied from:
     Medium:
     6:
     0.478,0.605,0.133,0.322,0.111,260.000,12.000,29.000,0.000,0.000:
0000
0000
0000
0000
,
0000
0000
0000
0000
,
0000
0000
0000
0000
0000
0000
0000
0000
1000
0100
0010
0002
0000
0000
0003
2000
,
0000
0000
3000
0020
0000
0130
0100
0000
0001
0100
0010
2000
0000
0000
3000
0002
,
0000
0000
0003
0020
0000
0130
0100
0000
1000
0001
0010
0002
0000
0000
0003
0200
,
0000
0000
0300
2000
0000
3100
0010
0000
1000
0100
0010
0200
0000
0000
0300
2000
,
0000
0000
3000
0002
0000
0103
0020
0000
0030
0000
0000
0000
0000
0000
0000
0000
,
0100
0000
1001
0000
0010
0100
1000
0000
,
0010
0000
0100
0000
0001
0010
0001
0000
,
0100
0000
1001
0000
0010
0100
0001
0000
,
1000
0000
0001
0000
0100
0010
1000
0000
,
0100
0000
0110
0000
0001
0010
0001
0000
,
0100
0000
0001
0000
1000
0010
1000
0000
,
0100
0000
0011
0000
0001
1000
0001
0000
,
0100
0010
1000
0100
0010
0001
0100
0000
,
0001
0001
1000
0100
0000
0000
0000
0000
,
0100
0100
0010
1000
0000
0000
0000
0000
,
0001
1000
0001
0100
0002
0020
0033
0100
,
0000
1000
0010
0100
0001
1000
0100
0000
,
1000
1000
0010
0100
0000
0000
0000
0000
,
0100
0100
0001
0010
0000
0000
0000
0000
,
0010
1000
0100
0001
0100
1000
0010
0001
,
0000
0010
1000
0001
0010
1000
1000
0100
,
0010
0001
1000
0100
0020
0000
0130
0000
,
0100
0000
1000
0010
0100
0000
1001
0000
,
0001
1000
1000
0001
,
1000
0000
0200
0000
0300
0000
0001
0010
,
0100
1000
0001
0010
0200
0000
0310
0000
,
0010
0000
0001
0100
0010
0000
1001
0000
,
1100
0010
0001
0101
,
0010
1000
0100
2000
,
0010
3000
0100
0010
0100
0000
0002
0000
,
0010
0003
0100
0001
0100
0000
0010
0000
,
1001
0100
1000
0100
0010
0000
0001
1000
,
0001
0100
0001
0000
0010
0100
0002
0000
,
1000
0003
0100
1000
0010
0000
0120
0000
,
0130
0001
0020
0000
0130
1000
0020
0000
,
0130
0000
1000
0001
0100
0000
0010
1000
,
0000
0101
0000
1001
0100
0000
1000
0010
,
0100
0001
0000
0000
0000
0000
0001
0100
,
0010
1000
0000
0000
0000
0000
1000
0001
,
0100
0001
0100
0001
0000
0000
0001
1000
,
0100
1000
0100
1000
0010
0000
0100
0001
,
1000
0010
0000
0000
0000
0000
0100
1000
,
0010
0001
0000
0000
0000
0000
1000
1000
,
0000
0010
0100
0000
0001
0001
0000
0100
,
0010
0000
0000
1000
0010
1000
0100
0010
,
0001
0000
0100
0001
0000
1000
0000
1000
,
0010
0100
0000
0100
0001
0010
0002
0000
,
0000
2003
0000
3020
,
0000
0000
0230
0000
0000
0000
0300
0001
,
1000
0000
0100
0000
0001
0020
0000
0030
;

//---------------dance-single - ----------------
#NOTES:
     dance-single:
     :
     Challenge:
     13:
     1.000,1.000,1.000,0.966,1.000,593.000,98.000,87.000,0.000,51.000:
0000
0000
0000
0000
0000
0000
0000
0000
1000
0100
0010
0002
0000
1100
1013
0000
,
1000
0100
0010
0002
0000
1100
1013
0000
1000
0100
0010
0002
0000
1010
1103
0000
,
1000
0100
0010
0002
0000
1010
1103
0000
1001
1001
0100
0012
0000
0103
1000
0120
,
0000
0130
0001
0210
0000
2300
0002
3003
0001
1000
0010
2100
0000
3010
0001
0210
,
0000
0310
1000
0120
0000
0032
2000
3003
1000
0001
0100
0012
0000
0103
1000
0120
,
0000
0130
0001
0210
0000
2300
0002
3003
0110
0001
0100
1020
0000
0031
1000
0210
,
0000
0000
0310
0000
1000
0000
0102
0000
0000
0000
2003
0000
0020
0000
3030
0000
0001
0010
0100
1000
0000
0100
0010
0001
0010
0100
1000
0100
0001
1001
0100
0010
,
1000
0000
0001
0010
0001
0000
1100
0000
0000
0000
0100
0000
0001
0000
0010
0100
,
1000
0000
0001
0010
0001
0000
1100
0000
0000
0000
1000
0000
0100
0000
0001
0010
,
0100
0000
0001
0100
0010
0000
1001
0000
0000
0000
0110
0000
1001
0000
0010
1000
,
0100
0000
0001
0100
1000
0000
0010
0000
0100
0000
1010
0000
1001
0000
0011
0000
,
0101
0000
0010
1000
0100
0000
0011
0000
0000
0000
0001
0000
0100
0000
0001
1000
,
0010
0000
0100
0010
0100
0000
1001
0000
0000
0000
0010
0000
1000
0000
0100
0010
,
1000
0000
0001
0010
1100
0000
0010
0000
0000
0000
0110
0000
1001
0000
0010
1000
,
0100
0000
0001
0100
1000
0000
0010
0000
0200
0000
0320
0000
2030
0000
3200
0000
,
0301
0000
0010
0100
1001
0000
0110
0000
0000
0000
0010
0000
0101
0000
1000
0000
,
0010
0000
0001
1000
0110
0000
1001
0000
0000
0000
0001
0000
1010
0000
0100
0000
,
1000
0000
0010
0001
0101
0000
1010
0000
2000
0100
3010
0000
0020
0100
1030
0000
,
0001
0000
0100
0010
1000
0000
1100
0000
0010
0001
0100
0001
0020
0000
0130
0000
,
1001
1000
0101
0010
0001
1000
0110
1000
,
0001
0100
0110
1001
0010
1000
0110
1100
,
1002
0000
0010
0003
2000
0000
0100
3000
0120
0000
0031
0000
1001
0000
0220
0000
,
0330
0000
0000
0000
1001
0000
0000
0000
1001
0000
0000
0000
1001
0000
0000
0000
0101
0000
0000
0000
2012
3003
0000
0000
1000
0000
0010
0000
0100
0000
0010
0000
,
0001
0010
0100
0010
1000
0010
0001
0100
0001
0010
1000
0100
0001
0010
0100
0010
,
1000
0010
0100
0010
0001
0100
1000
0010
0100
0010
1000
0100
0002
0010
0013
0000
,
0200
0010
0310
0000
2000
0001
3001
0000
0020
0100
0130
0000
2000
0010
3100
0000
,
0002
0100
0013
0000
1000
0001
0100
0001
1000
0010
0100
0001
1000
0100
0010
0100
,
0001
0100
0010
0100
1000
0010
0001
0100
0001
0010
1000
0100
0001
0010
0100
0010
,
1000
0010
0100
0010
0001
0100
1000
0100
0001
0010
1000
0000
0002
0010
0013
0000
,
0200
0010
0310
0000
2000
0100
3100
0000
0020
0001
0031
0000
1000
0001
0100
0010
,
1000
0001
0100
0001
0010
0001
0100
0010
1000
0100
0001
0100
0001
0010
0100
0001
,
0010
0100
0001
0010
1000
0100
0010
1000
0100
0010
1000
0100
1000
0010
0001
1000
,
0010
0001
0100
0010
0001
0100
1000
0001
0100
1000
0010
0100
0001
0010
0001
0100
,
0010
0100
0001
1000
0010
0001
0010
1000
0100
1000
0010
0100
0001
0010
0100
0010
,
0100
1000
0100
0010
1000
0100
0010
0100
0010
0001
0100
0010
1000
0100
0001
1000
,
0010
0001
0100
0010
0001
0100
1000
0001
0010
1000
0010
0100
0001
0010
0100
0001
,
0100
0010
1000
0100
0001
0010
0100
1000
0100
0010
1000
0100
0001
0010
0001
0100
,
0010
1000
0100
1000
0001
0010
0001
0100
0010
1000
0100
1000
0001
0010
0001
0010
,
0100
0010
1000
0010
0100
1000
0010
0100
0001
0010
0100
1000
0200
0000
0020
0000
,
1302
0233
0000
0320
2100
3002
2033
0200
,
0321
3230
0000
0302
2010
3103
1010
1010
,
0100
0000
0012
0000
0200
0300
2023
3030
0000
0000
1002
0000
0000
0000
1013
0000
,
0100
0000
1100
0000
1001
0000
0110
0000
1000
0001
0100
0000
0020
0000
0200
0000
,
2031
0000
0320
0000
3002
0000
0233
0000
0021
0000
2000
0030
0302
0000
3020
0000
,
1230
0323
0200
2330
0102
3023
0130
0110
,
0110
0000
0000
0000
0110
0000
0110
0000
0010
1000
0101
0000
0000
0000
0101
0000
,
1001
1110
0000
0010
1010
0100
0010
1001
,
1101
0000
0001
0100
0010
0000
0110
0000
1000
0000
0100
0010
2102
0010
0100
0010
,
0100
0010
0100
0010
0100
0010
0100
0010
0100
0010
3103
0010
0001
0010
0100
0001
,
0010
0100
0001
0010
1000
0100
0010
1000
0100
0010
1000
0100
0001
1000
0010
0100
,
0001
0010
1000
0100
1000
0010
0100
1000
0001
0100
0010
1000
0000
0000
0101
0000
,
0101
0000
1001
0000
1100
2220
3330
0000
;

//---------------dance-single - ----------------
#NOTES:
     dance-single:
     :
     Easy:
     3:
     0.262,0.258,0.033,0.133,0.000,150.000,3.000,12.000,0.000,0.000:
0000
0000
0000
0000
,
0000
0000
0000
0000
,
0000
0000
1000
0001
,
0000
0010
0001
1000
,
0000
0010
1000
0100
,
0000
0001
0001
0100
,
0000
0010
0200
0300
,
1000
0001
0000
0100
,
0001
0010
0000
1000
,
0100
0010
0000
1000
,
0001
1000
0000
0010
,
0100
0001
0000
0010
,
0001
0100
0000
0010
,
1000
0100
0000
1000
,
0010
0100
0010
0010
,
0110
0001
0000
0001
,
1000
0100
0000
1000
,
0100
0001
0000
0010
,
0001
0100
0000
0010
,
1000
0010
0000
0100
,
0010
1000
0001
1000
,
0200
0000
0000
0000
,
0000
0000
0300
1000
,
1000
0001
0001
0010
,
1000
0010
0001
0100
,
0010
0100
1000
0100
,
0001
0100
0000
0001
,
0001
1000
1000
0001
,
0100
1000
0100
0010
,
1000
0100
0001
0010
,
0001
1000
0010
0200
,
0000
0000
0300
0002
,
0000
0000
0003
2000
,
0000
0000
3000
0020
,
0000
0030
0100
0001
,
1000
0010
1000
0200
,
0300
0200
0300
2002
,
0000
3003
0000
0001
,
0010
0100
1000
0001
,
0001
0001
0000
1000
,
1000
0010
0000
0100
,
0100
0100
0000
1000
,
1000
1100
0000
0010
,
0001
1000
0100
0001
,
1000
0100
0010
1000
,
1000
0100
0100
0001
,
0001
0010
0010
0100
,
0100
0100
0100
1000
,
0001
0100
0001
2000
,
0000
0000
3010
0020
,
0000
0000
0000
0000
0130
0000
0000
1000
,
0001
0000
0010
0000
0001
0100
0000
0000
;
