#TITLE:Dreaming;
#SUBTITLE:;
#ARTIST:Bentobox (feat. World One);
#TITLETRANSLIT:;
#SUBTITLETRANSLIT:;
#ARTISTTRANSLIT:;
#CREDIT:;
#BANNER:../Banner.png;
#BACKGROUND:../BG.png;
#LYRICSPATH:;
#CDTITLE:../CDTitleKIRBY.png;
#MUSIC:Bentobox - Dreaming (feat. World One).ogg;
#OFFSET:-0.469;
#SAMPLESTART:34.412;
#SAMPLELENGTH:29.999;
#SELECTABLE:YES;
#BPMS:0.000=175.000;
#STOPS:;
#BGCHANGES:;
// cache tags:
#FIRSTBEAT:3.000;
#LASTBEAT:547.000;
#SONGFILENAME:Songs/Index Fusion/Dreaming - [Kirby5464]/Dreaming.sm;
#HASMUSIC:1;
#HASBANNER:1;
#MUSICLENGTH:197.590;
// end cache tags

//---------------dance-single - ----------------
#NOTES:
     dance-single:
     :
     Challenge:
     15:
     0.962,1.000,0.127,0.334,1.000,1232.000,25.000,66.000,71.000,0.000:
0000
0000
0000
0020
,
0000
2030
0000
3002
,
0000
0003
0000
2000
,
3002
2003
0000
3002
0000
0000
0203
0000
,
0300
0000
0000
0000
0000
0020
2030
0000
,
0000
3002
0000
0203
,
0300
0000
0000
0000
0020
0230
0320
0000
,
2030
3002
0000
2003
0000
3020
0000
0230
,
0000
0302
0000
1003
0100
0010
0001
0100
,
0001
1000
0100
1000
0010
1000
0001
0010
,
0001
0100
0001
1000
0100
0010
0001
1000
,
0010
0100
0010
1000
0001
0100
0001
1000
,
0100
0010
0001
0100
0010
1000
0010
0100
,
0001
0010
0001
1000
0100
0010
0001
1000
,
0100
1000
0001
0100
0010
1000
0010
0100
,
0001
1000
0100
1000
0001
0100
00M0
0000
,
00M0
00M0
0000
0000
0000
0000
1000
0000
,
0010
0100
0001
0010
,
0100
1000
0010
1001
,
0100
0010
0100
0001
,
1000
0000
0001
0000
0010
0000
1010
0100
,
0010
0100
0101
1000
0001
0010
0110
1000
,
0100
0010
0011
0100
0001
1000
0040
0000
,
0430
0304
4003
30M0
,
0M00
0000
00M0
0000
000M
0000
0000
0000
0000
0000
0000
0000
1000
0100
0010
0001
,
0100
0010
1000
0010
0100
0001
1000
0100
1000
0010
0100
0010
1000
0001
0100
0001
,
1000
0010
0100
0010
1000
0001
0100
0001
1000
0010
0100
0010
1000
0001
0010
0001
,
1000
0100
0010
0001
1000
0100
1000
0001
0010
0100
1000
0001
1000
0010
0100
0001
,
1000
0001
0010
0100
1000
0001
1000
0010
0100
0001
0010
0100
1000
0001
0010
0001
,
1000
0010
1000
0100
1000
0001
0010
0001
1000
0010
1000
0100
0010
0100
1000
0001
,
0010
0001
1000
0010
0100
0001
1000
0001
0010
0100
1000
0001
0010
0001
0100
0010
,
0100
0001
1000
0100
0010
0001
1000
0001
0100
0010
1000
0001
0200
0000
0320
2030
,
3020
0030
0100
0000
0001
0000
0010
0000
0100
0000
1000
0000
0001
1000
0100
1000
,
0010
0100
0001
1000
0100
0010
0001
1000
0001
0100
0010
1000
0001
1000
0100
0010
,
0001
0100
0001
1000
0001
0010
0100
1000
0010
1000
0001
0100
0001
1000
0001
0010
,
0100
1000
0010
1000
0001
0100
0001
1000
0001
1000
0100
1000
0010
0100
0001
1000
,
0001
0010
0100
1000
0001
0100
0001
0010
0100
1000
0001
0100
0010
1000
0001
1000
,
0001
0010
0001
1000
0010
1000
0100
1000
0001
0100
0010
1000
0001
0100
0001
0010
,
0001
1000
0100
0010
0100
1000
0001
1000
0010
1000
0100
0010
0001
1000
0001
0100
,
0010
1000
0001
0100
0001
0010
0001
1000
0010
0100
0010
1000
0002
0000
0203
0320
,
0230
0300
0001
0000
0010
0000
0100
0000
1000
0000
0001
0000
1000
0001
0010
0001
,
0100
0010
1000
0001
0010
0100
1000
0001
1000
0010
0100
0001
1000
0001
0010
0100
,
1000
0010
1000
0001
1000
0100
0010
0001
0100
0001
1000
0010
1000
0001
1000
0100
,
0010
0001
0100
0001
1000
0010
1000
0001
1000
0001
0010
0001
0100
0010
1000
0001
,
1000
0100
0010
0001
1000
0010
1000
0100
0010
0001
1000
0010
0100
0001
1000
0001
,
1000
0100
1000
0001
0100
0001
0010
0001
1000
0010
0100
0001
1000
0010
1000
0100
,
1000
0001
0010
0100
0010
0001
1000
0001
0100
0001
0010
0100
1000
0001
1000
0010
,
0100
0001
1000
0010
1000
0100
1000
0001
0100
0010
0100
0001
2000
0000
3020
0000
,
2030
0000
3002
0000
0203
0000
0302
0000
0023
0000
0230
0000
1300
0010
1000
0001
,
0100
0010
0100
0001
1000
0010
1000
0001
0100
0010
0100
0001
1000
0100
1000
0001
,
0010
0100
1000
0001
0010
0001
1000
0100
0010
0001
1000
0001
0100
0010
1000
0001
,
1000
0100
0010
0001
1000
0001
0100
0010
1000
0100
0010
0001
1000
0100
1000
0001
,
0100
0001
0010
0001
1000
0100
1000
0001
0100
0001
0010
0100
0010
0001
1000
0100
,
1000
0001
0100
0010
1000
0001
1000
0100
0010
0001
1000
0100
1000
0010
0100
0010
,
1000
0001
0010
0100
1000
0001
1000
0010
0100
0001
1000
0100
0010
0001
0100
0001
,
0010
0001
1000
0010
0100
0010
1000
0001
1000
0001
0100
0010
0200
0000
0300
0000
,
1000
0100
0010
0001
1000
0001
0200
0000
,
0000
0000
0000
0000
,
0000
0000
0000
0000
,
0000
0000
0000
0300
,
0000
0000
0000
0000
,
0000
0000
0000
0000
,
0000
0000
0000
0000
,
0000
0000
0000
0000
,
0000
0000
0000
0020
,
0030
0000
0000
0000
,
0000
0000
0000
0000
,
0000
0000
0000
0000
,
0000
0000
0000
2000
,
0000
0000
0000
0000
,
0000
0000
0000
0000
,
0000
0000
0000
3000
,
0000
0000
0000
0000
0000
0000
1000
0100
,
0010
0001
1001
0100
0010
0100
0001
1000
,
0001
0010
1010
0100
0001
0100
0010
1000
,
0001
1000
1100
0001
0010
0100
0010
0001
,
0100
0001
0011
0100
1000
0010
1000
0100
,
0010
0001
0101
0010
1000
0010
0100
0001
,
0010
0100
1100
0001
0010
0100
0010
0001
,
1000
0001
0011
0100
1000
0010
0100
0010
,
1000
0001
1001
0100
0010
0001
0100
0001
,
1000
0001
1001
0100
0010
0001
1000
0010
,
0100
0001
1010
0010
0100
0001
1000
0001
,
0010
0100
1100
0001
1000
0001
0100
0010
,
0100
0010
1010
0001
1000
0001
0010
0100
,
1000
0010
1001
0001
0100
0001
0010
0100
,
1000
0010
1010
0001
0010
0001
1000
0100
,
0010
0001
0100
0001
1000
0001
0M00
0000
,
0000
M000
M000
M000
M000
0000
0001
0000
,
0100
0010
1000
0100
,
0010
0001
0100
1001
,
0010
0100
0010
1000
,
0001
0000
1000
0000
0100
0000
0101
0010
,
0100
0010
1010
0001
1000
0100
0110
0001
,
0010
0100
1100
0010
1000
0001
0400
0000
,
0340
4030
3004
0M03
,
00M0
0000
M000
0000
000M
0000
0000
0000
0000
0000
0000
0000
1000
0010
0100
0010
,
1000
0001
0100
0001
1000
0010
0100
0010
1000
0001
0010
0001
1000
0100
0010
0001
,
1000
0100
1000
0001
0010
0100
1000
0001
1000
0010
0100
0001
1000
0001
0010
0100
,
1000
0001
1000
0010
0100
0001
0010
0100
1000
0001
0010
0001
1000
0010
1000
0100
,
1000
0001
0010
0001
1000
0010
1000
0100
0010
0100
1000
0001
0010
0001
1000
0010
,
0100
0001
1000
0001
0010
0100
1000
0001
0010
0001
0100
0010
0100
0001
1000
0100
,
0010
0001
1000
0001
0100
0010
1000
0001
0010
0100
1000
0010
1000
0100
1000
0001
,
0100
0010
0100
0001
1000
0001
1000
0010
0100
0010
1000
0001
2000
0000
3020
0230
,
0320
0030
1000
0000
0001
0000
0100
0000
0010
0000
0100
0000
0001
1000
0100
1000
,
0010
0100
0001
1000
0100
0010
0001
1000
0001
0100
0010
1000
0001
1000
0100
0010
,
0001
0100
0001
1000
0001
0010
0100
1000
0010
1000
0001
0100
0001
1000
0001
0010
,
0100
1000
0010
1000
0001
0100
0001
1000
0001
1000
0100
1000
0010
0100
0001
1000
,
0001
0010
0100
1000
0001
0100
0001
0010
0100
1000
0001
0100
0010
1000
0001
1000
,
0001
0010
0001
1000
0010
1000
0100
1000
0001
0100
0010
1000
0001
0100
0001
0010
,
0001
1000
0100
0010
0100
1000
0001
1000
0010
1000
0100
0010
0001
1000
0001
0100
,
0010
1000
0001
0100
0001
0010
0001
1000
0010
0100
0010
1000
0002
0000
0203
0320
,
0230
0300
0001
0000
0010
0000
0100
0000
1000
0000
0001
0000
1000
0001
0010
0001
,
0100
0010
1000
0001
0010
0100
1000
0001
1000
0010
0100
0001
1000
0001
0010
0100
,
1000
0010
1000
0001
1000
0100
0010
0001
0100
0001
1000
0010
1000
0001
1000
0100
,
0010
0001
0100
0001
1000
0010
1000
0001
1000
0001
0010
0001
0100
0010
1000
0001
,
1000
0100
0010
0001
1000
0010
1000
0100
0010
0001
1000
0010
0100
0001
1000
0001
,
1000
0100
1000
0001
0100
0001
0010
0001
1000
0010
0100
0001
1000
0010
1000
0100
,
1000
0001
0010
0100
0010
0001
1000
0001
0100
0001
0010
0100
1000
0001
1000
0010
,
0100
0001
1000
0010
1000
0100
1000
0001
0100
0010
0100
0001
2000
0000
3020
0000
,
2030
0000
3002
0000
0203
0000
0302
0000
0023
0000
0230
0000
1300
0010
1000
0001
,
0100
0010
0100
0001
1000
0010
1000
0001
0100
0010
0100
0001
1000
0100
1000
0001
,
0010
0100
1000
0001
0010
0001
1000
0100
0010
0001
1000
0001
0100
0010
1000
0001
,
1000
0100
0010
0001
1000
0001
0100
0010
1000
0100
0010
0001
1000
0100
1000
0001
,
0100
0001
0010
0001
1000
0100
1000
0001
0100
0001
0010
0100
0010
0001
1000
0100
,
1000
0001
0100
0010
1000
0001
1000
0100
0010
0001
1000
0100
1000
0010
0100
0010
,
1000
0001
0010
0100
1000
0001
1000
0010
0100
0001
1000
0100
0010
0001
0100
0001
,
0010
0001
1000
0010
0100
0010
1000
0001
1000
0001
0100
0010
0200
0000
0300
0000
,
0002
2003
3020
0230
0320
2030
3002
0000
,
M003
00M0
0M00
000M
0M00
00M0
0M00
M000
,
000M
0M00
M000
00M0
0M00
000M
M000
00M0
,
0M00
000M
M000
00M0
0M00
000M
M000
0M00
,
00M0
000M
00M0
0M00
00M0
M000
000M
0M00
,
00M0
M000
00M0
0M00
000M
0M00
M000
000M
,
0M00
M000
M000
0M00
000M
00M0
0M00
00M0
,
M000
000M
M000
00M0
0M00
00M0
000M
0000
,
2000
3000
0000
1001
,
0000
0000
0000
0000
,
0000
0000
0000
0000
,
0000
0000
0000
0000
,
0000
0000
0000
0000
,
0000
0000
0000
0000
,
0000
0000
0000
0000
,
0000
0000
0000
0000
;
