#TITLE:Future Dominators;
#SUBTITLE:;
#ARTIST:DJ Sharpnel;
#TITLETRANSLIT:;
#SUBTITLETRANSLIT:;
#ARTISTTRANSLIT:;
#CREDIT:T. Moore;
#BANNER:future bn.png;
#BACKGROUND:future bgs.png;
#LYRICSPATH:;
#CDTITLE:;
#MUSIC:Future Dominators.ogg;
#OFFSET:-0.280;
#SAMPLESTART:111.844;
#SAMPLELENGTH:18.259;
#SELECTABLE:YES;
#DISPLAYBPM:210.300;
#BPMS:0.000=210.300;
#STOPS:;
#BGCHANGES:;
// cache tags:
#FIRSTBEAT:4.000;
#LASTBEAT:1111.000;
#SONGFILENAME:Songs/SHARPNELSTREAMZ v2/Future Dominators/Future Dominators.sm;
#HASMUSIC:1;
#HASBANNER:1;
#MUSICLENGTH:318.066;
// end cache tags

//---------------dance-single - STREAMZ 18-----------------
#NOTES:
     dance-single:
     STREAMZ 18-:
     Edit:
     18:
     1.000,1.000,0.038,0.057,1.000,3582.000,12.000,18.000,17.000,0.000:
0000
0000
0000
0000
,
1001
0000
0001
0000
0100
0000
0010
1000
0001
1000
0001
0000
0010
0000
0001
0000
,
0010
0000
0100
0000
1000
0000
0001
1000
0010
1000
0010
0000
0100
0000
0010
0000
,
0100
0000
0001
0000
1000
0000
0001
0010
0100
0010
0100
0000
1000
0000
0100
0000
,
1000
0000
0001
0000
0100
0000
0010
1000
0001
1000
0001
0000
0010
0000
0001
0000
,
0010
0000
0100
0000
1000
0000
0100
0010
0001
0010
0001
0000
1000
0000
0001
0000
,
1000
0000
0010
0000
0100
0000
0010
1000
0001
1000
0001
0000
0100
0000
0010
0000
,
0100
0000
0001
0000
0010
0000
0001
1000
0010
1000
0010
0000
0100
0000
0010
0000
,
0100
0000
0000
0000
0000
0000
0001
0000
1000
0000
0001
0000
1000
0000
0000
0000
0000
0000
0001
0000
1000
0000
0001
0000
1000
0000
0000
0010
0000
0000
0100
0000
0000
0001
0000
0000
1000
0000
0000
0000
0000
0000
0001
0000
0000
0000
0000
0000
,
1M01
0000
1000
0000
0100
0000
0010
0001
1000
0001
1000
0000
0010
0000
1000
0000
,
0010
0000
0100
0000
0001
0000
1000
0001
0010
0001
0010
0000
0100
0000
0010
0000
,
0100
0000
1000
0000
0010
0000
1000
0010
0100
0010
0100
0000
0001
0000
0100
0000
,
0001
0000
0000
0000
1000
0000
0000
0000
0100
0000
0000
0000
1000
0000
0001
0000
0100
0000
0001
0000
0100
0000
0000
0000
M010
M000
M000
M000
M100
M000
M000
M000
,
M010
0000
1000
0000
0100
0000
1000
0001
0100
0001
0100
0000
0010
0000
0100
0000
,
0010
0000
1000
0000
0001
0000
1000
0001
0010
0001
0010
0000
0100
0000
0010
0000
,
0100
0000
1000
0000
0001
0000
1000
0100
0010
0100
0010
0000
0001
0000
0010
0000
,
0001
0000
1000
0000
0010
0000
0100
0001
1000
0001
1000
0001
4000
0000
3100
0000
,
0110
0000
0010
0000
0001
0000
1000
0001
0100
0001
0100
0000
0010
0000
0100
0000
,
0010
0000
1000
0000
0001
0000
1000
0100
0010
0100
0010
0000
0001
0000
0010
0000
,
0001
0000
1000
0000
0010
0000
0100
0001
1000
0001
1000
0000
0100
0000
1000
0000
,
0100
0000
0010
0000
0001
0000
1000
0001
0100
0001
0100
0000
0010
0000
0100
0000
,
0010
0000
1000
0000
0001
0000
0100
0010
1000
0010
1000
0000
0001
0000
1000
0000
,
0001
0000
0010
0000
0100
0000
0010
0001
1000
0001
1000
0000
0010
0000
1000
0000
,
0010
0000
0100
0000
0001
0000
1000
0001
0100
0001
0100
0000
0010
0000
0100
0000
,
0010
0000
1000
0000
0001
0000
1000
0000
0001
0000
1000
0100
0040
0000
0031
0000
,
1001
0000
1000
0000
0100
0000
0010
0001
1000
0001
1000
0000
0010
0000
1000
0000
,
0010
0000
0100
0000
0010
0000
1000
0001
0010
0001
0010
0000
0100
0000
0010
0000
,
0100
0000
1000
0000
0001
0000
0100
0001
1000
0010
1000
0000
0001
0000
1000
0000
,
0001
0000
0100
0000
0010
0000
1000
0001
0100
0001
1000
0000
0100
0000
1000
0000
,
0100
0000
0010
0000
0001
0000
0010
0100
1000
0001
1000
0000
0010
0000
1000
0000
,
0010
0000
0100
0000
0001
0000
0100
0010
1000
0001
1000
0000
0010
0000
1000
0000
,
0010
0000
0100
0000
0001
0000
1000
0001
0010
0100
0010
0000
0001
0000
0010
0000
,
0M01
0000
1000
0000
0001
0000
1000
0000
0001
1000
0001
0000
1000
0000
0001
0000
,
1000
0100
1000
0100
0010
0001
1000
0001
0100
0010
0100
0010
1000
0010
0100
0001
,
0010
0100
1000
0001
0010
0001
1000
0100
0010
0001
1000
0001
0100
0010
0100
0001
,
1000
0100
0010
0001
1000
0001
0010
0100
1000
0001
0010
0001
1000
0010
0100
0001
,
0010
0100
0010
0001
1000
0100
0010
0001
1000
0001
0100
0010
1000
0010
0100
0001
,
1000
0001
1000
0100
0010
0001
1000
0001
0100
0010
0100
0010
1000
0010
0100
0001
,
0010
0100
1000
0001
0010
0001
1000
0100
0010
0001
1000
0001
0100
0010
0100
0001
,
1000
0100
0010
0001
1000
0001
0010
0100
1000
0001
0010
0001
1000
0010
0100
0001
,
0010
0100
0010
0001
1000
0100
0010
0001
1000
0001
0100
0010
1000
0100
0010
0001
,
1000
0100
1000
0100
0010
0001
1000
0001
0100
0010
0100
0010
1000
0010
0100
0001
,
0010
0100
1000
0001
0010
0001
1000
0100
0010
0001
1000
0001
0100
0010
0100
0001
,
1000
0100
0010
0001
1000
0001
0010
0100
1000
0001
0010
0001
1000
0010
0100
0001
,
0010
0100
0010
0001
1000
0100
0010
0001
1000
0001
0100
0010
1000
0010
0100
0001
,
1000
0001
0100
0001
1000
0010
1000
0001
0010
0001
1000
0100
1000
0001
0010
0100
,
0010
0001
1000
0001
0010
0100
1000
0001
0010
0001
1000
0100
0010
0001
1000
0001
,
1000
0010
0100
0001
1000
0001
0100
0010
1000
0001
0100
0001
1000
0010
0100
0001
,
0010
0100
0010
0001
0100
0010
0100
0001
1000
0100
0010
0001
0100
0001
0010
0100
,
1000
0010
1000
0010
0100
0001
1000
0001
0010
0100
0010
0100
1000
0100
0010
0001
,
0100
0010
1000
0001
0100
0001
1000
0010
0100
0001
1000
0001
0010
0100
0010
0001
,
1000
0010
0100
0001
1000
0001
0100
0010
1000
0001
0100
0001
1000
0100
0010
0001
,
0100
0010
0100
0001
1000
0010
0100
0001
1000
0001
0010
0100
1000
0100
0010
0001
,
1000
0001
1000
0010
0100
0001
1000
0001
0010
0100
0010
0100
1000
0100
0010
0001
,
0100
0010
1000
0001
0100
0001
1000
0010
0100
0001
1000
0001
0010
0100
0010
0001
,
1000
0010
0100
0001
1000
0001
0100
0010
1000
0001
0100
0001
1000
0100
0010
0001
,
0100
0010
0100
0001
1000
0010
0100
0001
1000
0001
0010
0100
1000
0010
0100
0001
,
1000
0010
1000
0010
0100
0001
1000
0001
0010
0100
0010
0100
1000
0100
0010
0001
,
0100
0010
1000
0001
0100
0001
1000
0010
0100
0001
1000
0001
0010
0100
0010
0001
,
1000
0010
0100
0001
1000
0001
0100
0010
1000
0001
0100
0001
1000
0100
0010
0001
,
0100
0010
0100
0001
1000
0010
0100
0001
1000
0001
0010
0100
1000
0100
0010
0001
,
1000
0001
0010
0001
1000
0100
1000
0001
0100
0001
1000
0010
1000
0001
0100
0010
,
0100
0001
1000
0001
0100
0010
1000
0001
0100
0001
1000
0010
0100
0001
1000
0001
,
1000
0100
0010
0001
1000
0001
0010
0100
1000
0001
0010
0001
1000
0100
0010
0001
,
0100
0010
0100
0001
0010
0100
0010
0001
1000
0010
0100
0001
1000
0001
1000
0001
,
0100
0000
0100
0000
0000
0000
0100
0000
0000
0000
0100
0001
0100
0001
0100
0001
,
1000
0000
0001
0010
0100
0000
1000
0001
0100
0000
0001
0010
0001
0000
0100
0010
,
1000
0000
0001
0010
0100
0000
1000
0001
0010
0000
0100
1000
0001
0000
1000
0010
,
2000
3000
0000
0000
0000
0000
0000
0000
0001
0000
0000
0000
0100
0000
0000
0000
0010
0000
0000
0000
0000
0000
0000
0000
1000
0000
0000
0000
0010
0000
0000
0000
0100
0000
0000
0000
0000
0000
0000
0000
0001
0000
0000
0000
1000
0000
0000
0000
0001
0000
0000
0000
0000
0000
0000
0000
0010
0000
0000
0000
0100
0000
0000
0000
,
1000
0000
0000
0000
0000
0000
0000
0000
1000
0000
0000
0000
0000
0000
0000
0000
0001
0000
0000
0000
0000
0000
0000
0000
1000
0000
0000
0000
0100
0000
0000
0000
0010
0000
0000
0000
0000
0000
0000
0000
0001
0000
0000
0000
1000
0000
0000
0000
0020
0030
0000
0000
0000
0000
0000
0000
0020
0030
0000
0000
0000
0000
0000
0000
,
0020
0030
0000
0000
0000
0000
0000
0000
0100
0000
0000
0000
0001
0000
0000
0000
1000
0000
0000
0000
0000
0000
0000
0000
0001
0000
0000
0000
0100
0000
0000
0000
0010
0000
0000
0000
0000
0000
0000
0000
1000
0000
0000
0000
0010
0000
0000
0000
0100
0000
0000
0000
0000
0000
0000
0000
0001
0000
0000
0000
1000
0000
0000
0000
,
0100
0000
0010
0001
0010
0000
0100
1000
0001
0000
1000
0100
0010
0000
0001
1000
,
0020
0030
0000
0000
0000
0000
0000
0000
0100
0000
0000
0000
0001
0000
0000
0000
1000
0000
0000
0000
0000
0000
0000
0000
0001
0000
0000
0000
0100
0000
0000
0000
0010
0000
0000
0000
0000
0000
0000
0000
1000
0000
0000
0000
0001
0000
0000
0000
0100
0000
0000
0000
0000
0000
0000
0000
0001
0000
0000
0000
1000
0000
0000
0000
,
0100
0000
0000
0000
0100
0000
0000
0000
0120
0030
0000
0000
0100
0000
1000
0000
0001
0000
0000
0000
0100
0000
0000
0000
0201
0300
0000
0000
0001
0000
0000
0000
,
0102
0003
0000
0000
0100
0000
0000
0000
0010
0000
0000
0000
1000
0000
0000
0000
0001
0000
0000
0000
0010
0000
0000
0000
0100
0000
0000
0000
1000
0000
0000
0000
,
0010
0010
0100
0001
0100
0010
1000
0001
,
0020
0030
0000
0000
0000
0000
0000
0000
0001
0000
0000
0000
0000
0000
0000
0000
0100
0000
0000
0000
0000
0000
0000
0000
0010
0000
0000
0000
0000
0000
0000
0000
1000
0000
0000
0000
0000
0000
0000
0000
0010
0000
0000
0000
0000
0000
0000
0000
0100
0000
0000
0000
0000
0000
0000
0000
0001
0000
0000
0000
0000
0000
0000
0000
,
0010
0000
0000
0000
0000
0000
0000
0000
0010
0000
0000
0000
0000
0000
0000
0000
0100
0000
0000
0000
0000
0000
0000
0000
1000
0000
0000
0000
0000
0000
0000
0000
0001
0000
0000
0000
0000
0000
0000
0000
0100
0000
0000
0000
0000
0000
0000
0000
0020
0030
0000
0000
0000
0000
0000
0000
0020
0030
0000
0000
0000
0000
0000
0000
,
0020
0030
0000
0000
0000
0000
0000
0000
1000
0000
0000
0000
0000
0000
0000
0000
0100
0000
0000
0000
0000
0000
0000
0000
1000
0000
0000
0000
0000
0000
0000
0000
0001
0000
0000
0000
0000
0000
0000
0000
1000
0000
0000
0000
0000
0000
0000
0000
0100
0000
0000
0000
0000
0000
0000
0000
1000
0000
0000
0000
0000
0000
0000
0000
,
0001
0100
0001
0100
0010
1000
0010
1000
0001
1000
0010
0100
0001
0010
0100
1000
,
0010
0100
0010
1000
0100
0010
0100
1000
0010
0100
0001
0010
0100
1000
0010
0100
,
M000
0000
00M0
0000
0M00
0000
000M
0000
M000
0000
000M
0000
0001
1000
0001
1000
,
0010
0100
0001
1000
0001
0100
0010
1000
0001
0010
0001
1000
0001
0010
0100
1000
,
0001
1000
0001
0100
0001
1000
0010
0100
0001
1000
0100
1000
0001
0010
0100
1000
,
0001
0100
0001
1000
0100
0010
0001
1000
0010
0100
0010
1000
0001
0100
0001
1000
,
0100
0010
0001
1000
0001
0010
0100
1000
0001
0100
0010
1000
0001
0100
0010
1000
,
0001
0010
0001
1000
0100
0010
0001
1000
0001
0100
0010
1000
0001
1000
0010
0100
,
0001
1000
0001
0010
0100
1000
0001
0010
0001
1000
0010
0100
0001
1000
0010
0100
,
0001
1000
0001
0100
0010
1000
0001
1000
0100
0010
0100
1000
0001
0010
0001
1000
,
0010
1000
0001
0100
0010
1000
0001
1000
0001
0010
0001
1000
0010
0100
0010
1000
,
0100
0010
0001
1000
0001
0100
0010
1000
0001
0010
0001
1000
0010
0100
0010
1000
,
0010
0100
0001
1000
0100
0010
0001
1000
0001
0100
0001
1000
0100
0010
0100
1000
,
0001
0010
0001
1000
0001
0100
0010
1000
0001
1000
0010
0100
0001
0010
0100
1000
,
0001
0010
0100
1000
0001
0100
0001
1000
0100
0010
0100
1000
0010
0100
0001
1000
,
0010
0100
0001
1000
0100
1000
0001
0100
0010
1000
0001
1000
0010
0100
0001
1000
,
0100
0010
0001
1000
0001
0010
0100
1000
0001
0100
0010
1000
0001
0010
0100
1000
,
0010
0100
0001
1000
0100
0010
0100
1000
0010
0100
0001
0010
0100
1000
0010
0100
,
0001
0010
0001
0100
0010
1000
0100
0010
0100
1000
0010
0100
0001
0010
0100
1000
,
0001
0100
0010
1000
0001
1000
0001
1000
0010
0100
0001
1000
0001
1000
0010
0100
,
0001
1000
0010
1000
0001
0010
0001
1000
0010
0100
0010
1000
0001
0010
0001
1000
,
0010
0100
0010
0100
0001
1000
0100
0010
0100
0010
0001
1000
0010
0100
0010
0100
,
0001
0100
0010
1000
0001
1000
0010
0100
0001
1000
0001
0010
0100
1000
0100
1000
,
0001
0100
0001
1000
0010
0100
0010
0100
0001
1000
0010
0100
0010
0100
0001
1000
,
0010
1000
0001
1000
0001
0010
0001
0010
0100
1000
0100
1000
0001
1000
0100
0010
,
0001
1000
0001
1000
0010
0100
0001
1000
0001
1000
0100
0010
0001
1000
0001
1000
,
0010
0100
0001
1000
0010
1000
0001
0100
0010
0100
0001
1000
0010
1000
0001
0010
,
0100
1000
0100
1000
0001
1000
0100
0010
0100
0010
0001
0010
0100
1000
0001
1000
,
0100
0010
0001
1000
0001
0010
0001
1000
0001
0100
0001
0100
0010
1000
0010
1000
,
0001
0010
0001
1000
0100
0010
0001
1000
0001
0100
0001
1000
0010
0100
0001
1000
,
0001
0100
0010
1000
0001
1000
0010
0100
0001
1000
0001
0100
0010
1000
0010
1000
,
0001
0010
0001
1000
0010
0100
0010
1000
0001
1000
0010
0100
0010
1000
0001
1000
,
0010
0100
0001
1000
0001
1000
0100
0010
0001
1000
0100
1000
0001
0100
0010
0100
,
0001
1000
0100
1000
0001
0010
0100
1000
0001
0010
0001
1000
0100
0010
0100
1000
,
0010
0100
0001
1000
0001
1000
0100
0010
0100
0010
0001
1000
0010
0100
0010
1000
,
0100
0010
0001
1000
0001
1000
0010
0100
0001
1000
0001
1000
0010
0100
0010
1000
,
0001
0100
0010
1000
0010
1000
0001
1000
0100
0010
0100
1000
0001
0100
0001
1000
,
0100
0010
0001
1000
0001
0010
0100
1000
0001
1000
0001
0010
0001
1000
0001
1000
,
0010
0100
0001
1000
0001
0100
0010
1000
0001
0100
0010
0100
0001
1000
0001
1000
,
0001
0010
0001
0010
0100
1000
0001
1000
0100
0010
0001
1000
0001
0010
0001
1000
,
0001
0010
0100
1000
0100
1000
0001
0100
0001
0100
0010
1000
0001
0010
0001
0010
,
0100
1000
0100
0010
0001
1000
0001
0100
0010
1000
0001
1000
0010
0100
0001
1000
,
0100
0010
0100
0010
0001
1000
0010
0100
0010
0100
0001
1000
0100
0010
0100
1000
,
0010
0000
1000
0001
1000
0000
0001
0100
0001
0000
0100
0001
1000
0010
0100
0001
,
1000
0000
0001
0010
0001
0000
1000
0100
1000
0000
0100
0010
0001
1000
0001
0100
,
0010
0000
1000
0001
1000
0000
0100
0010
0100
0000
1000
0001
1000
0010
0100
0001
,
1000
0001
0010
0100
1000
0000
0001
0010
0001
1000
0001
0100
0010
1000
0010
0100
,
0001
1000
0001
0010
0100
0000
1000
0001
1000
0010
0100
0001
1000
0001
0100
0010
,
1000
0100
0010
0001
1000
0000
0001
0010
0100
1000
0100
0010
0001
1000
0010
1000
,
0001
0100
0010
1000
0001
0000
1000
0001
0100
0010
1000
0001
0100
0010
1000
0001
,
0010
0100
1000
0001
0010
0000
0100
0010
0001
1000
0100
1000
0001
0100
0010
1000
,
0100
0010
0001
1000
0100
0000
1000
0001
0100
0010
1000
0001
0100
0001
1000
0010
,
0100
0001
1000
0001
0010
0000
0100
1000
0001
1000
0100
0010
0001
1000
0100
1000
,
0001
0010
0100
1000
0001
0000
1000
0100
0010
0001
1000
0100
1000
0001
0010
0100
,
1000
0001
1000
0100
0010
0000
0100
0010
0001
1000
0010
0100
0001
0100
0010
1000
,
0001
0100
0010
1000
0001
0000
1000
0010
0100
0001
1000
0001
0100
0010
1000
0001
,
0100
0010
1000
0001
0100
0000
0001
1000
0100
0010
0001
1000
0100
1000
0001
0010
,
0100
1000
0100
0010
0001
1000
0001
1000
0010
1000
0001
0100
0010
1000
0100
0010
,
0001
0100
0010
0100
0001
0010
0100
1000
0010
0100
0010
1000
0100
0010
0001
0100
,
0020
0000
0000
0000
,
1030
0000
1000
0000
1000
0000
0000
0000
0000
0000
0000
0000
,
1000
0000
1000
0000
1000
0000
0000
0000
0000
0000
0000
0000
,
0100
0000
0100
0000
0100
0000
0000
0000
0000
0000
0000
0000
,
0100
0000
0100
0000
0100
0000
0000
0000
0000
0000
0000
0000
,
0010
0000
0010
0000
0010
0000
0000
0000
0000
0000
0000
0000
,
0010
0000
0010
0000
0010
0000
0000
0000
0000
0000
0000
0000
,
0001
0000
0001
0000
0001
0000
0000
0000
0000
0000
0000
0000
,
0100
0000
0100
0000
0100
0000
0000
0000
0000
0000
0000
0000
,
0001
0000
0001
0000
0001
0000
0000
0000
0000
0000
0000
0000
,
0001
0000
0001
0000
0001
0000
0000
0000
0000
0000
0000
0000
,
0100
0000
0100
0000
0100
0000
0000
0000
0000
0000
0000
0000
,
0100
0000
0100
0000
0100
0000
0000
0000
0000
0000
0000
0000
,
0010
0010
1000
1000
0001
0001
1000
1000
,
0100
0100
0010
0010
0001
0001
1000
1000
,
0010
1000
0010
0100
0001
0100
0010
1000
0100
0010
0001
1000
0010
0100
0001
0010
,
0100
1000
0010
1000
0100
0010
0001
0100
0010
1000
0100
1000
0010
0100
0001
0010
,
0100
0000
0010
0001
0000
0010
0001
0000
,
0000
0001
0010
0001
,
1000
0000
0000
0010
0000
0000
0100
0000
,
0000
0000
0001
1000
,
1100
0000
1000
0001
0000
1000
0001
0000
,
0000
0100
0001
0010
,
0100
0000
0000
1000
0000
0000
0010
0000
,
0000
0010
1000
0010
,
0101
0000
0001
1000
0000
0001
1000
0000
,
0000
0001
0010
0001
,
1000
0000
0000
0010
0000
0000
0100
0000
,
0000
0000
0001
0100
,
1010
0000
1000
0001
0000
1000
0001
0000
,
0000
0010
0001
1000
,
0010
0000
0000
0100
0000
0000
0001
0000
,
0000
0001
1000
0001
,
0200
0000
0000
0020
0000
0000
0000
0000
,
0300
0030
1000
0100
,
0020
0000
0000
0002
0000
0000
0000
0000
,
0000
0000
0033
0000
,
1000
1000
0100
0010
0000
0001
0010
0001
,
0010
0000
0000
0100
0000
0000
1000
0000
,
0001
1000
0001
1000
0010
1000
0001
0100
0010
1000
0001
1000
0100
0010
0001
1000
,
0010
1000
0100
0010
0001
0100
0010
0100
0001
0010
0100
1000
0010
0100
0001
0010
,
0100
0000
1000
0001
1000
0000
0001
0100
0001
0000
0100
0001
1000
0010
0100
0001
,
1000
0000
0001
0010
0001
0000
1000
0100
1000
0000
0100
0010
0001
1000
0001
0100
,
0010
0000
1000
0001
1000
0000
0100
0010
0100
0000
1000
0001
1000
0010
0100
0001
,
1000
0001
0010
0100
1000
0000
0001
0010
0001
1000
0001
0100
0010
1000
0010
0100
,
0001
1000
0001
0010
0100
0000
1000
0001
1000
0010
0100
0001
1000
0001
0100
0010
,
1000
0100
0010
0001
1000
0000
0001
0010
0100
1000
0100
0010
0001
1000
0010
1000
,
0001
0100
0010
1000
0001
0000
1000
0001
0100
0010
1000
0001
0100
0010
1000
0001
,
0010
0100
1000
0001
0010
0000
0100
0010
0001
1000
0100
1000
0001
0100
0010
1000
,
0100
0010
0001
1000
0100
0000
1000
0001
0100
0010
1000
0001
0100
0001
1000
0010
,
0100
0001
1000
0001
0010
0000
0100
1000
0001
1000
0100
0010
0001
1000
0100
1000
,
0001
0010
0100
1000
0001
0000
1000
0100
0010
0001
1000
0100
1000
0001
0010
0100
,
1000
0001
1000
0100
0010
0000
0100
0010
0001
1000
0010
0100
0001
0100
0010
1000
,
0001
0100
0010
1000
0001
0000
1000
0010
0100
0001
1000
0001
0100
0010
1000
0001
,
0100
0010
1000
0001
0100
0000
0001
1000
0100
0010
0001
1000
0100
1000
0001
0010
,
0100
1000
0100
0010
0001
1000
0001
1000
0010
1000
0001
0100
0010
1000
0100
0010
,
0001
0100
0010
0100
0001
0010
0100
1000
0010
0100
0010
1000
0100
0010
0001
0100
,
0010
0000
0000
0000
,
1000
0000
1000
0000
0010
0000
0010
0000
0100
0001
0100
0001
1000
0001
1000
0001
,
0010
0100
0010
0001
1000
0001
1000
0001
0100
0010
1000
0001
1000
0001
0100
0010
,
1000
0001
0100
0001
1000
0100
1000
0001
0100
0010
0100
0001
1000
0100
1000
0001
,
0100
0010
0100
0010
1000
0001
0010
0100
0010
0100
1000
0001
0100
0010
0100
0010
,
1000
0010
0100
0001
1000
0001
0100
0010
1000
0001
1000
0100
0010
0001
0010
0001
,
1000
0010
1000
0001
0100
0010
0100
0010
1000
0001
0100
0010
0100
0010
1000
0001
,
0100
0001
1000
0001
1000
0100
1000
0100
0010
0001
0010
0001
1000
0001
0010
0100
,
1000
0001
1000
0001
0100
0010
1000
0001
1000
0001
0010
0100
1000
0001
1000
0001
,
0100
0010
1000
0001
0100
0001
1000
0010
0100
0010
1000
0001
0100
0001
1000
0100
,
0010
0001
0010
0001
1000
0001
0010
0100
0010
0100
1000
0100
0010
0001
1000
0001
,
0010
0100
1000
0001
1000
0100
1000
0001
1000
0010
1000
0010
0100
0001
0100
0001
,
1000
0100
1000
0001
0010
0100
1000
0001
1000
0010
1000
0001
0100
0010
1000
0001
,
1000
0010
0100
0001
1000
0001
0100
0010
1000
0001
1000
0010
0100
0001
0100
0001
,
1000
0100
1000
0001
0100
0010
0100
0001
1000
0001
0100
0010
0100
0001
1000
0001
,
0100
0010
1000
0001
1000
0001
0010
0100
1000
0001
0010
0001
1000
0010
0100
0010
,
1000
0001
0010
0001
1000
0100
0010
0001
1000
0100
1000
0001
0010
0100
0010
0001
,
1000
0010
1000
0010
0100
0001
0100
0001
1000
0010
1000
0010
1000
0001
1000
0001
,
0010
0100
1000
0001
0100
0001
0100
0001
0010
0100
1000
0001
0100
0001
0100
0001
,
1000
0010
0100
0001
1000
0100
1000
0001
0010
0100
0010
0001
1000
0100
1000
0001
,
0100
0010
0100
0010
1000
0001
0010
0001
0100
0010
0100
0010
1000
0001
0010
0001
,
0100
0010
1000
0001
0010
0100
0010
0001
1000
0010
1000
0010
0100
0001
0100
0001
,
0010
0100
1000
0001
0100
0001
0100
0001
0010
0100
1000
0001
0100
0001
0100
0001
,
1000
0010
0100
0001
0010
0100
0010
0001
1000
0100
1000
0001
0010
0100
0010
0001
,
1000
0100
1000
0100
0010
0001
1000
0001
1000
0010
1000
0010
0100
0001
1000
0100
,
0010
0001
1000
0001
0100
0010
0100
0001
1000
0100
1000
0001
0100
0010
0100
0001
,
0010
0100
0010
0001
1000
0100
1000
0001
0010
0100
0010
0001
1000
0100
1000
0001
,
0100
0010
1000
0010
1000
0001
1000
0001
0100
0010
1000
0001
1000
0001
1000
0100
,
0010
0001
0010
0100
1000
0100
0010
0001
0010
0001
1000
0010
1000
0001
0010
0100
,
1000
0001
0100
0001
1000
0001
0100
0001
1000
0001
1000
0001
1000
0001
1000
0001
,
1000
0100
1000
0100
0010
0001
1000
0001
1000
0100
1000
0100
0010
0001
1000
0001
,
0100
0001
1000
0010
0100
0010
1000
0001
0100
0010
0100
0010
1000
0010
0100
0001
,
1000
0100
1000
0001
0010
0001
1000
0100
0010
0001
1000
0001
0010
0100
1000
0001
,
0100
0010
0100
0001
1000
0100
0010
0001
0010
0100
1000
0001
0100
0010
0100
0001
,
0010
0000
0001
1000
0001
0000
1000
0010
1000
0000
0010
1000
0001
0100
0010
1000
,
0001
0000
1000
0100
1000
0000
0001
0010
0001
0000
0010
0100
1000
0001
1000
0010
,
0100
0000
0001
1000
0001
0000
0010
0100
0010
0000
0001
1000
0001
0100
0010
1000
,
0001
1000
0100
0010
0001
0000
1000
0100
1000
0001
1000
0010
0100
0001
0100
0010
,
1000
0001
1000
0100
0010
0000
0001
1000
0001
0100
0010
1000
0001
1000
0010
0100
,
0001
0010
0100
1000
0001
0000
1000
0100
0010
0001
0010
0100
1000
0001
0100
0001
,
1000
0010
0100
0001
1000
0000
0001
1000
0010
0100
0001
1000
0010
0100
0001
1000
,
0100
0010
0001
1000
0100
0000
0010
0100
1000
0001
0010
0001
1000
0010
0100
0001
,
0010
0100
1000
0001
0010
0000
0001
1000
0010
0100
0001
1000
0010
1000
0001
0100
,
0010
1000
0001
1000
0100
0000
0010
0001
1000
0001
0010
0100
1000
0001
0010
0001
,
1000
0100
0010
0001
1000
0000
0001
0010
0100
1000
0001
0010
0001
1000
0100
0010
,
0001
1000
0001
0010
0100
0000
0010
0100
1000
0001
0100
0010
1000
0010
0100
0001
,
1000
0010
0100
0001
1000
0000
0001
0100
0010
1000
0001
1000
0010
0100
0001
1000
,
0010
0100
0001
1000
0010
0000
1000
0001
0010
0100
1000
0001
0010
0001
1000
0100
,
0010
0001
0010
0100
1000
0001
1000
0001
0100
0001
1000
0010
0100
0001
0010
0100
,
1000
0010
0100
0010
1000
0100
0010
0001
0100
0010
0100
0001
0010
0100
1000
0010
,
1000
0001
1000
0001
1000
0100
0010
0001
0100
0001
0100
0010
1000
0010
0100
0001
,
0010
0100
1000
0001
0010
0001
1000
0100
0010
0001
1000
0001
0100
0010
0100
0001
,
1000
0100
0010
0001
1000
0001
0010
0100
1000
0001
0010
0001
1000
0010
0100
0001
,
0010
0100
0010
0001
1000
0100
0010
0001
1000
0001
0100
0010
1000
0010
0100
0001
,
1000
0001
1000
0100
0010
0001
1000
0001
0100
0010
0100
0010
1000
0010
0100
0001
,
0010
0100
1000
0001
0010
0001
1000
0100
0010
0001
1000
0001
0100
0010
0100
0001
,
1000
0100
0010
0001
1000
0001
0010
0100
1000
0001
0010
0001
1000
0010
0100
0001
,
0010
0100
0010
0001
1000
0100
0010
0001
1000
0001
0100
0010
1000
0010
0100
0001
,
1000
0100
1000
0100
0010
0001
1000
0001
0100
0010
0100
0010
1000
0010
0100
0001
,
0010
0100
1000
0001
0010
0001
1000
0100
0010
0001
1000
0001
0100
0010
0100
0001
,
1000
0100
0010
0001
1000
0001
0010
0100
1000
0001
0010
0001
1000
0010
0100
0001
,
0010
0100
0010
0001
1000
0100
0010
0001
1000
0001
0100
0010
1000
0010
0100
0001
,
1000
0001
0100
0001
1000
0010
1000
0001
0010
0001
1000
0100
1000
0001
0010
0100
,
0010
0001
1000
0001
0010
0100
1000
0001
0010
0001
1000
0100
0010
0001
1000
0001
,
1000
0010
0100
0001
1000
0001
0100
0010
1000
0001
0100
0001
1000
0010
0100
0001
,
0010
0100
0010
0001
0100
0010
0100
0001
1000
0100
0010
0001
1000
0001
1000
0001
,
1000
0010
1000
0010
0100
0001
1000
0001
0010
0100
0010
0100
1000
0100
0010
0001
,
0100
0010
1000
0001
0100
0001
1000
0010
0100
0001
1000
0001
0010
0100
0010
0001
,
1000
0010
0100
0001
1000
0001
0100
0010
1000
0001
0100
0001
1000
0100
0010
0001
,
0100
0010
0100
0001
1000
0010
0100
0001
1000
0001
0010
0100
1000
0100
0010
0001
,
1000
0001
1000
0010
0100
0001
1000
0001
0010
0100
0010
0100
1000
0100
0010
0001
,
0100
0010
1000
0001
0100
0001
1000
0010
0100
0001
1000
0001
0010
0100
0010
0001
,
1000
0010
0100
0001
1000
0001
0100
0010
1000
0001
0100
0001
1000
0100
0010
0001
,
0100
0010
0100
0001
1000
0010
0100
0001
1000
0001
0010
0100
1000
0100
0010
0001
,
1000
0010
1000
0010
0100
0001
1000
0001
0010
0100
0010
0100
1000
0100
0010
0001
,
0100
0010
1000
0001
0100
0001
1000
0010
0100
0001
1000
0001
0010
0100
0010
0001
,
1000
0010
0100
0001
1000
0001
0100
0010
1000
0001
0100
0001
1000
0100
0010
0001
,
0100
0010
0100
0001
1000
0010
0100
0001
1000
0001
0010
0100
1000
0100
0010
0001
,
1000
0001
0010
0001
1000
0100
1000
0001
0100
0001
1000
0010
1000
0001
0100
0010
,
0100
0001
1000
0001
0100
0010
1000
0001
0100
0001
1000
0010
0100
0001
1000
0001
,
1000
0100
0010
0001
1000
0001
0010
0100
1000
0001
0010
0001
1000
0100
0010
0001
,
0100
0010
0100
0001
0010
0100
0010
0001
1000
0010
0100
0001
0010
0001
0100
0010
,
2000
0000
0000
3000
;

//---------------dance-single - 17- (TYLR)----------------
#NOTES:
     dance-single:
     17- (TYLR):
     Challenge:
     17:
     1.000,1.000,0.182,0.057,1.000,3059.000,58.000,18.000,15.000,0.000:
0000
0000
0000
0000
,
1001
0000
0001
0000
0100
0000
0010
1000
0001
1000
0001
0000
0010
0000
0001
0000
,
0010
0000
0100
0000
1000
0000
0001
1000
0010
1000
0010
0000
0100
0000
0010
0000
,
0100
0000
0001
0000
1000
0000
0001
0010
0100
0010
0100
0000
1000
0000
0100
0000
,
1000
0000
0001
0000
0100
0000
0010
1000
0001
1000
0001
0000
0010
0000
0001
0000
,
0010
0000
0100
0000
1000
0000
0100
0010
0001
0010
0001
0000
1000
0000
0001
0000
,
1000
0000
0010
0000
0100
0000
0010
1000
0001
1000
0001
0000
0100
0000
0010
0000
,
0100
0000
0001
0000
0010
0000
0001
1000
0010
1000
0010
0000
0100
0000
0010
0000
,
0100
0000
0000
0000
0000
0000
0001
0000
1000
0000
0001
0000
1000
0000
0000
0000
0000
0000
0001
0000
1000
0000
0001
0000
1000
0000
0000
0010
0000
0000
0100
0000
0000
0001
0000
0000
1000
0000
0000
0000
0000
0000
0001
0000
0000
0000
0000
0000
,
1001
0000
1000
0000
0100
0000
0010
0001
1000
0001
1000
0000
0010
0000
1000
0000
,
0010
0000
0100
0000
0001
0000
1000
0001
0010
0001
0010
0000
0100
0000
0010
0000
,
0100
0000
1000
0000
0010
0000
1000
0010
0100
0010
0100
0000
0001
0000
0100
0000
,
0001
0000
0000
0000
1000
0000
0000
0000
0100
0000
0000
0000
1000
0000
0001
0000
0100
0000
0001
0000
0100
0000
0000
0000
M010
M000
M000
M000
M100
M000
M000
M000
,
M010
0000
1000
0000
0100
0000
1000
0001
0100
0001
0100
0000
0010
0000
0100
0000
,
0010
0000
1000
0000
0001
0000
1000
0001
0010
0001
0010
0000
0100
0000
0010
0000
,
0100
0000
1000
0000
0001
0000
1000
0100
0010
0100
0010
0000
0001
0000
0010
0000
,
0001
0000
1000
0000
0010
0000
0100
0001
1000
0001
1000
0001
4000
0000
3100
0000
,
0110
0000
0010
0000
0001
0000
1000
0001
0100
0001
0100
0000
0010
0000
0100
0000
,
0010
0000
1000
0000
0001
0000
1000
0100
0010
0100
0010
0000
0001
0000
0010
0000
,
0001
0000
1000
0000
0010
0000
0100
0001
1000
0001
1000
0000
0100
0000
1000
0000
,
0100
0000
0010
0000
0001
0000
1000
0001
0100
0001
0100
0000
0010
0000
0100
0000
,
0010
0000
1000
0000
0001
0000
0100
0010
1000
0010
1000
0000
0001
0000
1000
0000
,
0001
0000
0010
0000
0100
0000
0010
0001
1000
0001
1000
0000
0010
0000
1000
0000
,
0010
0000
0100
0000
0001
0000
1000
0001
0100
0001
0100
0000
0010
0000
0100
0000
,
0010
0000
1000
0000
0001
0000
1000
0000
0001
0000
1000
0100
0040
0000
0031
0000
,
1001
0000
1000
0000
0100
0000
0010
0001
1000
0001
1000
0000
0010
0000
1000
0000
,
0010
0000
0100
0000
0010
0000
1000
0001
0010
0001
0010
0000
0100
0000
0010
0000
,
0100
0000
1000
0000
0001
0000
0100
0001
1000
0010
1000
0000
0001
0000
1000
0000
,
0001
0000
0100
0000
0010
0000
1000
0001
0100
0001
1000
0000
0100
0000
1000
0000
,
0100
0000
0010
0000
0001
0000
0010
0100
1000
0001
1000
0000
0010
0000
1000
0000
,
0010
0000
0100
0000
0001
0000
0100
0010
1000
0001
1000
0000
0010
0000
1000
0000
,
0010
0000
0100
0000
0001
0000
1000
0001
0010
0100
0010
0000
0001
0000
0010
0000
,
0001
0000
1000
0000
0001
0000
1000
0000
0001
1000
0001
0000
1000
0000
0001
0000
,
1000
0100
1000
0100
0010
0001
1000
0001
0100
0010
0100
0010
1000
0010
0100
0001
,
0010
0100
1000
0001
0010
0001
1000
0100
0010
0001
1000
0001
0100
0010
0100
0001
,
1000
0100
0010
0001
1000
0001
0010
0100
1000
0001
0010
0001
1000
0010
0100
0001
,
0010
0100
0010
0001
1000
0100
0010
0001
1000
0001
0100
0010
1000
0010
0100
0001
,
1000
0001
1000
0100
0010
0001
1000
0001
0100
0010
0100
0010
1000
0010
0100
0001
,
0010
0100
1000
0001
0010
0001
1000
0100
0010
0001
1000
0001
0100
0010
0100
0001
,
1000
0100
0010
0001
1000
0001
0010
0100
1000
0001
0010
0001
1000
0010
0100
0001
,
0010
0100
0010
0001
1000
0100
0010
0001
1000
0001
0100
0010
1000
0100
0010
0001
,
1000
0100
1000
0100
0010
0001
1000
0001
0100
0010
0100
0010
1000
0010
0100
0001
,
0010
0100
1000
0001
0010
0001
1000
0100
0010
0001
1000
0001
0100
0010
0100
0001
,
1000
0100
0010
0001
1000
0001
0010
0100
1000
0001
0010
0001
1000
0010
0100
0001
,
0010
0100
0010
0001
1000
0100
0010
0001
1000
0001
0100
0010
1000
0010
0100
0001
,
1000
0001
0100
0001
1000
0010
1000
0001
0010
0001
1000
0100
1000
0001
0010
0100
,
0010
0001
1000
0001
0010
0100
1000
0001
0010
0001
1000
0100
0010
0001
1000
0001
,
1000
0010
0100
0001
1000
0001
0100
0010
1000
0001
0100
0001
1000
0010
0100
0001
,
0010
0100
0010
0001
0100
0010
0100
0001
1000
0100
0010
0001
0100
0001
0010
0100
,
1000
0010
1000
0010
0100
0001
1000
0001
0010
0100
0010
0100
1000
0100
0010
0001
,
0100
0010
1000
0001
0100
0001
1000
0010
0100
0001
1000
0001
0010
0100
0010
0001
,
1000
0010
0100
0001
1000
0001
0100
0010
1000
0001
0100
0001
1000
0100
0010
0001
,
0100
0010
0100
0001
1000
0010
0100
0001
1000
0001
0010
0100
1000
0100
0010
0001
,
1000
0001
1000
0010
0100
0001
1000
0001
0010
0100
0010
0100
1000
0100
0010
0001
,
0100
0010
1000
0001
0100
0001
1000
0010
0100
0001
1000
0001
0010
0100
0010
0001
,
1000
0010
0100
0001
1000
0001
0100
0010
1000
0001
0100
0001
1000
0100
0010
0001
,
0100
0010
0100
0001
1000
0010
0100
0001
1000
0001
0010
0100
1000
0010
0100
0001
,
1000
0010
1000
0010
0100
0001
1000
0001
0010
0100
0010
0100
1000
0100
0010
0001
,
0100
0010
1000
0001
0100
0001
1000
0010
0100
0001
1000
0001
0010
0100
0010
0001
,
1000
0010
0100
0001
1000
0001
0100
0010
1000
0001
0100
0001
1000
0100
0010
0001
,
0100
0010
0100
0001
1000
0010
0100
0001
1000
0001
0010
0100
1000
0100
0010
0001
,
1000
0001
0010
0001
1000
0100
1000
0001
0100
0001
1000
0010
1000
0001
0100
0010
,
0100
0001
1000
0001
0100
0010
1000
0001
0100
0001
1000
0010
0100
0001
1000
0001
,
1000
0100
0010
0001
1000
0001
0010
0100
1000
0001
0010
0001
1000
0100
0010
0001
,
0100
0010
0100
0001
0010
0100
0010
0001
1000
0010
0100
0001
1000
0001
1000
0001
,
0100
0000
0100
0000
0000
0000
0100
0000
0000
0000
0100
0001
0100
0001
0100
0001
,
1000
0000
0001
0010
0100
0000
1000
0001
0100
0000
0001
0010
0001
0000
0100
0010
,
1000
0000
0001
0010
0100
0000
1000
0001
0010
0000
0100
1000
0001
0000
1000
0010
,
2000
3000
0000
0000
0000
0000
0000
0000
0001
0000
0000
0000
0100
0000
0000
0000
0010
0000
0000
0000
0000
0000
0000
0000
1000
0000
0000
0000
0010
0000
0000
0000
0100
0000
0000
0000
0000
0000
0000
0000
0001
0000
0000
0000
1000
0000
0000
0000
0001
0000
0000
0000
0000
0000
0000
0000
0010
0000
0000
0000
0100
0000
0000
0000
,
1000
0000
0000
0000
0000
0000
0000
0000
1000
0000
0000
0000
0000
0000
0000
0000
0001
0000
0000
0000
0000
0000
0000
0000
1000
0000
0000
0000
0100
0000
0000
0000
0010
0000
0000
0000
0000
0000
0000
0000
0001
0000
0000
0000
1000
0000
0000
0000
0020
0030
0000
0000
0000
0000
0000
0000
0020
0030
0000
0000
0000
0000
0000
0000
,
0020
0030
0000
0000
0000
0000
0000
0000
0100
0000
0000
0000
0001
0000
0000
0000
1000
0000
0000
0000
0000
0000
0000
0000
0001
0000
0000
0000
0100
0000
0000
0000
0010
0000
0000
0000
0000
0000
0000
0000
1000
0000
0000
0000
0010
0000
0000
0000
0100
0000
0000
0000
0000
0000
0000
0000
0001
0000
0000
0000
1000
0000
0000
0000
,
0100
0000
0010
0001
0010
0000
0100
1000
0001
0000
1000
0100
0010
0000
0001
1000
,
0020
0030
0000
0000
0000
0000
0000
0000
0100
0000
0000
0000
0001
0000
0000
0000
1000
0000
0000
0000
0000
0000
0000
0000
0001
0000
0000
0000
0100
0000
0000
0000
0010
0000
0000
0000
0000
0000
0000
0000
1000
0000
0000
0000
0001
0000
0000
0000
0100
0000
0000
0000
0000
0000
0000
0000
0001
0000
0000
0000
1000
0000
0000
0000
,
0100
0000
0000
0000
0100
0000
0000
0000
0021
0030
0000
0000
0001
0000
1000
0000
0100
0000
0000
0000
1000
0000
0000
0000
1020
0030
0000
0000
0010
0000
0000
0000
,
1020
0030
0000
0000
1000
0000
0000
0000
0100
0000
0000
0000
0010
0000
0000
0000
0001
0000
0000
0000
0010
0000
0000
0000
0100
0000
0000
0000
1000
0000
0000
0000
,
0010
0010
0100
0001
0100
0010
1000
0001
,
0020
0030
0000
0000
0000
0000
0000
0000
0001
0000
0000
0000
0000
0000
0000
0000
0100
0000
0000
0000
0000
0000
0000
0000
0010
0000
0000
0000
0000
0000
0000
0000
1000
0000
0000
0000
0000
0000
0000
0000
0010
0000
0000
0000
0000
0000
0000
0000
0100
0000
0000
0000
0000
0000
0000
0000
0001
0000
0000
0000
0000
0000
0000
0000
,
0010
0000
0000
0000
0000
0000
0000
0000
0010
0000
0000
0000
0000
0000
0000
0000
0100
0000
0000
0000
0000
0000
0000
0000
1000
0000
0000
0000
0000
0000
0000
0000
0001
0000
0000
0000
0000
0000
0000
0000
0100
0000
0000
0000
0000
0000
0000
0000
0020
0030
0000
0000
0000
0000
0000
0000
0020
0030
0000
0000
0000
0000
0000
0000
,
0020
0030
0000
0000
0000
0000
0000
0000
1000
0000
0000
0000
0000
0000
0000
0000
0100
0000
0000
0000
0000
0000
0000
0000
1000
0000
0000
0000
0000
0000
0000
0000
0001
0000
0000
0000
0000
0000
0000
0000
1000
0000
0000
0000
0000
0000
0000
0000
0100
0000
0000
0000
0000
0000
0000
0000
1000
0000
0000
0000
0000
0000
0000
0000
,
0001
0100
0001
0100
0010
1000
0010
1000
0001
1000
0010
0100
0001
0010
0100
1000
,
0010
0100
0010
1000
0100
0010
0100
1000
0010
0100
0001
0010
0100
1000
0010
0100
,
M000
0000
00M0
0000
0M00
0000
000M
0000
M000
0000
000M
0000
0001
1000
0001
1000
,
0010
0100
0001
1000
0001
0100
0010
1000
0001
0010
0001
1000
0001
0010
0100
1000
,
0001
1000
0001
0100
0001
1000
0010
0100
0001
1000
0100
1000
0001
0010
0100
1000
,
0001
0100
0001
1000
0100
0010
0001
1000
0010
0100
0010
1000
0001
0100
0001
1000
,
0100
0010
0001
1000
0001
0010
0100
1000
0001
0100
0010
1000
0001
0100
0010
1000
,
0001
0010
0001
1000
0100
0010
0001
1000
0001
0100
0010
1000
0001
1000
0010
0100
,
0001
1000
0001
0010
0100
1000
0001
0010
0001
1000
0010
0100
0001
1000
0010
0100
,
0001
1000
0001
0100
0010
1000
0001
1000
0100
0010
0100
1000
0001
0010
0001
1000
,
0010
1000
0001
0100
0010
1000
0001
1000
0001
0010
0001
1000
0010
0100
0010
1000
,
0100
0010
0001
1000
0001
0100
0010
1000
0001
0010
0001
1000
0010
0100
0010
1000
,
0010
0100
0001
1000
0100
0010
0001
1000
0001
0100
0001
1000
0100
0010
0100
1000
,
0001
0010
0001
1000
0001
0100
0010
1000
0001
1000
0010
0100
0001
0010
0100
1000
,
0001
0010
0100
1000
0001
0100
0001
1000
0100
0010
0100
1000
0010
0100
0001
1000
,
0010
0100
0001
1000
0100
1000
0001
0100
0010
1000
0001
1000
0010
0100
0001
1000
,
0100
0010
0001
1000
0001
0010
0100
1000
0001
0100
0010
1000
0001
0010
0100
1000
,
0010
0100
0001
1000
0100
0010
0100
1000
0010
0100
0001
0010
0100
1000
0010
0100
,
0001
0010
0001
0100
0010
1000
0100
0010
0100
1000
0010
0100
0001
0010
0100
1000
,
0001
0000
0100
0000
0001
0000
1000
0100
1000
0100
0010
0000
0001
0010
0001
0010
,
0100
0000
1000
0000
1001
0000
0001
1000
0100
1000
0100
0000
0010
0001
0010
0001
,
1000
0000
0010
0000
1000
0000
0100
0010
0100
0010
0001
0000
1000
0001
1000
0001
,
0100
0000
0010
0000
1000
0000
0010
0100
0001
0000
1000
0000
0001
0000
0001
0000
,
1001
0000
1000
0000
0010
0000
0100
0001
0100
0001
1000
0000
0001
0010
0001
0010
,
0100
0000
1000
0000
1001
0000
0001
0010
0100
1000
0100
0000
0010
0001
0010
0001
,
0100
0000
0010
0000
1000
0000
0010
0100
0001
1000
0001
0000
0010
0001
1000
0001
,
0100
0010
1010
0000
0101
0000
1010
1000
,
1100
0000
0100
0000
0010
0000
0001
0010
0001
0010
0100
0000
1000
0001
1000
0001
,
0100
0000
0010
0000
1000
0000
0010
0100
0001
1000
0001
0000
0010
0100
0010
0100
,
1000
0000
0001
0000
0010
0000
0001
1000
0001
1000
0010
0000
0100
0001
0100
0001
,
1000
0000
0100
0000
0010
0000
0100
1000
0100
1000
0001
0000
0010
0100
0010
0100
,
1000
0000
1000
0000
0001
0000
0100
0010
0100
0010
1000
0000
0010
1000
0010
1000
,
0001
0000
0100
0000
0010
0000
0100
0001
1000
0100
1000
0000
0010
0100
0010
0100
,
0001
0000
1000
0000
0100
0000
1000
0001
0010
0100
0010
0000
0001
1000
0001
1000
,
0010
0000
0100
0000
0001
0000
0010
0100
0010
0000
0001
0000
0101
0000
0100
0000
,
1010
0000
0010
0000
0100
0000
0001
0100
0001
1000
0001
0000
0010
0100
0010
0001
,
1000
0000
0001
0000
0100
0000
0010
1000
0010
0100
0001
0000
1000
0001
1000
0100
,
0010
0000
0001
0000
1000
0000
0001
0010
0001
0010
0100
0000
1000
0001
1000
0001
,
0100
0000
0010
0000
1000
0000
0010
0100
0001
0000
1000
0000
0001
0000
0001
0000
,
0010
0000
0010
0000
0100
0000
1000
0000
0001
0100
0001
0000
1000
0000
0001
0000
,
0100
0000
0010
0000
1000
0000
0100
1000
0100
1000
0001
0000
0010
0100
0010
0001
,
1000
0100
1000
0100
0010
0001
0010
0001
1000
0001
0100
0001
1000
0100
0010
0001
,
0100
0001
0010
0100
1000
0010
0100
0010
1000
0100
0010
0001
0100
0010
1000
0001
,
0010
0000
0001
0000
0100
0000
0001
1000
0010
0000
1000
0001
0010
0100
1000
0001
,
0010
0000
0100
0000
1000
0000
0001
0100
0010
0000
1000
0001
0100
0001
1000
0010
,
0100
0000
0001
0000
1000
0000
0100
0010
0001
0000
0010
0100
1000
0001
0010
0001
,
1000
0000
0100
0000
0010
0000
0100
1000
0001
0000
0100
0001
0010
0100
1000
0001
,
0100
0000
0010
0000
1000
0000
0010
0100
0001
0000
1000
0001
0100
0010
1000
0001
,
1000
0000
0100
0000
0010
0000
0100
1000
0001
0000
0100
0001
0010
0100
1000
0001
,
0100
0000
0001
0000
1000
0000
0100
0010
0001
0000
0010
0100
1000
0001
0100
0001
,
0010
0000
0100
0000
1000
0000
0100
0010
0001
0000
1000
0001
0010
0100
1000
0010
,
0100
0000
0001
0000
1000
0000
0001
0100
0010
0000
1000
0001
0100
0001
1000
0010
,
0100
0000
0001
0000
1000
0000
0100
1000
0001
0000
1000
0100
0010
0001
1000
0001
,
0010
0000
0001
0000
1000
0000
0010
0100
0001
0000
1000
0001
0100
0010
1000
0001
,
1000
0000
0100
0000
0010
0000
0100
1000
0010
0000
0100
0001
0010
0001
0100
0010
,
1000
0000
0001
0000
0100
0000
0001
1000
0100
0000
0010
0001
1000
0001
0010
0100
,
1000
0000
0001
0000
0010
0000
0001
1000
0100
0000
1000
0001
0010
0001
0100
0001
,
0010
0100
1000
0001
0100
0001
1000
0010
0100
0001
0100
0001
0010
0100
1000
0001
,
0100
0001
0010
0100
1000
0010
0100
0010
1000
0100
0010
0001
0100
0010
1000
0100
,
0020
0000
0000
0000
,
0031
0000
0001
0000
0000
0000
0000
0000
0000
0000
0000
0000
,
0001
0000
0001
0000
0000
0000
0000
0000
0000
0000
0000
0000
,
0010
0000
0010
0000
0000
0000
0000
0000
0000
0000
0000
0000
,
0010
0000
0010
0000
0000
0000
0000
0000
0000
0000
0000
0000
,
0100
0000
0100
0000
0000
0000
0000
0000
0000
0000
0000
0000
,
0100
0000
0100
0000
0000
0000
0000
0000
0000
0000
0000
0000
,
1000
0000
1000
0000
0000
0000
0000
0000
0000
0000
0000
0000
,
0010
0000
0010
0000
0000
0000
0000
0000
0000
0000
0000
0000
,
1000
0000
1000
0000
0000
0000
0000
0000
0000
0000
0000
0000
,
1000
0000
1000
0000
0000
0000
0000
0000
0000
0000
0000
0000
,
0010
0000
0010
0000
0000
0000
0000
0000
0000
0000
0000
0000
,
0010
0000
0010
0000
0000
0000
0000
0000
0000
0000
0000
0000
,
0100
0100
0001
0001
1000
1000
0001
0001
,
0010
0010
0100
0100
1000
1000
0001
0001
,
0100
0001
0100
0010
1000
0010
0100
0001
0010
0100
1000
0001
0100
0010
1000
0100
,
0010
0001
0100
0001
0010
0100
1000
0010
0100
0001
0010
0001
0100
0010
1000
0100
,
0010
0000
0100
1000
0000
0100
1000
0000
,
0000
1000
0100
1000
,
0001
0000
0000
0100
0000
0000
0010
0000
,
0000
0000
1000
0001
,
0011
0000
0001
1000
0000
0001
1000
0000
,
0000
0010
1000
0100
,
0010
0000
0000
0001
0000
0000
0100
0000
,
0000
0100
0001
0100
,
1010
0000
1000
0001
0000
1000
0001
0000
,
0000
1000
0100
1000
,
0001
0000
0000
0100
0000
0000
0010
0000
,
0000
0000
1000
0010
,
0101
0000
0001
1000
0000
0001
1000
0000
,
0000
0100
1000
0001
,
0100
0000
0000
0010
0000
0000
1000
0000
,
0000
1000
0001
1000
,
0020
0000
0000
0200
0000
0000
0000
0000
,
0030
0000
0301
0010
,
0200
0000
0000
2000
0000
0000
0000
0000
,
0000
0000
3300
0000
,
0001
0001
0010
0100
0000
1000
0100
1000
,
0100
0000
0000
0010
0000
0000
0001
0000
,
1000
0001
1000
0001
0100
0001
1000
0010
0100
0001
1000
0001
0010
0100
1000
0001
,
0100
0001
0010
0100
1000
0010
0100
0010
1000
0100
0010
0001
0100
0010
1000
0100
,
0010
0001
1000
0010
,
0100
0001
1000
0100
,
1000
0001
0100
0010
,
1000
0010
0100
0001
,
1000
0100
1000
0001
,
0010
0001
1000
0010
,
0100
0010
1000
0001
,
0010
0000
0100
1000
0001
0000
0100
0000
,
1010
0001
0010
0100
,
1000
0100
0010
0001
,
1000
0010
0100
0001
,
0010
0001
0100
0010
,
1000
0010
0100
0001
1000
0001
0100
0010
,
1000
0001
1000
0100
0010
0001
0100
0001
,
1000
0100
1000
0100
0010
0001
0010
0001
0100
0001
1000
0010
0100
0001
0010
0100
,
1000
0010
0100
0010
1000
0100
0010
0001
0100
0010
0100
0001
0010
0100
1000
0010
,
0100
0000
0000
0000
,
0001
0000
0001
0000
0100
0000
0100
0000
0010
1000
0010
1000
0001
1000
0001
1000
,
0100
0000
0010
0000
0001
0000
0010
0100
0010
0100
1000
0000
0001
1000
0001
1000
,
0100
0000
0010
0000
0011
0000
0001
0010
0100
1000
0100
0000
0010
0001
0010
0001
,
0100
0000
0001
0000
1000
0000
0010
0100
0010
0100
0001
0000
0010
0100
0010
0100
,
1000
0000
0001
0000
0100
0000
0001
1000
0100
0000
0010
0000
0001
0000
0001
0000
,
1001
0000
1000
0000
0010
0000
0100
0001
0100
0001
1000
0000
0100
0010
0100
0010
,
0001
0000
1000
0000
1010
0000
0010
0100
0001
0100
0001
0000
1000
0100
1000
0100
,
0010
0000
0001
0000
0100
0000
0001
1000
0100
0010
0001
0000
0100
0010
0100
0010
,
1000
0001
0101
0000
1010
0000
0101
0001
,
0011
0000
0010
0000
0100
0000
1000
0100
1000
0100
0010
0000
0001
1000
0001
1000
,
0010
0000
0100
0000
0001
0000
0100
0010
1000
0001
1000
0000
0100
0010
0100
0010
,
0001
0000
1000
0000
0100
0000
1000
0001
1000
0001
0100
0000
0010
1000
0010
1000
,
0001
0000
0010
0000
0100
0000
0010
0001
0010
0001
1000
0000
0100
0010
0100
0010
,
0001
0000
0001
0000
1000
0000
0010
0100
0010
0100
0001
0000
0100
0001
0100
0001
,
1000
0000
0010
0000
0100
0000
0010
1000
0001
1000
0001
0000
0010
0100
0010
0100
,
1000
0000
0001
0000
0010
0000
0001
1000
0100
0010
0100
0000
1000
0001
1000
0001
,
0100
0000
0100
0000
0001
0000
0001
0000
1000
0010
1000
0010
1000
0010
1000
0010
,
0100
0001
1000
1000
0110
0001
1000
1000
,
0100
0000
0010
0000
0011
0000
0001
1000
0001
0100
0001
0000
1000
0010
1000
0010
,
0100
0100
0001
1000
0100
0100
0010
0100
,
1000
0001
0100
0010
1000
1000
0010
0010
,
0110
1000
0001
0001
0110
1000
0001
0001
,
0010
0000
0100
0000
1100
0000
1000
0001
0100
0001
0100
0000
0010
0000
0010
0000
,
1001
0001
0100
0010
1001
1001
0100
0010
,
1000
0000
0011
0000
1100
1000
0011
0001
,
1001
0000
1000
0000
0010
0000
0100
0001
1000
0000
1000
0000
0010
0000
0100
0000
,
0101
0001
1000
0001
0101
0100
0010
1000
,
1100
0000
0100
0000
0010
0000
0001
0000
1100
0000
0000
1100
0000
0000
1100
0000
,
1001
0001
0100
0010
1000
1000
1000
1000
,
1001
0001
0010
0100
1001
0001
0010
0100
,
1100
1000
0001
0010
1100
1100
0100
0010
,
0011
0000
0001
0000
1000
0000
0010
1000
0001
0100
0010
1000
0001
0000
1000
0000
,
1100
0100
0010
1001
0001
0100
0110
0010
,
1001
0000
0001
0000
0010
0000
0001
1000
0100
0000
1000
0001
0100
0010
1000
0001
,
0100
0000
0010
0000
1000
0000
0001
0010
0100
0000
1000
0001
0010
0001
1000
0100
,
0010
0000
0001
0000
1000
0000
0010
0100
0001
0000
0100
0010
1000
0001
0100
0001
,
1000
0000
0010
0000
0100
0000
0010
1000
0001
0000
0010
0001
0100
0001
1000
0001
,
0010
0000
0100
0000
1000
0000
0100
0010
0001
0000
1000
0001
0010
0100
1000
0001
,
1000
0000
0010
0000
0100
0000
0010
1000
0001
0000
0010
0001
1000
0001
0010
0100
,
1000
0000
0001
0000
0100
0000
0001
1000
0100
0000
0010
0001
1000
0001
0010
0001
,
0100
0000
0010
0000
1000
0000
0010
0100
0001
0000
1000
0001
0100
0010
1000
0100
,
0010
0000
0001
0000
1000
0000
0001
0010
0100
0000
1000
0001
0010
0001
1000
0100
,
0010
0000
0001
0000
1000
0000
0010
1000
0001
0000
1000
0010
0100
0001
1000
0001
,
0100
0000
0001
0000
1000
0000
0100
0010
0001
0000
1000
0001
0010
0100
1000
0001
,
1000
0000
0010
0000
0100
0000
0010
1000
0100
0000
0010
0001
0100
0001
0010
0100
,
1000
0000
0001
0000
0010
0000
0001
1000
0010
0000
0100
0001
1000
0001
0100
0010
,
1000
0000
0001
0000
0100
0000
0001
1000
0010
0000
1000
0001
0100
0001
0010
0001
,
0100
0010
1000
0001
0010
0001
1000
0100
0010
0001
0010
0001
0100
0010
1000
0001
,
1000
0100
1000
0010
0100
0001
0010
0100
0010
0001
0100
0010
1000
0100
0010
0001
,
1000
0001
1000
0001
1000
0100
0010
0001
0100
0001
0100
0010
1000
0010
0100
0001
,
0010
0100
1000
0001
0010
0001
1000
0100
0010
0001
1000
0001
0100
0010
0100
0001
,
1000
0100
0010
0001
1000
0001
0010
0100
1000
0001
0010
0001
1000
0010
0100
0001
,
0010
0100
0010
0001
1000
0100
0010
0001
1000
0001
0100
0010
1000
0010
0100
0001
,
1000
0001
1000
0100
0010
0001
1000
0001
0100
0010
0100
0010
1000
0010
0100
0001
,
0010
0100
1000
0001
0010
0001
1000
0100
0010
0001
1000
0001
0100
0010
0100
0001
,
1000
0100
0010
0001
1000
0001
0010
0100
1000
0001
0010
0001
1000
0010
0100
0001
,
0010
0100
0010
0001
1000
0100
0010
0001
1000
0001
0100
0010
1000
0010
0100
0001
,
1000
0100
1000
0100
0010
0001
1000
0001
0100
0010
0100
0010
1000
0010
0100
0001
,
0010
0100
1000
0001
0010
0001
1000
0100
0010
0001
1000
0001
0100
0010
0100
0001
,
1000
0100
0010
0001
1000
0001
0010
0100
1000
0001
0010
0001
1000
0010
0100
0001
,
0010
0100
0010
0001
1000
0100
0010
0001
1000
0001
0100
0010
1000
0010
0100
0001
,
1000
0001
0100
0001
1000
0010
1000
0001
0010
0001
1000
0100
1000
0001
0010
0100
,
0010
0001
1000
0001
0010
0100
1000
0001
0010
0001
1000
0100
0010
0001
1000
0001
,
1000
0010
0100
0001
1000
0001
0100
0010
1000
0001
0100
0001
1000
0010
0100
0001
,
0010
0100
0010
0001
0100
0010
0100
0001
1000
0100
0010
0001
1000
0001
1000
0001
,
1000
0010
1000
0010
0100
0001
1000
0001
0010
0100
0010
0100
1000
0100
0010
0001
,
0100
0010
1000
0001
0100
0001
1000
0010
0100
0001
1000
0001
0010
0100
0010
0001
,
1000
0010
0100
0001
1000
0001
0100
0010
1000
0001
0100
0001
1000
0100
0010
0001
,
0100
0010
0100
0001
1000
0010
0100
0001
1000
0001
0010
0100
1000
0100
0010
0001
,
1000
0001
1000
0010
0100
0001
1000
0001
0010
0100
0010
0100
1000
0100
0010
0001
,
0100
0010
1000
0001
0100
0001
1000
0010
0100
0001
1000
0001
0010
0100
0010
0001
,
1000
0010
0100
0001
1000
0001
0100
0010
1000
0001
0100
0001
1000
0100
0010
0001
,
0100
0010
0100
0001
1000
0010
0100
0001
1000
0001
0010
0100
1000
0100
0010
0001
,
1000
0010
1000
0010
0100
0001
1000
0001
0010
0100
0010
0100
1000
0100
0010
0001
,
0100
0010
1000
0001
0100
0001
1000
0010
0100
0001
1000
0001
0010
0100
0010
0001
,
1000
0010
0100
0001
1000
0001
0100
0010
1000
0001
0100
0001
1000
0100
0010
0001
,
0100
0010
0100
0001
1000
0010
0100
0001
1000
0001
0010
0100
1000
0100
0010
0001
,
1000
0001
0010
0001
1000
0100
1000
0001
0100
0001
1000
0010
1000
0001
0100
0010
,
0100
0001
1000
0001
0100
0010
1000
0001
0100
0001
1000
0010
0100
0001
1000
0001
,
1000
0100
0010
0001
1000
0001
0010
0100
1000
0001
0010
0001
1000
0100
0010
0001
,
0100
0010
0100
0001
0010
0100
0010
0001
1000
0010
0100
0001
0010
0001
0100
0010
,
2000
0000
0000
3000
;

//---------------dance-single - 14+ (TYLR)----------------
#NOTES:
     dance-single:
     14+ (TYLR):
     Hard:
     14:
     1.000,1.000,0.214,0.066,1.000,2668.000,68.000,21.000,24.000,0.000:
0000
0000
0000
0000
,
1001
0000
0001
0000
0100
0000
0010
1000
0001
1000
0001
0000
0010
0000
0001
0000
,
0010
0000
0100
0000
1000
0000
0001
1000
0010
1000
0010
0000
0100
0000
0010
0000
,
0100
0000
0001
0000
1000
0000
0001
0010
0100
0010
0100
0000
1000
0000
0100
0000
,
1000
0000
0001
0000
0100
0000
0010
1000
0001
1000
0001
0000
0010
0000
0001
0000
,
0010
0000
0100
0000
1000
0000
0100
0010
0001
0010
0001
0000
1000
0000
0001
0000
,
1000
0000
0010
0000
0100
0000
0010
1000
0001
1000
0001
0000
0100
0000
0010
0000
,
0100
0000
0001
0000
0010
0000
0001
1000
0010
1000
0010
0000
0100
0000
0010
0000
,
0100
0000
0004
0000
1003
0000
0004
0000
1003
0010
0100
0001
1000
0000
0001
0000
,
1001
0000
1000
0000
0100
0000
0010
0001
1000
0001
1000
0000
0010
0000
1000
0000
,
0010
0000
0100
0000
0001
0000
1000
0001
0010
0001
0010
0000
0100
0000
0010
0000
,
0100
0000
1000
0000
0010
0000
1000
0010
0100
0010
0100
0000
0001
0000
0100
0000
,
0001
0000
0000
0000
1000
0000
0000
0000
0100
0000
0000
0000
1000
0000
0001
0000
0100
0000
0001
0000
0100
0000
0000
0000
M010
M000
M000
M000
M100
M000
M000
M000
,
M010
0000
1000
0000
0100
0000
1000
0001
0100
0001
0100
0000
0010
0000
0100
0000
,
0010
0000
1000
0000
0001
0000
1000
0001
0010
0001
0010
0000
0100
0000
0010
0000
,
0100
0000
1000
0000
0001
0000
1000
0100
0010
0100
0010
0000
0001
0000
0010
0000
,
0001
0000
1000
0000
0010
0000
0100
0001
1000
0001
1000
0001
4000
0000
3100
0000
,
0110
0000
0010
0000
0001
0000
1000
0001
0100
0001
0100
0000
0010
0000
0100
0000
,
0010
0000
1000
0000
0001
0000
1000
0100
0010
0100
0010
0000
0001
0000
0010
0000
,
0001
0000
1000
0000
0010
0000
0100
0001
1000
0001
1000
0000
0100
0000
1000
0000
,
0100
0000
0010
0000
0001
0000
1000
0001
0100
0001
0100
0000
0010
0000
0100
0000
,
0010
0000
1000
0000
0001
0000
0100
0010
1000
0010
1000
0000
0001
0000
1000
0000
,
0001
0000
0010
0000
0100
0000
0010
0001
1000
0001
1000
0000
0010
0000
1000
0000
,
0010
0000
0100
0000
0001
0000
1000
0001
0100
0001
0100
0000
0010
0000
0100
0000
,
0010
0000
1000
0000
0001
0000
1000
0000
0001
0000
1000
0100
0040
0000
0031
0000
,
1001
0000
1000
0000
0100
0000
0010
0001
1000
0001
1000
0000
0010
0000
1000
0000
,
0010
0000
0100
0000
0010
0000
1000
0001
0010
0001
0010
0000
0100
0000
0010
0000
,
0100
0000
1000
0000
0001
0000
0100
0001
1000
0010
1000
0000
0001
0000
1000
0000
,
0001
0000
0100
0000
0010
0000
1000
0001
0100
0001
1000
0000
0100
0000
1000
0000
,
0100
0000
0010
0000
0001
0000
0010
0100
1000
0001
1000
0000
0010
0000
1000
0000
,
0010
0000
0100
0000
0001
0000
0100
0010
1000
0001
1000
0000
0010
0000
1000
0000
,
0010
0000
0100
0000
0001
0000
1000
0001
0010
0100
0010
0000
0001
0000
0010
0000
,
0001
0000
1000
0000
0001
0000
1000
0000
0001
1000
0001
0000
1000
0000
0001
0000
,
1000
0100
1000
0000
0001
0010
0001
0000
0100
0010
0100
0000
0001
0100
0010
1000
,
0001
1000
0100
0000
0010
0001
0010
0000
0100
1000
0100
0000
0010
0001
1000
0001
,
0100
0010
1000
0000
0001
0100
0001
0000
1000
0001
1000
0000
0001
1000
0100
0010
,
0001
1000
0001
0000
1000
0010
1000
0000
0001
0100
0001
0000
0010
0001
1000
0100
,
0010
0001
1000
0000
0001
0100
0001
0000
1000
0100
1000
0000
0001
0010
0100
1000
,
0010
0100
0001
0000
1000
0001
1000
0000
0001
0100
0001
0000
1000
0010
0100
0001
,
0010
0100
1000
0000
0001
0010
0001
0000
1000
0100
1000
0000
0001
0010
0100
1000
,
0001
0000
0100
0000
0010
0000
0000
0000
1000
0000
0010
0000
1000
0000
0000
0000
0001
0000
0010
0000
0001
0000
0000
0000
0400
0300
0004
0003
0400
0300
0004
0003
,
1000
0001
1000
0000
0001
0010
0001
0000
0100
0010
0100
0000
0010
1000
0001
1000
,
0010
0100
0001
0000
1000
0001
1000
0000
0100
0010
0100
0000
1000
0001
0010
0100
,
1000
0001
0100
0000
0010
1000
0010
0000
0100
0001
0100
0000
0001
1000
0001
0010
,
0100
1000
0001
0000
1000
0100
1000
0000
0001
0010
0001
0000
1000
0001
0100
0010
,
1000
0001
0100
0000
0001
1000
0001
0000
1000
0100
1000
0000
0001
0010
0100
1000
,
0001
0100
0010
0000
1000
0010
1000
0000
0001
0100
0001
0000
1000
0100
1000
0001
,
0100
0010
1000
0000
0001
0100
0001
0000
0010
0100
0010
0000
0001
1000
0001
0010
,
0100
0000
1000
0000
0001
0000
0000
0000
0100
0000
0001
0000
0100
0000
0000
0000
0010
0000
1000
0000
0010
0000
0100
0000
0004
0003
0040
0030
0004
0003
0040
0030
,
0100
1000
0001
0000
1000
0100
0010
0000
0001
1000
0001
0000
1000
0010
0100
0001
,
1000
0001
0010
0000
0100
1000
0001
0000
0010
0001
1000
0000
0001
0100
0010
1000
,
0001
1000
0010
0000
0100
0001
1000
0000
0001
1000
0100
0000
0010
0100
1000
0001
,
0100
0010
1000
0000
0010
0100
0001
0000
0010
0100
1000
0000
0001
1000
0100
0010
,
0001
1000
0001
0000
0100
0010
1000
0000
0001
1000
0010
0000
0100
0001
1000
0001
,
0010
0100
1000
0000
0001
0010
0001
0000
1000
0001
0100
0000
0010
1000
0001
1000
,
0100
0010
0001
0000
1000
0001
0010
0000
0100
1000
0001
0000
1000
0001
0100
0010
,
1000
0000
0100
0000
0010
0000
0000
0000
0001
0000
1000
0000
0010
0000
0000
0000
1000
0000
0001
0000
0010
0000
0000
0000
0400
0300
4000
3000
0400
0300
4000
3000
,
0001
0100
0010
0000
1000
0001
0100
0000
0001
1000
0100
0000
0010
0001
1000
0001
,
0100
0010
1000
0000
0001
1000
0010
0000
0100
0001
0010
0000
0100
1000
0001
0100
,
0010
1000
0001
0000
0010
0100
1000
0000
0010
0100
0001
0000
1000
0100
0010
0001
,
0100
0010
1000
0000
0001
0100
0010
0000
0100
0001
1000
0000
0100
0010
0001
1000
,
0001
0100
0010
0000
1000
0010
0100
0000
0001
1000
0100
0000
0010
0100
1000
0010
,
0100
0001
1000
0000
0100
0010
0001
0000
0100
0010
1000
0000
0001
0010
0100
1000
,
0010
0100
0001
0000
1000
0100
0010
0000
0001
1000
0010
0000
0100
0001
0010
0100
,
1000
0001
0100
0000
0010
1000
0001
0000
0010
0100
1000
0000
0010
0100
0001
0000
,
1000
0000
1000
0000
0000
0000
1000
0000
0000
0000
1000
0001
1000
0001
1000
0001
,
1000
0000
0001
0010
0100
0000
1000
0001
0100
0000
0001
0010
0001
0000
0100
0010
,
1000
0000
0001
0010
0100
0000
1000
0001
0010
0000
0100
1000
0001
0000
1000
0010
,
2000
3000
0000
0000
0000
0000
0000
0000
0001
0000
0000
0000
0100
0000
0000
0000
0010
0000
0000
0000
0000
0000
0000
0000
1000
0000
0000
0000
0010
0000
0000
0000
0100
0000
0000
0000
0000
0000
0000
0000
0001
0000
0000
0000
1000
0000
0000
0000
0001
0000
0000
0000
0000
0000
0000
0000
0010
0000
0000
0000
0100
0000
0000
0000
,
1000
0000
0000
0000
0000
0000
0000
0000
1000
0000
0000
0000
0000
0000
0000
0000
0001
0000
0000
0000
0000
0000
0000
0000
1000
0000
0000
0000
0100
0000
0000
0000
0010
0000
0000
0000
0000
0000
0000
0000
0001
0000
0000
0000
1000
0000
0000
0000
0020
0030
0000
0000
0000
0000
0000
0000
0020
0030
0000
0000
0000
0000
0000
0000
,
0020
0030
0000
0000
0000
0000
0000
0000
0100
0000
0000
0000
0001
0000
0000
0000
1000
0000
0000
0000
0000
0000
0000
0000
0001
0000
0000
0000
0100
0000
0000
0000
0010
0000
0000
0000
0000
0000
0000
0000
1000
0000
0000
0000
0010
0000
0000
0000
0100
0000
0000
0000
0000
0000
0000
0000
0001
0000
0000
0000
1000
0000
0000
0000
,
0100
0000
0010
0001
0010
0000
0100
1000
0001
0000
1000
0100
0010
0000
0001
1000
,
0020
0030
0000
0000
0000
0000
0000
0000
0100
0000
0000
0000
0001
0000
0000
0000
1000
0000
0000
0000
0000
0000
0000
0000
0001
0000
0000
0000
0100
0000
0000
0000
0010
0000
0000
0000
0000
0000
0000
0000
1000
0000
0000
0000
0001
0000
0000
0000
0100
0000
0000
0000
0000
0000
0000
0000
0001
0000
0000
0000
1000
0000
0000
0000
,
0100
0000
0100
0000
0020
0030
0100
1000
0001
0000
0001
0000
0200
0300
0010
0000
,
0200
0300
0001
0000
0010
0000
0100
0000
1000
0000
0100
0000
0010
0000
0001
0000
,
0100
0100
0010
1000
0010
0100
0001
1000
,
0200
0300
0000
0000
0000
0000
0000
0000
1000
0000
0000
0000
0000
0000
0000
0000
0010
0000
0000
0000
0000
0000
0000
0000
0100
0000
0000
0000
0000
0000
0000
0000
0001
0000
0000
0000
0000
0000
0000
0000
0100
0000
0000
0000
0000
0000
0000
0000
0010
0000
0000
0000
0000
0000
0000
0000
1000
0000
0000
0000
0000
0000
0000
0000
,
0100
0000
0000
0000
0000
0000
0000
0000
0100
0000
0000
0000
0000
0000
0000
0000
0010
0000
0000
0000
0000
0000
0000
0000
0001
0000
0000
0000
0000
0000
0000
0000
1000
0000
0000
0000
0000
0000
0000
0000
0010
0000
0000
0000
0000
0000
0000
0000
0200
0300
0000
0000
0000
0000
0000
0000
0200
0300
0000
0000
0000
0000
0000
0000
,
0200
0300
0000
0000
0000
0000
0000
0000
0001
0000
0000
0000
0000
0000
0000
0000
0010
0000
0000
0000
0000
0000
0000
0000
0001
0000
0000
0000
0000
0000
0000
0000
1000
0000
0000
0000
0000
0000
0000
0000
0001
0000
0000
0000
0000
0000
0000
0000
0010
0000
0000
0000
0000
0000
0000
0000
0001
0000
0000
0000
0000
0000
0000
0000
,
1000
0010
1000
0010
0100
0001
0100
0001
1000
0001
0100
0010
1000
0100
0010
0001
,
4000
0004
0000
0000
0000
0000
0000
0000
0000
0000
0000
0000
0000
0000
0000
0000
0000
0000
0000
0000
0000
0000
0000
0000
,
3M03
0000
00M0
0000
0M00
0000
000M
0000
0000
0000
M000
0000
1000
0001
1000
0001
,
0100
0010
1000
0000
0001
0000
1000
0000
0001
0010
0001
0000
0100
0010
1000
0000
,
0001
0010
0100
0000
1000
0000
0100
0000
0010
0001
0010
0000
0100
1000
0010
0000
,
0100
0001
1000
0000
0010
0000
1000
0000
0001
1000
0001
0000
0010
0100
1000
0000
,
0010
0100
0001
0000
1000
0000
0001
0000
0100
0010
0100
0000
0001
1000
0100
0000
,
0010
0001
1000
0000
0010
0000
1000
0000
0001
0010
0001
0000
1000
0100
0010
0000
,
0001
1000
0010
0000
0100
0000
0010
0000
1000
0001
1000
0000
0100
0010
0001
0000
,
0100
0010
1000
0000
0001
0000
1000
0000
0010
0100
0010
0000
1000
0001
0010
0000
,
0100
1000
0001
0000
0010
0000
0001
0000
1000
0010
1000
0000
0100
0010
0100
1000
,
0020
0130
0001
0000
1000
0000
0001
0000
0100
0010
0100
0000
0001
1000
0001
0100
,
0010
1000
0001
0000
0010
0000
0001
0000
1000
0100
1000
0000
0001
0100
0001
1000
,
0100
0010
0001
0000
1000
0000
0001
0000
0010
0100
0010
0000
0001
1000
0001
0100
,
0001
1000
0010
0000
0100
0000
0010
0000
1000
0001
1000
0000
0100
0010
0100
1000
,
0010
0100
0001
0000
1000
0000
0001
0000
0100
0010
0100
0000
0001
1000
0001
0010
,
0100
1000
0001
0000
0010
0000
0001
0000
1000
0010
1000
0000
0001
0010
0001
0100
,
0020
1030
0010
0100
0001
1000
0001
1000
0100
0010
0001
0100
0010
1000
0100
0010
,
0004
4000
0000
0000
0000
0000
0000
0000
0000
0000
0000
0000
0000
0000
0000
0000
0000
0000
0000
0000
0000
3003
0000
0000
,
1010
0000
0010
0000
1000
0000
0001
0010
0001
0010
0100
0000
1000
0100
1000
0100
,
0010
0000
0001
0000
1001
0000
1000
0001
0010
0001
0010
0000
0100
1000
0100
1000
,
0001
0000
0100
0000
0001
0000
0010
0100
0010
0100
1000
0000
0001
1000
0001
1000
,
0010
0000
0100
0000
0001
0000
0100
0010
1000
0000
0001
0000
1000
0000
1000
0000
,
1001
0000
0001
0000
0100
0000
0010
1000
0010
1000
0001
0000
1000
0100
1000
0100
,
0010
0000
0001
0000
1001
0000
1000
0100
0010
0001
0010
0000
0100
1000
0100
1000
,
0010
0000
0100
0000
0001
0000
0100
0010
1000
0001
1000
0000
0100
1000
0001
1000
,
0010
0100
0101
0000
1010
0000
0101
0001
,
0011
0000
0010
0000
0100
0000
1000
0100
1000
0100
0010
0000
0001
1000
0001
1000
,
0010
0000
0100
0000
0001
0000
0100
0010
1000
0001
1000
0000
0100
0010
0100
0010
,
0001
0000
1000
0000
0100
0000
1000
0001
1000
0001
0100
0000
0010
1000
0010
1000
,
0001
0000
0010
0000
0100
0000
0010
0001
0010
0001
1000
0000
0100
0010
0100
0010
,
0001
0000
0001
0000
1000
0000
0010
0100
0010
0100
0001
0000
0100
0001
0100
0001
,
1000
0000
0010
0000
0100
0000
0010
1000
0001
0010
0001
0000
0100
0010
0100
0010
,
1000
0000
0001
0000
0010
0000
0001
1000
0100
0010
0100
0000
1000
0001
1000
0001
,
0100
0000
0010
0000
1000
0000
0100
0010
0100
0000
1000
0000
1010
0000
0010
0000
,
0101
0000
0100
0000
0010
0000
1000
0010
1000
0001
1000
0000
0100
0010
0100
1000
,
0001
0000
1000
0000
0010
0000
0100
0001
0100
0010
1000
0000
0001
1000
0001
0010
,
0100
0000
1000
0000
0001
0000
1000
0100
1000
0100
0010
0000
0001
1000
0001
1000
,
0010
0000
0100
0000
0001
0000
0100
0010
1000
0000
0001
0000
1000
0000
1000
0000
,
0100
0000
0100
0000
0010
0000
0001
0000
1000
0010
1000
0000
0001
0000
1000
0000
,
0010
0000
0100
0000
0001
0000
0010
0001
0010
0001
1000
0000
0100
0010
0100
1000
,
0001
0010
0001
0010
0100
1000
0100
1000
0001
1000
0010
1000
0001
0010
0100
1000
,
0040
4000
0000
0000
0000
0000
0000
0000
0000
0000
0000
0000
0000
0000
0000
0000
0000
0000
0000
0000
0000
0000
0000
3030
,
0101
0000
0001
0000
0010
0000
0001
1000
0100
0000
1000
0001
0100
0010
1000
0001
,
0100
0000
0010
0000
1000
0000
0001
0010
0100
0000
1000
0001
0010
0001
1000
0100
,
0010
0000
0001
0000
1000
0000
0010
0100
0001
0000
0100
0010
1000
0001
0100
0001
,
1000
0000
0010
0000
0100
0000
0010
1000
0001
0000
0010
0001
0100
0010
1000
0001
,
0010
0000
0100
0000
1000
0000
0100
0010
0001
0000
1000
0001
0010
0100
1000
0001
,
1000
0000
0010
0000
0100
0000
0010
1000
0001
0000
0010
0001
0100
0010
1000
0001
,
0010
0000
0001
0000
1000
0000
0010
0100
0001
0000
0100
0010
1000
0001
0010
0001
,
0100
0000
0010
0000
1000
0000
0010
0100
0001
0000
1000
0001
0100
0010
1000
0100
,
0010
0000
0001
0000
1000
0000
0001
0010
0100
0000
1000
0001
0010
0001
1000
0100
,
0010
0000
0001
0000
1000
0000
0010
1000
0001
0000
1000
0010
0100
0001
1000
0001
,
0100
0000
0001
0000
1000
0000
0100
0010
0001
0000
1000
0001
0010
0100
1000
0001
,
1000
0000
0010
0000
0100
0000
0010
1000
0100
0000
0010
0001
0100
0001
0010
0100
,
1000
0000
0001
0000
0010
0000
0001
1000
0010
0000
0100
0001
1000
0001
0100
0010
,
1000
0000
0001
0000
0100
0000
0001
1000
0010
0000
1000
0001
0100
0001
0010
0001
,
0100
0010
1000
0001
0010
0001
1000
0100
0010
0001
0010
0001
0100
0010
1000
0001
,
4000
0004
0000
0000
0000
0000
0000
0000
0000
0000
0000
0000
0000
0000
0000
0000
0000
0000
0000
0000
0000
0000
0000
0000
,
3M03
00M0
0M00
00M0
0M00
00M0
0M00
00M0
,
0001
0000
0001
0000
0000
0000
0000
0000
0000
0000
0000
0000
,
0001
0000
0001
0000
0000
0000
0000
0000
0000
0000
0000
0000
,
0010
0000
0010
0000
0000
0000
0000
0000
0000
0000
0000
0000
,
0010
0000
0010
0000
0000
0000
0000
0000
0000
0000
0000
0000
,
0100
0000
0100
0000
0000
0000
0000
0000
0000
0000
0000
0000
,
0100
0000
0100
0000
0000
0000
0000
0000
0000
0000
0000
0000
,
1000
0000
1000
0000
0000
0000
0000
0000
0000
0000
0000
0000
,
0010
0000
0010
0000
0000
0000
0000
0000
0000
0000
0000
0000
,
1000
0000
1000
0000
0000
0000
0000
0000
0000
0000
0000
0000
,
1000
0000
1000
0000
0000
0000
0000
0000
0000
0000
0000
0000
,
0010
0000
0010
0000
0000
0000
0000
0000
0000
0000
0000
0000
,
0010
0000
0010
0000
0000
0000
0000
0000
0000
0000
0000
0000
,
0100
0100
0001
0001
1000
1000
0001
0001
,
0010
0010
0100
0100
1000
1000
0001
0001
,
0100
0001
0100
0010
1000
0010
0100
0001
0010
0100
1000
0001
0100
0010
1000
0100
,
0040
0004
0000
0000
0000
0000
0000
0000
0000
0000
0000
0000
0000
0000
0000
0000
0000
0000
0000
0000
0000
0000
0033
0000
,
1100
0000
1000
0001
0000
1000
0001
0000
,
0000
1000
0010
1000
,
0001
0000
0000
0010
0000
0000
0100
0000
,
0000
0000
1000
0100
,
0011
0000
1000
0001
0000
1000
0001
0000
,
0000
0100
0001
0010
,
0100
0000
0000
1000
0000
0000
0010
0000
,
0000
0010
1000
0010
,
M2M2
0303
0000
0000
0000
0000
0000
0000
0001
0000
0000
0000
1000
0000
0000
0000
0000
0000
0000
0000
0001
0000
0000
0000
1000
0000
0000
0000
0000
0000
0000
0000
,
0000
0001
0010
0001
,
1000
0000
0000
0010
0000
0000
0100
0000
,
0000
0000
0001
0100
,
1010
0000
1000
0001
0000
1000
0001
0000
,
0000
0010
0001
1000
,
0010
0000
0000
0100
0000
0000
0001
0000
,
0000
0001
1000
0001
,
0200
0000
0000
0020
0000
0000
0000
0000
,
0300
0000
1030
0100
,
0020
0000
0000
0002
0000
0000
0000
0000
,
0000
0000
0033
0000
,
1000
1000
0100
0010
0000
0001
0010
0001
,
0010
0000
0000
0100
0000
0000
1000
0000
,
0001
1000
0001
1000
0010
1000
0001
0100
0010
1000
0001
1000
0100
0010
0001
1000
,
0040
4000
0000
0000
0000
0000
0000
0000
0000
0000
0000
0000
0000
0000
0000
0000
0000
0000
0000
0000
0000
0000
0000
0030
,
3001
1000
0001
0100
,
0010
1000
0001
0010
,
0001
1000
0010
0100
,
0001
0100
0010
1000
,
0001
0010
0001
1000
,
0100
1000
0001
0100
,
0010
0100
0001
1000
,
0100
0000
0010
0001
1000
0000
0010
0000
,
0101
1000
0100
0010
,
0001
0010
0100
1000
,
0001
0100
0010
1000
,
0100
1000
0010
0100
,
0001
0100
0010
1000
0001
1000
0010
0100
,
0001
1000
0001
0010
0100
1000
0010
1000
,
0001
0010
0001
0010
0100
1000
0100
1000
0010
1000
0001
0100
0010
1000
0100
0010
,
0004
4000
0000
0000
0000
0000
0000
0000
0000
0000
0000
0000
0000
0000
0000
0000
0000
0000
0000
0000
0000
0000
0000
0000
,
3003
0000
0000
0000
,
1000
0000
1000
0000
0010
0000
0010
0000
0100
0001
0100
0001
1000
0001
1000
0001
,
0010
0000
0100
0000
1000
0000
0100
0010
0100
0010
0001
0000
1000
0001
1000
0001
,
0010
0000
0100
0000
1100
0000
1000
0100
0010
0001
0010
0000
0100
1000
0100
1000
,
0010
0000
1000
0000
0001
0000
0100
0010
0100
0010
1000
0000
0100
0010
0100
0010
,
0001
0000
1000
0000
0010
0000
1000
0001
0010
0000
0100
0000
1000
0000
1000
0000
,
1001
0000
0001
0000
0100
0000
0010
1000
0010
1000
0001
0000
0010
0100
0010
0100
,
1000
0000
0001
0000
0101
0000
0100
0010
1000
0010
1000
0000
0001
0010
0001
0010
,
0100
0000
1000
0000
0010
0000
1000
0001
0010
0100
1000
0000
0010
0100
0010
0100
,
0001
1000
1010
0000
0101
0000
1010
1000
,
1100
0000
0100
0000
0010
0000
0001
0010
0001
0010
0100
0000
1000
0001
1000
0001
,
0100
0000
0010
0000
1000
0000
0010
0100
0001
1000
0001
0000
0010
0100
0010
0100
,
1000
0000
0001
0000
0010
0000
0001
1000
0001
1000
0010
0000
0100
0001
0100
0001
,
1000
0000
0100
0000
0010
0000
0100
1000
0100
1000
0001
0000
0010
0100
0010
0100
,
1000
0000
1000
0000
0001
0000
0100
0010
0100
0010
1000
0000
0010
1000
0010
1000
,
0001
0000
0100
0000
0010
0000
0100
0001
1000
0001
1000
0000
0100
0010
0100
0010
,
0001
0000
1000
0000
0100
0000
1000
0001
0010
0100
0010
0000
0001
1000
0001
1000
,
0010
0000
0010
0000
1000
0000
1000
0000
0001
0100
0001
0100
0001
0100
0001
0100
,
0010
1000
0001
0001
0110
1000
0001
0001
,
0010
0000
0100
0000
1100
0000
1000
0001
1000
0010
1000
0000
0001
0100
0001
0100
,
0010
0010
1000
0001
0010
0010
0100
0010
,
0001
1000
0010
0100
0001
0001
0100
0100
,
0110
0001
1000
1000
0110
0001
1000
1000
,
0100
0000
0010
0000
0011
0000
0001
1000
0010
1000
0010
0000
0100
0000
0100
0000
,
1001
1000
0010
0100
1001
1001
0010
0100
,
0001
0000
1100
0000
0011
0001
1100
1000
,
1001
0000
0001
0000
0100
0000
0010
1000
0001
0000
0001
0000
0100
0000
0010
0000
,
1010
1000
0001
1000
1010
0010
0100
0001
,
0011
0000
0010
0000
0100
0000
1000
0000
0011
0000
0000
0011
0000
0000
0011
0000
,
1001
1000
0010
0100
0001
0001
0001
0001
,
1001
1000
0100
0010
1001
1000
0100
0010
,
0011
0001
1000
0100
0011
0011
0010
0100
,
1100
0000
1000
0000
0001
0000
0100
0001
1000
0010
0100
0001
1000
0000
0001
0000
,
0011
0010
0100
1001
1000
0001
0101
0100
,
1010
0000
1000
0000
0001
0000
1000
0001
0010
0000
0001
1000
0010
0100
0001
1000
,
0010
0000
0100
0000
0001
0000
1000
0100
0010
0000
0001
1000
0100
1000
0001
0010
,
0100
0000
1000
0000
0001
0000
0100
0010
1000
0000
0010
0100
0001
1000
0010
1000
,
0001
0000
0100
0000
0010
0000
0100
0001
1000
0000
0100
1000
0010
1000
0001
1000
,
0100
0000
0010
0000
0001
0000
0010
0100
1000
0000
0001
1000
0100
0010
0001
1000
,
0001
0000
0100
0000
0010
0000
0100
0001
1000
0000
0100
1000
0001
1000
0100
0010
,
0001
0000
1000
0000
0010
0000
1000
0001
0010
0000
0100
1000
0001
1000
0100
1000
,
0010
0000
0100
0000
0001
0000
0100
0010
1000
0000
0001
1000
0010
0100
0001
0010
,
0100
0000
1000
0000
0001
0000
1000
0100
0010
0000
0001
1000
0100
1000
0001
0010
,
0100
0000
1000
0000
0001
0000
0100
0001
1000
0000
0001
0100
0010
1000
0001
1000
,
0010
0000
1000
0000
0001
0000
0010
0100
1000
0000
0001
1000
0100
0010
0001
1000
,
0001
0000
0100
0000
0010
0000
0100
0001
0010
0000
0100
1000
0010
1000
0100
0010
,
0001
0000
1000
0000
0100
0000
1000
0001
0100
0000
0010
1000
0001
1000
0010
0100
,
0001
0000
1000
0000
0010
0000
1000
0001
0100
0000
0001
1000
0010
1000
0100
1000
,
0010
0100
0001
1000
0100
1000
0001
0010
0100
1000
0100
1000
0010
0100
0001
1000
,
0004
0040
0000
0000
0000
0000
0000
0000
0000
0000
0000
0000
0000
0000
0000
0000
0000
0000
0000
0000
0000
0000
0003
0000
,
0130
1000
0100
0000
0010
0001
0010
0000
0001
0100
0001
0000
1000
0010
0100
0001
,
1000
0001
0010
0000
0100
1000
0100
0000
0010
0001
0010
0000
0100
1000
0001
1000
,
0010
0100
0001
0000
1000
0010
1000
0000
0001
1000
0001
0000
1000
0001
0010
0100
,
1000
0001
1000
0000
0001
0100
0001
0000
1000
0010
1000
0000
0100
1000
0001
0010
,
0100
1000
0001
0000
1000
0010
1000
0000
0001
0010
0001
0000
1000
0100
0010
0001
,
0100
0010
1000
0000
0001
1000
0001
0000
1000
0010
1000
0000
0001
0100
0010
1000
,
0100
0010
0001
0000
1000
0100
1000
0000
0001
0010
0001
0000
1000
0100
0010
0001
,
1000
0010
0100
0000
0001
0100
0001
0000
1000
0100
1000
0000
0010
1000
0010
1000
,
0001
1000
0001
0000
1000
0100
1000
0000
0010
0100
0010
0000
0100
0001
1000
0001
,
0100
0010
1000
0000
0001
1000
0001
0000
0010
0100
0010
0000
0001
1000
0100
0010
,
0001
1000
0010
0000
0100
0001
0100
0000
0010
1000
0010
0000
1000
0001
1000
0100
,
0010
0001
1000
0000
0001
0010
0001
0000
1000
0100
1000
0000
0001
1000
0010
0100
,
0001
1000
0010
0000
1000
0001
1000
0000
0001
0010
0001
0000
1000
0100
0010
0001
,
1000
0010
0100
0000
0001
0100
0001
0000
1000
0010
1000
0000
0001
0010
0001
1000
,
0010
0100
0001
0100
0010
1000
0001
1000
0001
0010
0100
1000
0001
1000
0100
1000
,
0001
0010
0001
0010
0100
1000
0100
1000
0001
0100
0001
0100
0010
1000
0010
1000
,
0001
1000
0100
0000
0010
0001
1000
0000
0001
1000
0001
0000
1000
0010
0100
0001
,
1000
0001
0010
0000
0100
1000
0001
0000
0010
0001
1000
0000
0001
0100
0010
1000
,
0001
1000
0010
0000
0100
0001
1000
0000
0001
1000
0100
0000
0010
0100
1000
0001
,
0100
0010
1000
0000
0010
0100
0001
0000
0010
0100
1000
0000
0001
1000
0100
0010
,
0001
1000
0001
0000
0100
0010
1000
0000
0001
1000
0010
0000
0100
0001
1000
0001
,
0010
0100
1000
0000
0001
0010
0001
0000
1000
0001
0100
0000
0010
1000
0001
1000
,
0100
0010
0001
0000
1000
0001
0010
0000
0100
1000
0001
0000
1000
0001
0100
0010
,
1000
0100
0010
0000
0001
1000
0010
0000
1000
0001
0010
0000
0100
1000
0100
1000
,
0001
0100
0010
0000
1000
0001
0100
0000
0001
1000
0100
0000
0010
0001
1000
0001
,
0100
0010
1000
0000
0001
1000
0010
0000
0100
0001
0010
0000
0100
1000
0001
0100
,
0010
1000
0001
0000
0010
0100
1000
0000
0010
0100
0001
0000
1000
0100
0010
0001
,
0100
0010
1000
0000
0001
0100
0010
0000
0100
0001
1000
0000
0100
0010
0001
1000
,
0001
0100
0010
0000
1000
0010
0100
0000
0001
1000
0100
0000
0010
0100
1000
0010
,
0100
0001
1000
0000
0100
0010
0001
0000
0100
0010
1000
0000
0001
0010
0100
1000
,
0010
0100
0001
0100
0010
1000
0001
1000
0100
0010
0100
1000
0001
0010
0100
1000
,
0010
0100
0010
1000
0100
0010
0100
1000
0001
0100
0001
1000
0100
0010
0100
1000
,
0002
0000
0000
0003
;
