#TITLE:Cry For Eternity;
#SUBTITLE:Inhuman Rampage;
#ARTIST:Dragonforce;
#TITLETRANSLIT:;
#SUBTITLETRANSLIT:;
#ARTISTTRANSLIT:;
#CREDIT:;
#BANNER:cryfetbanner.bmp;
#BACKGROUND:spheres_09_terms_of_eternity.jpg;
#LYRICSPATH:;
#CDTITLE:;
#MUSIC:Copy of DragonForce - 06 - Cry For Eternity.mp3;
#OFFSET:0.000;
#SAMPLESTART:113.000;
#SAMPLELENGTH:26.000;
#SELECTABLE:YES;
#BPMS:0.000=140.000,96.667=200.000,141.000=200.000;
#STOPS:;
#BGCHANGES:;
// cache tags:
#FIRSTBEAT:0.500;
#LASTBEAT:1587.333;
#SONGFILENAME:Songs/CMDKDF Pack/Cry For Eternity/cryfe.sm;
#HASMUSIC:1;
#HASBANNER:1;
#MUSICLENGTH:492.669;
// end cache tags

//---------------dance-single - ----------------
#NOTES:
     dance-single:
     :
     Hard:
     13:
     1.000,1.000,1.000,0.771,1.000,3739.000,571.000,380.000,0.000,10.000:

0000
0000
1001
0000
0200
0320
2030
3002
2003
3002
0203
0320
0230
0320
0230
0302
,
0203
0320
0230
0320
0230
2300
3020
2030
3020
0230
0320
2030
3200
0320
0032
0023
,
0230
2300
3200
0320
0032
0023
0230
2300
3020
0230
0302
0023
0230
2300
3200
0320
,
0230
0320
0230
0302
0203
0302
0023
0230
0320
0032
2003
3020
2030
3020
0230
0302
,
0023
0230
2300
3200
0320
0230
2300
3200
0320
0032
0023
0230
0302
0203
0320
0032
,
0023
0230
0320
0032
0023
0230
0320
0230
2300
3200
0320
2030
3002
2003
3200
0320
,
0032
2003
3200
0320
0230
0302
0023
0032
0203
0320
0230
0302
0203
0302
0023
0230
,
0320
0032
0023
0230
2300
3200
0320
0032
2003
3200
0320
0230
2300
3200
0320
0032
,
2003
3100
0110
0000
1000
0010
1000
0010
1000
0010
1001
0000
0010
0100
0010
0100
,
0010
0100
0110
0000
0001
1000
0001
1000
0001
1000
0110
0000
0100
0001
0100
0001
,
0100
0001
1100
0000
1000
0010
1000
0010
1000
0010
0101
0000
1000
0100
0010
0001
,
1000
0100
0011
0000
0100
0010
0100
1000
0100
0010
1100
0000
0100
1000
0100
1000
,
0100
0010
0101
0000
0010
0100
0010
0100
0001
0100
1010
0000
1000
0001
0100
0010
,
1000
0001
0110
0000
1000
0010
0100
0001
1000
0010
1100
0000
0010
0100
0001
0100
,
0010
1000
0101
0000
1000
0010
0100
0001
0010
0100
1001
0000
1000
0100
0010
0100
,
0010
0100
1001
0000
0001
0010
0100
1000
0001
0010
0101
0000
0100
0010
1000
0001
,
0100
0010
1100
0000
0010
0100
0001
0010
0100
0010
1001
0000
0100
0010
0001
0010
,
0100
0100
0110
0000
0001
0100
0001
0100
0001
0001
1001
0000
0001
0010
0100
1000
,
0010
0100
0101
0000
1000
0100
0010
0001
1000
0010
0101
0000
0010
0100
0001
0010
,
0100
1000
0110
0000
0001
0010
0100
1000
0010
1000
0110
0000
0001
0010
0100
0001
,
0100
0010
1001
0000
1000
0100
0010
1000
0010
0100
1001
0000
1000
0100
0010
0100
,
1000
0100
0110
0000
0001
0010
0100
0010
0001
0010
1100
0000
0100
0100
0001
0001
,
0100
0100
1001
0000
1000
0001
1000
0001
1000
0001
1100
0000
0010
0100
0010
0100
,
0010
0100
1001
0000
0010
0100
1000
0100
0010
0100
0110
0000
0001
0010
0001
0010
,
1001
0000
0110
0000
0000
1001
0000
0000
0010
0000
0000
0000
1000
0000
0100
0000
0010
0000
0000
0000
1000
0000
0000
0000
0100
0000
0000
0000
1000
0000
0000
0000
,
0010
1000
0010
1000
0000
0001
0100
0001
,
0000
0000
0010
0000
0100
0010
0100
0000
0010
0000
0100
0000
0010
0000
1000
0000
,
0100
0000
1000
0000
0000
0020
0000
0030
2000
3000
0002
0000
0000
0000
0000
0000
,
0000
0000
1003
0000
0100
0010
0100
0000
0001
0000
1000
0000
0010
0000
1000
0000
,
0100
0000
2020
3000
0030
0100
1000
0100
1000
0100
1000
0020
0000
0130
1000
0100
,
1000
0100
0000
0010
0001
0010
0001
0010
0001
0100
0010
0100
0010
0001
0100
0001
,
0010
0000
0000
0100
0000
0000
0010
0000
0000
0001
0000
0000
1000
0000
0000
0100
0000
0000
0010
0000
0000
0100
0000
0000
0010
0000
0000
0100
0000
0000
1000
0000
0000
0100
0000
0000
0010
0000
0100
0000
0010
0000
0100
0000
0000
0000
0000
0000
,
1001
0000
0010
0100
0010
0000
0101
0000
1000
0010
0100
0000
1001
0000
0010
0100
,
1000
0000
0110
0000
0100
0001
0010
0000
0101
0000
0100
0010
1000
0000
1001
0000
,
0100
0010
0100
0000
0101
0000
1000
0010
0001
0000
1100
0000
0100
0010
1000
0000
,
1010
0000
0100
1000
0100
0000
0110
0000
0100
1000
0010
0000
0101
0000
1000
0010
,
0100
0000
0011
0000
1000
0100
0010
0000
1100
0000
0100
1000
0010
0000
0101
0000
,
0010
0001
0100
0000
1100
0000
0001
0010
0100
0000
0011
1000
0000
0001
0000
0010
,
0000
0100
0000
2000
0000
0000
0000
0000
0000
3002
0000
0000
0000
0000
0000
2003
,
0000
0000
0000
3000
0010
0000
1000
0000
0200
0000
0000
0000
0000
0000
0000
0000
,
0000
0000
1000
0300
0010
0000
0010
0000
1000
0000
0100
0000
1000
0000
0010
0000
,
1000
0100
1000
0010
0100
0001
0010
0100
,
0010
0001
0010
0100
1010
0101
1000
0100
,
1000
0010
1000
0100
0010
0001
0010
0100
,
0000
0001
0010
0100
1000
0100
0010
0001
0100
0010
0100
1000
0100
0010
0001
0100
,
0010
1000
0100
0010
0100
0010
0001
0010
0100
0010
0100
0001
0100
0010
0001
0010
,
0100
0010
0100
1000
0100
0010
0001
0010
0200
0310
0002
0013
0200
0310
0002
0013
,
0100
2000
0000
0000
0000
3020
0000
0000
,
0000
2030
0000
0000
0000
3100
0000
0000
,
1001
0000
0100
0010
0100
0000
1100
0000
0001
0010
0001
0000
0011
0000
0010
1000
,
0010
0000
1100
0000
0010
0100
0001
0000
1010
0000
0100
0010
0001
0000
0101
0000
,
0010
1000
0100
0000
0011
0000
0100
0010
1000
0000
1100
0000
0100
0010
1000
0000
,
0101
0000
0010
0001
0010
0000
0101
0000
0010
0001
1000
0000
1010
0000
0100
0010
,
0100
0000
0101
0000
0010
0100
0001
0000
1010
0000
1000
0001
1000
0000
0110
0000
,
0001
0010
0100
0000
1001
0000
0010
0001
1000
0000
1010
0000
0100
0001
0100
0000
,
0110
0000
1000
0010
1000
0000
0101
0000
0010
0001
0010
0000
1100
0000
0100
0010
,
0100
0000
0101
0000
0010
1000
0100
0000
1100
0000
0100
0010
1000
0000
1001
0000
,
0001
1000
0010
0000
0101
0000
1000
0100
0001
0000
0101
0000
0010
1000
0100
0000
,
0101
0000
0010
0100
0001
0000
0011
0000
0001
0010
1000
0000
0101
0000
0010
0001
,
1000
0000
0110
0000
0001
1000
0001
0000
0110
0000
0001
0010
1000
0000
1100
0000
,
1000
0100
0001
0000
0011
0000
0010
0100
0010
0000
1001
0000
0100
0010
0001
0000
,
1001
0000
0010
0100
1000
0000
1001
0000
0010
0100
0001
0000
0011
0000
0010
0100
,
0001
0000
1100
0000
0010
0100
1000
0000
0110
0000
0001
0010
0001
0000
0110
0000
,
0010
0100
0010
0000
0101
0000
0100
0010
0100
0000
1010
0000
1000
0001
1000
0000
,
0011
0000
0001
1000
0001
0000
1100
0000
1000
0100
0001
0000
0101
0000
0001
0010
,
0100
1001
0110
1100
0011
0110
1100
0110
,
0101
1100
0011
0110
1010
0011
0101
1010
,
0101
0011
2000
3011
0002
0113
2000
3101
,
0002
1013
0200
0311
0020
1030
0200
0311
,
1001
0000
0010
0100
0010
0000
0101
0000
0010
0100
1000
0000
0101
0000
0010
0100
,
0001
0000
0101
0000
0001
0100
0001
0000
1010
0000
1000
0010
1000
0000
0110
0000
,
1000
0100
1000
0000
0011
0000
0001
0010
0001
0000
1010
0000
0010
0100
0010
0001
,
0010
0100
1000
0100
1000
0100
1000
0100
0010
0001
0100
0010
0100
0010
0100
0010
,
0100
0010
0100
1001
0000
0000
0000
0000
0000
0000
0000
0000
0000
0000
0000
0000
,
0000
0000
0000
1001
0000
0000
0000
0000
0000
0000
0000
0000
0000
0000
0000
0000
,
0000
0000
0000
1001
0000
0001
0010
0001
1000
0001
0010
0001
1000
0001
0010
0001
,
1000
0001
0010
0001
1000
0001
0100
0001
1000
0001
0100
0001
1000
0001
0100
0001
,
1000
0001
0000
1001
0000
0000
0000
0000
0000
0000
0000
0000
0000
0000
0000
0000
,
0000
1001
0000
0000
0000
0000
0000
0000
,
0000
0000
0000
1001
0000
0000
1001
0000
0110
0000
1100
0000
0101
0000
0110
0000
,
0011
1010
0110
1001
1001
0011
0110
1100
,
0101
1010
0101
0110
1100
0101
1010
1010
,
0101
0101
0110
0110
1001
1100
0101
0011
,
0220
0000
0000
0000
,
0330
0000
1001
0000
0000
0000
1001
0000
0000
0000
0110
0000
0000
0010
0100
0010
,
0000
0000
1010
0000
0000
1000
0100
0010
0000
0000
1010
0000
0000
0010
1000
0100
,
0000
0000
0101
0000
0000
0100
0010
0100
0000
0000
0101
0000
0000
0001
0100
0001
,
0000
0000
0110
0000
0000
0010
0100
0010
0000
0000
0011
0000
0000
1000
0010
1000
,
0000
0000
0101
0000
0000
0010
0100
0001
0000
0000
0101
0000
0000
0100
0010
0001
,
0000
0000
1010
0000
0000
0010
0100
0001
0000
0000
1010
0000
0000
1000
0100
0001
,
0000
0000
0101
0000
0000
0100
1000
0100
0000
0000
1010
0000
0000
0010
0001
1000
,
0000
0000
0110
0000
0000
0010
0100
0001
0000
0000
1001
0000
0000
0010
0100
1000
,
0000
0000
0101
0000
0000
0100
0010
0100
0000
0000
0101
0000
0000
0001
0100
0001
,
0000
0000
1010
0000
0000
1000
0100
1000
0000
0000
0011
0000
0000
1000
0010
1000
,
0000
0000
0110
0000
0000
0001
0010
0100
0000
0000
0011
0000
0000
0001
1000
0001
,
0000
0000
0101
0000
0000
0001
0010
0001
0000
0000
0101
0000
0000
0010
0001
0010
,
0000
0000
1100
0000
0000
0100
0001
0100
0000
0000
0011
0000
0000
1000
0010
1000
,
0000
0000
1100
0000
0000
0010
1000
0010
0000
0000
0110
0000
0000
0010
0100
0010
,
0000
0000
0011
0000
0000
0010
0001
0010
0000
0000
1100
0000
0000
0100
0010
0100
,
0000
0000
1001
0100
0010
0100
1000
0100
0010
0100
1000
0100
0010
0001
0010
0100
,
0010
0001
0010
0100
0001
0100
0010
0001
0010
0100
0010
0100
1000
0001
1000
0001
,
1000
0001
1000
0100
0010
0001
0010
0100
1000
0100
0010
0100
1000
0010
0100
0001
,
0010
0100
1000
0100
0010
0100
1000
0100
0010
0001
0100
0010
0100
0010
0100
1000
,
0100
0000
0000
0010
0000
0000
0001
0000
0000
0010
0000
0000
0001
0000
0010
0000
0100
0000
1000
0000
0000
0100
0000
0000
0010
0000
0000
0002
0000
0000
0023
0000
0000
0032
0000
0000
0023
0000
0000
0230
0000
0000
2300
0000
0000
3200
0000
0000
,
0320
0000
0000
0032
0000
0000
0203
0000
0000
0320
0000
0000
2030
0000
0000
3200
0000
0000
0320
0000
0000
0032
0000
0000
0103
0000
0010
0000
1000
0000
0100
0000
0010
0000
0000
0000
0001
0000
0000
0000
0010
0000
0000
0000
0002
0000
0003
0000
,
0200
0000
0300
0000
0000
2000
0000
0000
3001
0000
1000
0000
0010
0000
0000
0200
,
0000
0000
1000
0300
1000
0010
1000
0200
,
0000
0000
0300
0010
0100
1000
0100
0010
0100
0010
0001
0010
0100
0010
0100
1000
,
0100
0010
0001
1000
0100
0010
0100
1000
0100
0010
0100
1000
0001
1000
0001
1000
,
0100
0010
0100
1000
0100
1000
0100
0010
0001
0010
0100
0010
0100
1000
0100
0010
,
1000
0010
1000
0100
0010
0001
0010
0100
0001
0100
0010
0001
0010
0100
1000
0100
,
0010
0001
0010
0100
1000
0100
1000
0100
0010
0100
0010
0001
0010
0100
0001
0100
,
0001
0100
0010
1000
0010
1000
0100
1000
0100
1000
0001
0010
0001
0010
0001
0010
,
0001
0010
0101
0000
0010
0000
0000
0000
1000
0000
0010
0000
2001
0000
0010
0000
,
3200
0000
0300
0010
0200
0000
0320
0000
0100
0000
1000
0000
0130
0000
0000
1000
,
0100
0000
0000
0010
0000
0000
0000
0000
0000
0110
0000
0000
0000
0000
0000
0000
0000
0000
0110
0000
0000
0000
0000
0000
0110
0000
0000
0000
0000
0000
0001
0000
0010
0000
0100
0000
1000
0000
0100
0000
0010
0000
0000
0000
0001
0000
0010
0000
,
0100
0000
1000
0000
0100
0000
0000
0000
0000
2000
0000
0000
0000
0000
0000
0000
0000
0000
0000
0000
0000
0000
0000
0000
0000
0000
0000
0000
0000
0000
0000
0000
0000
0000
0000
0000
0000
0000
0000
0000
0000
0000
0000
0000
0000
0000
0000
0000
,
0000
3000
0101
0000
1010
0000
1000
0000
0100
0000
0010
0000
0001
0000
1010
0000
,
0100
0100
0010
1000
0100
0001
0010
0100
,
0010
0001
1000
0100
1000
0100
0100
1000
,
0010
1000
0100
0010
0100
0010
0001
0100
,
0001
0100
0010
0100
0001
0010
0100
1000
,
0100
1010
0110
1100
1000
0010
1000
0001
,
0100
0001
0100
0010
0100
0010
0001
0100
,
0010
0100
0001
0010
0100
1000
0010
1000
,
0001
0110
0001
1000
0110
1000
0100
0010
,
0001
0100
0010
0100
0001
0010
1000
0010
,
0001
1100
0010
0100
0001
0010
1000
0010
,
0001
0110
1000
0100
0010
0001
0010
1000
,
0010
0001
0100
0010
0100
0001
0010
0100
,
0010
0001
1000
0010
1000
0001
0100
0010
,
0100
0001
0010
1000
0010
1000
0001
0010
,
1000
0100
0010
0001
1000
0010
1000
0001
,
0100
1001
1001
1001
1010
1100
1100
0110
,
0110
0001
0101
0101
0110
0101
0100
0110
,
0110
0110
1100
1100
1010
1100
1100
0100
,
0110
0010
0011
0011
0110
0011
0010
0110
,
1010
0100
1100
1000
1010
1100
1010
0100
,
1000
1100
0100
0010
0011
0001
0011
0011
,
0100
0110
0101
1100
1010
1100
1000
1100
,
0110
0001
0011
1100
0110
0001
0110
0100
,
1001
0101
0000
0000
0000
0000
0000
0000
,
0000
1001
0000
0000
0000
0000
0000
0000
,
0000
1001
0001
1000
0001
1000
0010
0100
,
1001
1100
0011
0101
1010
0101
0110
1001
,
0110
1010
0000
0000
0000
0000
0000
0000
,
0000
1010
0000
0000
0000
0000
0000
0000
,
0000
1001
0110
1100
0101
1010
0101
0110
,
0101
1001
1100
0101
0011
1100
0110
1001
,
1010
1001
0110
0101
1010
0101
1010
0110
,
1100
0000
0000
1000
0100
0010
0001
0100
0010
1000
0100
0010
0001
0100
0010
1000
0100
0010
0001
0100
0010
1000
0100
0010
,
0001
0110
0000
1001
0000
1010
0000
0101
,
0000
0000
1010
0000
0000
0010
0100
0010
0000
0000
0110
0000
0000
0010
0100
1000
,
0000
0000
0101
0000
0000
0001
0010
0100
0000
0000
1001
0000
0000
0001
0010
0100
,
0000
0000
1100
0000
0000
1000
0001
1000
0000
0000
0011
0000
0000
0001
0010
0001
,
0000
0000
1001
0000
0000
1000
0100
1000
0000
0000
0101
0000
0000
0001
0100
0001
,
0000
0000
0110
0000
0000
1000
0010
1000
0000
0000
0110
0000
0000
0010
0001
1000
,
0000
0000
0101
0000
0000
0100
0010
0001
0000
0000
0110
0000
0000
0001
0010
1000
,
0000
0000
1010
0000
0000
0010
0001
0100
0000
0000
1001
0000
0000
1000
0100
0001
,
0000
0000
0101
0000
0000
0100
0010
0001
0000
0000
0101
0000
0000
0001
1000
0001
,
0000
0000
0110
0000
0000
0001
0100
0001
0000
0000
1001
0000
0000
0010
0100
0001
,
0000
0000
1010
0000
0000
1000
0010
0100
0000
0000
1001
0000
0000
0100
0010
1000
,
0000
0000
0101
0000
0000
0001
1000
0010
0000
0000
0101
0000
0000
0001
0100
0010
,
0000
0000
0101
0000
0000
1000
0001
0010
0000
0000
0101
0000
0000
0010
0100
0001
,
0000
0000
0110
0000
0000
0100
1000
0010
0000
0000
1001
0000
0000
0001
0010
0100
,
0000
0000
1001
0000
0000
0010
0100
0010
0000
0000
1010
0000
0000
0010
0100
1000
,
0000
0101
0000
0000
0000
0000
0000
0000
,
0000
0000
0000
1000
0100
0010
0100
0010
0001
0010
0100
1000
0100
0010
0001
1000
,
0100
0010
0001
0010
0100
1000
0001
0010
0100
1000
0001
0010
0100
0010
0001
1000
,
0100
0010
0100
1000
0001
0010
0100
0010
0001
1000
0100
0010
1000
0010
0100
1000
,
0100
0010
0001
0010
0100
0001
0100
0010
0001
0010
0100
0010
0100
0010
0100
0010
,
0100
0000
0000
1000
0000
0010
0000
0000
1000
0000
0100
1000
0100
1000
0010
0000
,
1000
0000
0100
0000
0010
0000
0100
0010
0001
0010
0001
0010
0100
0010
0001
0100
,
0000
0010
0000
0001
0000
0020
0000
0000
2030
0000
0100
0000
3100
0000
1000
0000
,
0000
0010
1000
0000
0100
1000
0010
0100
,
0000
0000
0001
0010
0100
0001
0100
0001
0100
0010
0001
0100
0010
0100
0010
1000
,
0100
1000
0010
1000
0010
0100
1000
0010
1000
0100
0010
0100
0010
0001
0010
0100
,
0010
0001
0100
0010
0100
0001
0100
0010
0100
0001
0010
0100
0010
0001
1000
0010
,
1000
0100
1000
0010
1000
0100
1000
0100
0010
0001
0010
0100
0010
0001
0100
0010
,
0100
0000
2000
3200
0320
0230
2300
3200
0320
0230
2300
3200
0320
0032
0023
0230
,
0320
0032
0023
0230
0320
0230
2300
3200
0320
0032
0203
0320
2030
3200
0320
0032
,
0203
0320
2030
3020
0230
0302
0003
0000
1000
0000
0010
0000
1000
0000
0100
0000
,
1000
0100
0021
1000
0030
0100
1000
0010
,
2000
0200
0000
0000
0000
0300
0000
0000
,
3000
0001
1000
0010
1000
0000
0100
0000
,
1000
0000
0010
0000
1000
0100
0010
0001
,
0000
0010
0001
0100
0010
0000
0100
0000
,
0010
0000
1000
0000
0100
0010
0100
0010
,
0000
0100
0001
0100
0001
0000
0001
0000
,
0010
0000
0001
0000
0010
0100
0010
0001
,
0000
0010
0100
1000
0010
0000
1000
0000
,
0100
0000
0000
0000
0000
0000
1000
0000
0100
0000
0000
0000
1000
0000
0000
0200
0000
0000
0000
0000
0000
0300
0000
0000
,
0000
1000
0100
0010
0100
0000
0010
0000
,
0001
0000
0100
0000
0010
1000
0100
0010
,
0000
0100
0001
0100
0010
0000
0010
0000
,
0100
0000
0001
0000
0010
0001
0100
0010
,
0000
0010
1000
0010
0001
0000
0100
0000
,
0010
0000
1000
0000
0001
0100
0001
0010
,
0000
0001
1000
0010
1000
0000
0100
0000
,
1000
0000
0000
0000
0000
0000
0010
0000
1000
0000
0100
0000
0000
0000
0000
2000
0000
0000
0000
0000
0000
0000
0000
0000
,
0000
3001
0001
0001
1010
0100
0100
0100
,
0101
0010
0010
0010
1010
0010
0010
0010
,
0101
1000
1000
1000
0101
0100
0100
0100
,
0011
0100
0100
0100
1001
0010
0010
0010
,
1010
0100
0100
0100
1100
0001
0001
0001
,
0011
0010
0010
0010
1100
0100
0100
0100
,
1001
0010
0010
0010
0101
1000
1000
1000
,
0110
0000
0100
0000
0100
0000
0100
0000
0101
1000
0100
0010
0100
0010
0001
0010
,
0100
0010
0001
0010
0100
0010
0100
0010
0100
0000
0100
0000
0100
0000
0101
0000
,
0010
0010
0010
1100
0010
0010
0010
1100
,
0010
0010
0010
1001
0100
0100
0100
0011
,
0001
0001
0001
1100
0100
0100
0100
1010
,
1000
1000
1000
0110
1000
1000
1000
0110
,
0001
0001
0001
0110
1000
1000
1000
0101
,
0010
0010
0010
1100
0101
0110
1100
0000
,
0110
0011
1100
0000
0011
0110
1100
0000
,
0110
1000
1000
1000
0110
0001
0001
0001
,
0110
1000
1000
1000
1100
0100
0100
0100
,
0110
0010
0010
0010
0011
0001
0001
0001
,
0101
0010
0010
0010
1010
0100
0100
0100
,
0101
0010
0010
0010
0101
1000
1000
1000
,
0011
0100
0100
0100
1010
0100
0100
0100
,
1010
0001
0001
0001
1010
1000
1000
1000
,
1100
0010
0010
0010
0101
0100
0100
0100
,
1100
0001
0001
0001
1001
0100
0100
0100
,
0010
0010
0010
1000
1000
1000
0001
0001
,
0001
1000
1000
1000
1000
0010
0010
0010
,
0010
0100
0100
0100
0100
0001
0001
0001
,
0001
1000
1000
1000
0010
0010
0010
0010
,
0010
1000
1000
1000
0100
0100
0100
0010
,
0010
0010
0001
0001
0001
0100
0100
0010
,
0100
0010
0100
0010
1000
0100
1000
0100
,
0110
0000
0110
1000
0100
1000
0100
0010
0100
1000
0100
0010
0100
1000
0100
0010
,
0100
0010
0100
1000
0100
0010
1100
0010
0100
0001
0010
0100
0010
0100
0010
0100
,
0010
1000
0100
1000
0100
0010
0100
0010
1001
0100
0010
1001
0010
1000
0010
1000
,
0010
1000
0100
0010
0001
0010
0100
0010
0001
1000
0101
0010
0001
0100
0010
1000
,
0100
0010
0001
0010
0001
0010
0100
0010
0001
0100
1000
0100
0010
0001
1010
0100
,
0010
0100
0010
0100
0010
1000
0010
1000
0010
1000
0010
1000
0100
0010
0001
0100
,
1001
0100
0010
0100
1000
0100
0010
1000
0100
1000
0100
0010
0100
2000
0000
3000
,
0000
0000
1000
0010
1100
0010
0100
1000
0100
0010
0001
0100
0010
0100
1000
0100
,
0010
0100
0001
0010
0001
1000
0100
2002
0000
0000
0000
0000
0000
0000
0000
0000
,
0000
0000
0000
0000
0000
0000
0000
3003
0000
1002
0000
0000
0000
0000
0000
0000
,
1003
0020
0000
0000
0000
0000
0000
0000
,
0000
0000
0030
0000
0000
2000
0000
0000
0000
0000
3200
0000
0000
0000
0000
0310
,
0000
0000
0000
0001
0000
0000
0000
0000
0000
0100
0000
0000
0001
0000
0000
0000
0000
0000
0010
0000
0000
0000
0000
0100
,
0000
2000
0000
0000
0000
0000
0000
0000
0000
0000
0000
0000
,
0000
3000
0000
0000
0100
1000
0100
1000
0100
1000
0010
0100
0010
0100
0010
0100
,
0010
0001
0010
0001
0100
0001
0010
0100
1000
0100
0010
0100
0010
0100
0010
0100
,
0001
0010
0100
1000
0100
1000
0010
0100
1000
0100
1000
0100
0010
0001
0000
0010
,
0000
1000
0000
0000
0100
0000
0001
0000
0000
0000
0010
0000
0100
0000
0000
0000
,
1000
0000
0000
0000
0010
0000
2000
0000
0000
0000
0000
0000
0000
0000
0000
3000
,
0200
0000
0000
0000
0000
0000
0000
0000
0300
0010
0000
0000
0000
0001
0000
0000
,
0100
0002
0000
0000
0000
0000
0013
0000
,
0100
0000
0000
0000
1000
0000
0020
0000
0000
0000
0000
0000
0000
0000
0000
2030
,
0000
0000
0000
3100
0000
0000
0010
0000
0002
0000
0000
0000
0000
0000
0000
0000
,
0203
0000
0000
0000
0000
0000
0000
0000
0000
0000
0000
0320
0000
0000
0000
0000
,
0000
0000
0000
0000
0000
1030
0000
0000
0100
0000
0000
0000
0010
0000
0002
0000
,
0000
0000
0000
0000
0000
0000
0000
0103
0000
0000
0010
0000
0000
0000
0100
0000
,
0002
0000
0000
0000
0000
0000
0000
0000
0000
0000
0010
0003
0000
0100
0000
0000
,
0000
1000
0000
0000
0020
0000
0000
0000
0000
0000
0030
0200
0000
0000
0000
0000
,
0300
0000
0000
1001
0000
0000
0000
0000
,
0000
0000
0000
1010
0000
1100
0000
0101
,
0000
0000
0000
0011
0000
0000
0000
0001
1000
0001
1000
0010
1000
0010
1000
0100
,
1000
0100
0010
0100
0010
0100
1000
0100
0010
0001
0010
0100
0001
0100
0010
0100
,
0001
0010
0100
0010
0100
0010
0100
1000
0100
1000
0100
1000
0010
1000
0100
1000
,
0010
0100
0010
0100
0010
0100
0010
0100
0010
0100
0001
0100
0001
0100
0001
0100
,
0010
0001
0010
0100
0010
0100
1000
0010
1000
0010
1000
0100
1000
0100
0010
0001
,
0010
0100
1000
0100
0010
0001
0010
0001
0100
0010
0100
0010
0100
0010
0001
0100
,
0010
0100
0010
0100
0001
0100
0001
0100
0001
0100
0010
0001
0100
0001
0100
0010
,
1000
0100
0010
1000
0010
1000
0100
1000
0100
1000
0010
0100
0010
0001
0100
0010
,
0100
0010
0100
0010
1000
0001
0100
0001
0100
0010
0001
0010
0001
0010
0001
0010
,
0100
0010
1000
0010
1000
0100
0010
0100
0010
0001
0010
0001
0000
0100
0000
0001
,
0000
1000
0000
0000
0100
0000
2000
0000
0000
0000
0000
0000
0010
3000
0100
0000
,
1000
0100
0010
1000
0100
1000
0001
0020
,
0000
0000
0000
0000
0000
0030
0000
1000
0100
1000
0010
1000
0100
1000
0010
1000
,
0100
1000
0010
1000
0100
1000
0010
1000
0100
1000
0010
1000
0100
2000
0000
0000
,
0000
0000
0000
0000
0000
0000
0000
0000
0000
0000
0000
0000
0000
0000
0000
0000
0000
0000
0000
0000
0202
3000
0000
0000
0000
0000
0303
0000
2200
0000
0000
0000
0000
0000
3300
0000
2002
0000
0000
0000
0000
0000
3003
0000
0220
0000
0000
0000
,
0000
0000
0330
0000
0022
0000
0000
0000
0000
0000
0033
0000
2200
0000
0000
0000
3300
0000
0101
0000
0000
0010
0000
0000
1000
0000
0000
0010
0000
0000
1000
0000
0000
0010
0000
0000
1000
0000
0000
0010
0000
0000
1000
0000
0000
0010
0000
0000
,
1000
0010
2000
0000
0000
0000
3110
1000
0100
0010
0001
0100
0010
0100
0010
1000
,
0100
0010
0001
0100
0010
1000
0100
0010
0001
0010
0100
1000
0010
0100
0010
0100
,
0010
0001
0010
0001
0010
0100
1000
0010
1000
0010
1000
0100
0001
0100
0001
0100
,
0010
1000
0100
0010
0001
0100
0010
0100
1000
0100
0010
0001
0100
0010
1000
0100
,
0010
0001
1000
0001
1000
0001
1000
0001
1000
0010
0100
0010
0100
0010
0100
1000
,
0100
0010
0001
0010
0100
0010
0100
0010
0001
0010
0100
0010
0100
0010
0100
1000
,
0100
0010
0100
1000
0001
0010
0100
0010
0001
0100
0010
0100
1000
0010
0100
0010
,
0001
0100
0010
0001
0010
0100
1000
0100
1000
0100
1000
0100
0010
0001
0010
0001
,
0010
0001
0010
0100
0010
0100
0011
0000
0011
0000
0000
0020
0000
0000
0030
0200
,
0000
0001
0300
0000
0001
0000
0100
0000
1000
0000
0000
0020
0000
0000
0100
0000
,
1030
0000
0000
0000
0001
0000
1000
0000
0010
0000
0000
2000
0000
0000
0000
3000
,
0100
0000
0000
1000
0000
0000
0010
0000
0000
1000
0000
0000
0100
0000
0000
0000
0000
2000
0000
0000
0000
0000
0000
0000
,
0000
0000
0000
0000
0000
0000
0000
0000
0000
0000
0000
0000
0000
0000
0000
0000
3000
0000
0000
0000
0000
0001
0000
0000
0010
0000
0000
0100
0000
0000
0010
0000
0000
0001
0000
0000
0010
0000
0000
0100
0000
0000
0001
0000
0000
0100
0000
0000
,
0001
0100
0001
0100
0001
0000
0010
0001
0010
0001
0010
0100
1000
0100
1000
0010
,
1000
0000
0100
1000
0100
1000
0100
0210
2300
3200
2300
3200
0320
0230
0320
0230
,
0320
0230
0320
0230
0320
0230
0320
2030
3200
0320
0032
2003
3200
0320
0032
0203
,
0320
2030
3200
0320
0032
2003
3010
1001
1100
0000
0110
0000
0011
0000
0110
0000
,
1100
0011
0110
0011
1100
0011
0110
1100
,
0011
0110
1100
0011
1001
1010
0101
1010
,
0110
0011
0110
1010
0110
0011
1001
1001
,
0110
0110
0101
1010
0110
0011
0110
1010
,
0110
0011
0101
1010
0110
0011
1100
0110
,
0101
1010
1100
0101
0011
0110
0101
1001
,
1010
0000
0101
0000
1010
0000
2002
3003
0220
0330
2002
3003
0202
0303
2020
3030
,
0202
0303
2002
3003
2020
3030
0200
0000
0000
0000
0300
0000
0002
0000
0000
0000
,
0000
2003
0100
0000
0000
0020
3000
0000
0000
0000
0000
0000
0000
0000
1000
0030
,
0000
0000
0200
0000
0000
0000
0020
0300
0000
0000
0000
0000
0032
0000
0000
0000
,
0000
0000
0203
0000
0000
0300
0020
0000
0100
0030
0000
0000
2200
0000
0000
0000
,
0000
0000
3300
0000
0000
0002
0000
0200
,
0003
0000
0320
0000
0000
0000
2000
3230
2300
3200
2300
3200
2300
3200
2300
3200
,
2300
0000
0000
3200
0000
0000
2300
0000
0000
3200
0000
0000
0302
0000
0013
0000
0100
0000
1000
0000
0000
0010
0000
0000
1000
0000
0000
0100
0000
0000
0010
0000
0000
0001
0000
0000
0100
0000
0000
0010
0000
0000
0001
0000
0000
0000
0100
0000
,
0010
0000
0100
0000
0000
0000
1000
0000
0000
0000
0010
0000
0100
0000
0010
0000
0000
0000
0010
0000
0000
0100
0000
0000
0010
0000
0100
0000
1000
0000
0100
0000
1000
0000
0100
0000
0010
0000
0000
0000
0002
0000
0000
0000
0000
0000
0020
0000
,
0000
0000
0000
0003
0002
0000
0000
0000
0000
0030
0000
0000
0000
0000
0000
0003
0010
0000
0100
0000
1000
0000
0100
0000
0010
0000
0001
0000
0000
0000
0010
0000
0000
0100
0000
0000
1000
0000
0100
0000
0010
0000
0001
0000
0000
0010
0000
0000
,
0100
0000
0000
1000
0000
0000
0100
0000
0010
0000
0001
0000
0010
0000
0100
0000
0000
0000
1001
0000
0000
0010
0000
0000
0100
0000
0000
1000
0000
0000
0100
0000
0010
0000
0001
0000
0010
0000
0100
0000
0010
0000
0100
0000
0000
0010
0000
0000
,
0100
0000
0000
0001
0000
0000
0010
0000
0000
0100
0000
0000
1000
0000
0000
0010
0000
0000
0100
0000
0000
0010
0000
0000
1000
0000
0000
0001
0000
0000
0010
0000
0001
0000
0010
0000
0100
0000
1000
0000
0100
0000
0010
0000
0001
0000
0000
0000
,
0010
0000
0000
0100
0000
0000
1000
0000
0100
0000
0010
0000
0001
0000
0000
1000
0000
0000
0001
0000
0000
1000
0000
0000
0001
0000
0000
1000
0000
0000
0200
0000
0320
0000
0032
0000
0023
0000
0230
0000
0320
0000
0032
0000
0023
0000
0230
0000
,
0300
1000
0100
0010
0001
0010
0100
0010
0100
1001
0100
0000
0010
0001
0100
0000
,
0010
0000
0100
1001
0010
0000
0100
0001
0010
0000
0100
1001
0010
0000
0100
0001
,
0010
0000
0100
1001
0010
0000
0100
0000
0010
0000
0100
0000
0010
0000
1001
0000
,
0110
0000
0000
1001
0000
0000
0110
0000
0000
1001
0000
0000
1001
0000
0000
0110
0000
0000
0110
0000
1000
0100
0010
0001
,
0100
0010
1000
0100
0010
0001
0000
0110
0000
1001
0000
0000
0000
0000
0000
0000
0000
0000
0000
0000
0000
0000
0000
0000
,
0000
0000
0000
1010
0000
0000
0000
0000
,
0000
0000
0000
0110
0000
0000
0000
0000
,
0000
0000
0000
0101
0000
0000
0000
0000
,
0000
0000
0000
1010
0000
0000
0000
0000
,
0000
0000
0000
0101
0000
0000
0000
0000
,
0000
0000
0000
0110
0000
0000
0000
0000
,
0000
0000
0000
0000
,
0000
0000
0000
1001
0000
0000
0000
0000
,
0000
0000
0000
1010
0000
0000
0000
0000
,
0000
0000
0000
0101
0000
0000
0000
0000
,
0000
0000
0000
0110
0000
0000
0000
0000
,
0000
0000
0000
1010
0000
0101
0000
1010
,
0000
1001
0000
0110
0000
0101
0000
1010
,
0000
1001
0000
2002
0000
0000
3003
0220
,
0000
0300
0030
2002
0000
0000
0000
0000
,
0000
3003
0000
0010
0000
1000
0000
0001
,
0000
0100
0000
0010
0000
1000
0000
0001
,
0000
0000
0100
0000
0000
0000
0110
1000
0100
0010
0100
1000
0010
0100
0010
0100
,
0010
0001
0010
0100
1000
0100
0010
0001
0100
0010
1000
0100
0010
0001
0010
0100
,
1000
0010
0100
0001
0010
0100
1001
0000
0000
0000
0000
0000
0000
0000
0000
0000
,
0000
0000
0000
1010
0000
0000
0000
0000
,
0000
0000
0000
0000
0000
0000
0000
0000
0000
0101
0000
0000
0000
0000
0110
0000
0000
0000
0110
0000
0000
0000
1001
0000
,
0000
1001
1001
1001
1001
0001
1000
1001
,
1001
1010
1010
0010
0101
0100
0101
0101
,
0101
0001
0100
0001
1010
1000
0001
0100
,
0010
1000
0000
2002
0000
0000
0000
0000
,
0000
0000
3003
1010
0000
1001
0000
0101
,
0000
0000
1001
0000
0000
0000
1010
0000
0000
0000
0010
0000
0000
0000
0010
1000
,
0010
1000
0010
1000
0010
0000
0100
0000
0000
0000
0100
0001
0100
0001
0100
0001
,
0100
0000
0010
0000
0000
0000
0010
0100
0010
0100
0010
0100
0010
0000
0100
0000
,
0000
0000
0001
0010
0100
1000
0010
0100
0001
0000
0010
0000
0000
0000
0100
0010
,
1000
0100
0010
0001
0100
0000
1000
0000
0000
0000
1000
0010
1000
0010
1000
0010
,
1000
0000
0010
0000
0000
0000
0100
0010
0001
1000
0001
0010
0100
0000
0010
0000
,
0000
0000
1000
0010
0100
0001
1000
0010
0100
0000
0010
0000
0000
0000
1000
0010
,
0100
0010
0001
0010
0100
0000
0010
0000
0000
0000
0100
0010
0100
0001
1000
0001
,
1000
0000
0100
0000
0000
0000
0010
0100
0001
1000
0010
0100
0001
0000
0100
0000
,
0000
0000
0001
0001
1000
1000
0001
0001
1000
0000
0010
0000
0000
0000
1000
0100
,
0010
0001
1000
0100
0010
0000
0001
0000
0000
0000
0100
0010
0100
0010
0100
0010
,
0100
0000
0010
0000
0000
0000
0001
0010
0100
0001
0100
0010
1000
0000
0100
0000
,
0011
0000
0110
0000
0000
0110
0000
0000
0000
0000
0000
0000
0000
1001
0000
0000
,
0000
0000
0000
0000
0000
0000
1001
0000
0000
0000
0000
0000
0000
0000
0000
1001
,
0000
0000
0000
0000
0000
0000
1000
0010
1000
0010
0100
0010
,
0100
0010
0100
0010
0001
0010
0100
1000
0100
0001
0010
0100
,
0001
1000
0010
0010
0100
0010
0001
0100
0010
0100
0001
0010
,
1000
0100
0010
1000
0010
0100
1000
0100
0001
0010
0100
0010
,
1000
0001
1000
0100
0100
0010
0001
0001
0100
0010
0100
0010
,
0100
0010
0001
0010
0100
1000
0010
0001
1000
1000
0010
0100
,
0001
1000
0010
0100
0010
0010
0001
0100
0010
0001
1000
0100
,
0100
0010
0010
1000
0010
1000
0100
0001
0100
0100
0010
0100
,
1000
0010
0100
0010
0001
0100
1000
0010
0100
0010
0001
0010
,
1000
0001
0010
0100
0001
1000
0010
0100
0001
0010
0100
0010
,
0001
0001
0010
0100
1000
0000
0110
0000
0000
0110
1000
0100
,
0010
0000
0000
0000
0001
0000
0010
0000
0000
0100
0000
0000
1000
0000
0000
0100
0000
0000
0010
0000
0000
0100
0000
0000
0010
0000
0000
0001
0000
0000
0010
0000
0000
0100
0000
0000
1000
0000
0000
0100
0000
0000
0010
0000
0000
0001
0000
0000
,
0100
0010
0100
2000
0000
3000
0000
0000
0001
0000
1000
0000
0010
0000
1000
0000
,
0100
1000
0001
0010
0001
0100
0000
0011
,
1010
0101
1100
0110
0000
1100
1010
0011
,
1000
0100
0010
0001
0100
0001
0000
0011
,
1200
0000
0000
0000
0000
0000
0301
0010
0100
0010
0001
0010
0100
1000
0100
0010
,
0100
1000
0100
0010
0001
0010
0100
0010
0001
0010
0100
1000
0100
0010
0100
1000
,
0100
0000
0010
0000
0001
0000
0010
0000
0100
0000
1000
0000
0100
0000
0000
0010
0000
0000
0001
0000
0000
1000
0000
0000
0001
0000
0000
0010
0000
0000
0100
0000
0000
1000
0000
0000
0001
0000
0000
1000
0000
0000
0100
0000
0000
0010
0000
0000
,
0001
0000
0000
0100
0000
0000
0010
0000
0000
0100
0000
0000
0010
0000
0000
1000
0000
0000
0001
0000
0000
1000
0000
0000
0100
0000
0000
0010
0000
0000
0001
0000
0010
0000
0100
0000
1000
0000
0100
0000
0010
0000
0001
0000
0000
1000
0000
0000
,
0100
0010
0100
1000
0001
0010
0100
0010
0001
1000
0001
0010
0100
0010
0001
1000
,
0001
0010
0100
0010
0001
1000
0001
1000
0001
1000
0001
1000
0001
1000
0001
1000
,
0100
0010
0100
0010
0100
0010
0001
1000
0010
1000
0010
1000
0010
1000
0100
0001
,
0100
0001
0010
0001
0010
0100
0010
0100
1000
0100
0010
0001
0010
0100
0010
1000
,
0100
0010
0001
0100
0010
1000
0100
0000
0100
0000
1000
0000
0100
0000
1000
0000
,
0010
1000
0100
0010
0001
0100
0001
0010
,
0001
0010
0100
0010
1000
0100
1000
0010
,
1000
0100
0010
0001
0100
0100
0100
0100
,
0010
0000
0010
0000
0100
0000
0100
0010
0100
1000
0010
1000
0100
0010
0001
0010
,
0100
1000
0010
1000
0100
0010
0001
0010
0100
1000
0100
0010
0001
0100
0001
0010
,
0100
1000
0100
0010
0001
0010
0100
1000
0100
0010
0100
1000
0010
0100
0001
0010
,
0100
2000
0000
0000
0000
0010
3001
0010
0100
1000
0100
0010
0100
1000
0100
0010
,
0001
0020
0000
0000
0000
0000
1031
0000
0110
0000
0000
0000
1001
0000
0110
0000
,
1001
0000
1001
0110
1001
0000
1010
1001
,
0101
0000
0000
0100
0000
0000
0100
0000
0000
1000
0100
0010
0002
0000
1003
0100
0010
0002
0000
1003
0100
0010
0002
0000
,
1003
0100
0010
0002
0000
1003
0100
0010
0002
0000
0000
2003
3200
0320
0032
0023
0230
2300
3200
0320
0032
0023
0230
2300
,
0000
3000
0000
0110
0000
0000
0110
0000
2200
0000
0000
0000
0000
0000
0000
0000
0000
0000
0000
0000
3300
0000
0000
0000
;
