#TITLE:W;
#SUBTITLE:;
#ARTIST:DJ Sharpnel;
#TITLETRANSLIT:;
#SUBTITLETRANSLIT:;
#ARTISTTRANSLIT:;
#CREDIT:;
#BANNER:wbn.png;
#BACKGROUND:wbg.png;
#LYRICSPATH:;
#CDTITLE:;
#MUSIC:w.ogg;
#OFFSET:0.180;
#SAMPLESTART:217.895;
#SAMPLELENGTH:21.404;
#SELECTABLE:YES;
#DISPLAYBPM:179.000;
#BPMS:0.000=179.350,64.000=179.200,96.000=180.250,112.000=179.000,128.000=179.200,132.000=179.400;
#STOPS:;
#BGCHANGES:;
// cache tags:
#FIRSTBEAT:32.000;
#LASTBEAT:1235.000;
#SONGFILENAME:Songs/SHARPNELSTREAMZ v2/w/w.sm;
#HASMUSIC:1;
#HASBANNER:1;
#MUSICLENGTH:414.500;
// end cache tags

//---------------dance-single - 15+ (Archi)----------------
#NOTES:
     dance-single:
     15+ (Archi):
     Challenge:
     15:
     1.000,1.000,0.099,0.854,1.000,3523.000,41.000,354.000,3.000,1.000:

0000
0000
0000
0000
,
0000
0000
0000
0000
,
0000
0000
0000
0000
,
0000
0000
0000
0000
,
0000
0000
0000
0000
,
0000
0000
0000
0000
,
0000
0000
0000
0000
,
0000
0000
0000
0000
,
1020
0000
0000
0130
0001
0000
0010
0000
,
1200
0000
0000
0300
0000
0000
0000
0000
,
0021
0000
0000
0130
1000
0000
0010
0000
,
0201
0000
0010
0300
0100
0001
0010
0000
,
0100
1000
0001
0010
0001
1000
0100
0010
0001
0010
0001
1000
0100
0010
0001
1000
,
0010
1000
0001
0100
0001
1000
0010
0100
0001
0100
0001
1000
0010
0100
0001
1000
,
0100
1000
0001
0010
0001
1000
0100
0010
0001
0010
0001
1000
0100
0010
0001
1000
,
0010
1000
0001
0100
0001
1000
0010
0100
0001
0100
0001
1000
0010
0100
0001
1000
,
0200
0000
0000
0000
0000
0000
0000
0000
0000
0000
0000
0000
0000
0000
0000
0000
0000
0000
0000
0000
0000
0000
0000
0000
0000
0000
0000
0000
0000
0000
0000
0300
0100
0000
0000
0000
0000
0000
0000
0000
0020
0000
0000
0000
0000
0000
0000
0000
0000
0000
0000
0000
0000
0000
0000
0000
0000
0000
0000
0000
0000
0000
0000
0000
,
1030
0002
0000
0000
0203
0000
0000
0000
,
0320
0000
2030
0000
3001
0020
0000
0000
,
0230
0000
0000
0000
0000
0000
0000
0000
0000
0000
0000
0000
0000
0000
0000
0000
0000
0000
0000
0000
0000
0000
0000
0000
0000
0000
0000
0000
0000
0000
0000
0000
2300
0000
0000
0000
0000
0000
0000
0000
0000
0000
0000
0000
0000
0000
0000
0000
0000
0000
0000
0000
0000
0000
0000
3000
1000
0000
0000
0000
0000
0000
0000
0000
,
0020
0000
0000
0000
0000
0000
0000
0000
0000
0000
0000
0000
0000
0000
0000
0000
0000
0000
0000
0000
0000
0000
0000
0000
0000
0000
0000
0000
0000
0000
0000
0030
0010
0000
0000
0000
0000
0000
0000
0000
0200
0000
0000
0000
0000
0000
0000
0000
0000
0000
0000
0000
0000
0000
0000
0000
0000
0000
0000
0000
0000
0000
0000
0000
,
1300
0002
0000
0000
0023
0000
0000
0000
,
0230
0000
2300
0000
3001
0200
0000
0000
,
0320
0000
0000
0000
,
2030
0000
0000
0000
0000
0000
0000
0000
0000
0000
0000
0000
0000
0000
0000
0000
0000
0000
0000
0000
0000
0000
0000
0000
0000
0000
0000
0000
0000
0000
0000
3000
1000
0000
0000
0000
0000
0000
0000
0000
0200
0000
0000
0000
0000
0000
0000
0000
0000
0000
0000
0000
0000
0000
0000
0000
0000
0000
0000
0000
0000
0000
0000
0000
,
0301
0020
0000
0000
0230
0000
0000
0000
,
2300
0000
3002
0000
1003
0020
0000
0000
,
0230
0000
0302
0000
,
0013
0001
1000
0100
1000
0001
0010
0100
1000
0100
1000
0001
0010
0100
1000
0001
,
0100
0001
1000
0010
1000
0001
0100
0010
1000
0010
1000
0001
0100
0010
1000
0001
,
0010
0001
1000
0100
1000
0001
0010
0100
1000
0100
1000
0001
0010
0100
1000
0001
,
0100
0001
1000
0010
1000
0001
0100
0010
1000
0010
1000
0001
0100
0010
1000
0001
,
0020
0000
0000
0000
0000
0000
0000
0030
,
0001
0010
0001
0000
1000
0000
0010
0000
1000
0000
0010
0000
1000
0000
0010
0000
,
0100
0001
0100
0000
0010
0000
1000
0000
0010
0000
1000
0000
0010
0000
1000
0000
,
0001
0010
0001
0000
1000
0000
0010
0000
1000
0000
0010
0000
1000
0000
0010
0000
,
0100
0001
0100
0000
0010
0000
1000
0000
0010
0000
1000
0000
0010
0000
1000
0000
,
1001
0001
0100
0001
0100
0001
0100
0001
,
1000
0100
1000
0000
0001
0000
0100
0000
0001
0000
0100
0000
0001
0000
0100
0000
,
0010
1000
0010
0000
0100
0000
0001
0000
0100
0000
0001
0000
0100
0000
0001
0000
,
1000
0100
1000
0000
0020
0000
2030
0000
3200
0000
0320
0000
0032
0000
0203
0000
,
0310
1000
0010
0100
0001
0100
0001
0010
0100
1000
0100
0010
0001
0010
0001
0100
,
0010
1000
0010
0100
0001
0100
0001
0010
0100
1000
0100
0010
0001
0010
0001
1000
,
0010
1000
0010
0100
0001
0100
0001
0010
0100
1000
0100
0010
0001
0010
0001
0100
,
0010
1000
0010
0100
0001
0100
0001
0010
0100
1000
0100
0010
0001
0010
0001
1000
,
0100
1000
0100
0010
0001
0010
0001
0100
0010
1000
0010
0100
0001
0100
0001
0010
,
0100
1000
0100
0010
0001
0010
0001
0100
0010
1000
0010
0100
0001
0100
0001
0010
,
0100
1000
0100
0000
0010
0100
0010
0001
1000
0100
1000
0100
0010
0000
0100
0000
,
1001
0000
0000
0000
0000
0000
0001
0000
0000
1000
0000
0000
0001
0000
0000
0000
0000
0000
1001
0000
0000
0000
0000
0000
1001
0000
0000
0000
0000
0000
1001
0000
0000
0000
0000
0000
1001
0000
0000
0000
0000
0000
0001
0000
0100
0000
0001
0000
,
1000
0010
1000
0100
0010
0001
0010
0100
1000
0100
1000
0010
0100
0001
0100
0010
,
1000
0010
1000
0100
0010
0001
0010
0100
1000
0100
1000
0010
0100
0001
0100
0010
,
1000
0010
1000
0100
0010
0001
0010
0100
1000
0100
1000
0010
0100
0001
0100
0010
,
1000
0010
1000
0100
0010
0001
0010
0100
1000
0100
1000
0010
0100
0001
0100
0010
,
1000
0100
1000
0010
0100
0001
0100
0010
1000
0010
1000
0100
0010
0001
0010
0100
,
1000
0100
1000
0010
0100
0001
0100
0010
1000
0010
1000
0100
0010
0001
0010
0100
,
1000
0100
1000
0010
0100
0001
0100
0010
1000
0010
1000
0100
0010
0001
0010
0100
,
1000
0100
1000
0010
0100
0001
0100
0010
1000
0010
1000
0100
0010
0001
0010
0100
,
1000
0010
1000
0100
0010
0001
0010
0100
1000
0100
1000
0010
0100
0001
0100
0010
,
1000
0010
1000
0100
0010
0001
0010
0100
1000
0100
1000
0010
0100
0001
0100
0010
,
1000
0010
1000
0100
0010
0001
0010
0100
1000
0100
1000
0010
0100
0001
0100
0010
,
1000
0010
1000
0100
0010
0001
0010
0100
1000
0100
1000
0010
0100
0001
0100
0010
,
1000
0010
1000
0001
0100
0010
1000
0001
0100
0001
1000
0010
1000
0001
0100
0010
,
1000
0001
0010
0100
1000
0001
0010
0100
1000
0001
0010
0001
1000
0100
1000
0001
,
0100
0010
1000
0001
0100
0010
1000
0001
0100
0001
0100
0010
1000
0001
0100
0000
,
1001
0000
0000
0000
0000
0000
1000
0000
0000
0001
0000
0000
1000
0000
0000
0000
0000
0000
1001
0000
0000
0000
0000
0000
1001
0000
0000
0000
0000
0000
1001
0000
0000
0000
0000
0000
1001
0000
0000
0000
0000
0000
1000
0000
0100
0000
1000
0000
,
0001
0100
0001
1000
0100
0010
0100
1000
0001
0100
0010
1000
0001
0010
0100
1000
,
0001
0100
0001
1000
0100
0010
0100
1000
0001
0100
0010
1000
0001
0010
0100
1000
,
0001
0100
0001
1000
0100
0010
0100
1000
0001
0100
0010
1000
0001
0010
0100
1000
,
0001
0100
0010
1000
0001
0100
0010
1000
0001
0100
0010
1000
0001
1000
0001
1000
,
0001
0010
0001
1000
0010
0100
0010
1000
0001
0010
0100
1000
0001
0100
0010
1000
,
0001
0010
0001
1000
0010
0100
0010
1000
0001
0010
0100
1000
0001
0100
0010
1000
,
0001
0010
0001
1000
0010
0100
0010
1000
0001
0010
0100
1000
0001
0100
0010
1000
,
0001
0010
0100
1000
0001
0010
0100
1000
0001
0010
0100
1000
0001
1000
0001
1000
,
0001
0100
0001
1000
0100
0010
0100
1000
0001
0100
0010
1000
0001
0010
0100
1000
,
0001
0100
0001
1000
0100
0010
0100
1000
0001
0100
0010
1000
0001
0010
0100
1000
,
0001
0100
0001
1000
0100
0010
0100
1000
0001
0100
0010
1000
0001
0010
0100
1000
,
0001
0100
0010
1000
0001
0100
0010
1000
0001
0100
0010
1000
0001
1000
0001
1000
,
0001
0010
0001
1000
0010
0100
0010
1000
0001
0010
0100
1000
0001
0100
0010
1000
,
0001
0010
0001
1000
0010
0100
0010
1000
0001
0010
0100
1000
0001
0100
0010
1000
,
0001
0010
0001
1000
0010
0100
0010
1000
0001
0010
0100
1000
0001
0100
0010
1000
,
0001
0000
0000
0000
0000
0000
0010
0000
0000
0100
0000
0000
0010
0000
0000
0001
0000
0000
1000
0000
0000
0000
0000
0000
0010
0000
0000
0000
0000
0000
0100
0000
0000
0000
0000
0000
0010
0000
0000
0000
0000
0000
1000
0000
0010
0000
1000
0000
,
0001
1000
0010
1000
0100
0010
0001
1000
0001
0010
0100
1000
0001
0100
0010
1000
,
0001
1000
0010
1000
0100
0010
0001
1000
0001
0010
0100
1000
0001
0100
0010
1000
,
0001
1000
0010
1000
0100
0010
0001
1000
0001
0010
0100
1000
0001
0100
0010
1000
,
0001
0010
0100
1000
0001
0010
0100
1000
0001
0010
0100
1000
0001
1000
0001
1000
,
0001
1000
0100
1000
0010
0100
0001
1000
0001
0100
0010
1000
0001
0010
0100
1000
,
0001
1000
0100
1000
0010
0100
0001
1000
0001
0100
0010
1000
0001
0010
0100
1000
,
0001
1000
0100
1000
0010
0100
0001
1000
0001
0100
0010
1000
0001
0010
0100
1000
,
0001
0100
0010
1000
0001
0100
0010
1000
0001
0100
0010
1000
0001
1000
0001
1000
,
0001
1000
0010
1000
0100
0010
0001
1000
0001
0010
0100
1000
0001
0100
0010
1000
,
0001
1000
0010
1000
0100
0010
0001
1000
0001
0010
0100
1000
0001
0100
0010
1000
,
0001
1000
0010
1000
0100
0010
0001
1000
0001
0010
0100
1000
0001
0100
0010
1000
,
0001
0010
0100
1000
0001
0010
0100
1000
0001
0010
0100
1000
0001
1000
0001
1000
,
0100
0010
0001
1000
0100
0010
0001
1000
0100
1000
0001
0010
0001
1000
0100
0010
,
0001
1000
0010
0100
0001
1000
0010
0100
0001
1000
0010
1000
0001
0100
0001
1000
,
0100
0010
0001
1000
0100
0010
0001
1000
0100
1000
0100
0010
0001
1000
0100
1000
,
0001
0000
0000
0000
0000
0000
0100
0000
0000
0010
0000
0000
0100
0000
0000
0001
0000
0000
1000
0000
0000
0000
0000
0000
0100
0000
0000
0000
0000
0000
0010
0000
0000
0000
0000
0000
0100
0000
0000
0000
0000
0000
1000
0000
0100
0000
1000
0000
,
0002
0000
0000
0003
,
2112
0000
0000
0000
,
0000
0000
0000
0000
,
0000
0000
0000
0000
,
0000
0000
0000
3003
,
0000
0000
0001
0000
0100
0000
0020
0030
0000
0000
0001
0000
0100
0000
0020
0030
,
0000
0000
0001
0000
0010
0000
0200
0300
0000
0000
0001
0000
0010
0000
0200
0300
,
0000
0000
1000
0000
0010
0000
0200
0300
0000
0000
1000
0000
0010
0000
0200
0300
,
0000
0000
0001
0000
1000
0000
0200
0300
0000
0000
0001
0000
1000
0000
0200
0300
,
0000
0000
1000
0000
0100
0000
0020
0030
0000
0000
1000
0000
0100
0000
0020
0030
,
0000
0000
1000
0000
0010
0000
0200
0300
0000
0000
1000
0000
0010
0000
0200
0300
,
0000
0000
0001
0000
0010
0000
0200
0300
0000
0000
0001
0000
0010
0000
0200
0300
,
0000
0000
1000
0000
0001
0000
0200
0300
0000
0000
1000
0000
0001
0000
0200
0300
,
0000
0000
0001
0000
0010
0000
0200
0300
0000
0000
0001
0000
0010
0000
0200
0300
,
0000
0000
0001
0000
0100
0000
0020
0030
0000
0000
0001
0000
0100
0000
0020
0030
,
0000
0000
1000
0000
0100
0000
0020
0030
0000
0000
1000
0000
0100
0000
0020
0030
,
0000
0000
0001
0000
1000
0000
0020
0030
0000
0000
00M0
0000
0001
1000
0100
0010
,
0002
0000
0000
0000
0023
0032
0203
0000
,
0320
2030
3002
0203
,
0320
0000
0000
0000
2030
3200
0320
0032
,
0203
0000
0000
0000
0000
0000
0000
0000
0000
0000
0000
0000
0301
1000
0100
0010
,
0002
0000
0000
0000
0023
0032
0203
0000
,
0320
2030
3002
0203
,
0320
0000
0000
0000
2030
3200
0320
0032
,
2003
0000
0000
0000
3020
0000
0000
0000
0230
0000
0000
0000
0320
0000
0130
0001
,
0020
0000
0000
0000
0230
2300
3002
0000
,
0203
0320
2030
3002
,
0023
0000
0000
0000
0032
0203
0320
2030
,
3002
0000
0000
0000
0000
0000
0000
0000
0000
0000
0003
0000
0100
0010
1000
0001
,
0010
0100
1000
0001
0010
0100
1000
0001
0010
0001
1000
0100
1000
0001
0010
0100
,
1000
0001
0100
0010
1000
0001
0100
0010
1000
0001
0100
0001
1000
0010
1000
0001
,
0010
0100
1000
0001
0010
0100
1000
0001
0010
0001
0010
0100
1000
0001
0010
0000
,
1001
0000
0000
0000
0000
0000
0001
0000
0000
1000
0000
0000
0001
0000
0000
0000
0000
0000
1001
0000
0000
0000
0000
0000
1001
0000
0000
0000
0000
0000
1001
0000
0000
0000
0000
0000
1001
0000
0000
0000
0000
0000
0001
0000
0100
0000
0001
0000
,
1000
0000
0000
0000
0000
0000
0000
0000
0000
0000
0000
0000
0001
1000
0100
0010
,
0002
0103
0001
0100
0020
2030
3200
0310
,
0002
0103
0020
1030
0002
0013
0200
1300
,
0002
0013
0001
0010
0200
0320
0032
0203
,
0320
0000
1030
0000
0010
0000
1000
0000
0010
0000
1000
0000
0001
1000
0100
0010
,
0002
0103
0001
0100
0020
2030
3200
0310
,
0002
0103
0020
1030
0002
0013
0200
1300
,
0002
0013
0001
0010
0200
0320
0032
0203
,
0320
0000
1030
0000
0200
0000
0310
0000
0002
0000
0103
0000
0020
0000
0130
0001
,
0020
0130
0010
0100
2000
3002
0203
0310
,
2000
3001
0020
0130
2000
3001
0200
0310
,
2000
3001
1000
0001
0200
0320
0230
0302
,
2003
0000
3100
0000
1000
0000
0100
0000
1000
0000
0100
0000
0010
0001
1000
0010
,
0200
0310
0100
0010
2000
3002
0023
0130
,
2000
3001
0100
0020
2030
3001
0020
0130
,
2000
3001
1000
0001
0200
0320
0230
0302
,
0023
0000
0130
0000
2000
0000
3001
0000
0200
0000
0310
0000
2000
0000
3100
0010
,
0002
0103
0001
0100
0020
2030
3200
0310
,
0002
0103
0020
1030
0002
0013
0200
1300
,
0002
0013
0001
0010
0200
0320
0032
0203
,
0320
0000
1030
0000
0010
0000
1000
0000
0010
0000
1000
0000
0001
1000
0100
0010
,
0002
0103
0001
0100
0020
2030
3200
0310
,
0002
0103
0020
1030
0002
0013
0200
1300
,
0002
0013
0001
0010
0200
0320
0032
0203
,
0320
0000
1030
0000
0200
0000
0310
0000
0002
0000
0103
0000
0020
0000
0130
0001
,
0020
0130
0010
0100
2000
3002
0203
0310
,
2000
3001
0020
0130
2000
3001
0200
0310
,
2000
3001
1000
0001
0200
0320
0230
0302
,
2003
0000
3100
0000
1000
0000
0100
0000
1000
0000
0100
0000
0010
0001
1000
0010
,
0200
0310
0100
0010
2000
3002
0023
0130
,
2000
3001
0100
0020
2030
3001
0020
0130
,
2000
3001
1000
0001
0200
0320
0230
0302
,
0023
0000
0000
0000
0230
0000
0000
0000
0310
0001
1000
0010
0100
0001
1000
0100
,
1000
0001
0010
0100
0010
0001
0010
0001
1000
0001
0100
0001
0010
0100
0010
0100
,
1000
0001
0100
0010
1000
0010
1000
0001
0010
0100
0010
0001
0010
0100
0010
0001
,
1000
0010
0100
0010
1000
0100
0010
0100
1000
0001
0010
0100
0010
0001
0010
0001
,
1000
0001
1000
0100
0010
0001
0010
0001
0100
0010
1000
0001
0100
0010
0100
0001
,
1000
0001
0010
0100
0010
0001
0010
0001
1000
0001
0100
0001
0010
0100
0010
0100
,
1000
0001
0100
0010
1000
0010
1000
0001
0010
0100
0010
0001
0010
0100
0010
0001
,
1000
0010
0100
0010
1000
0100
0010
0100
1000
0001
0100
0010
0100
0001
0100
0010
,
1000
0100
0010
0100
1000
0001
1000
0100
0010
0001
1000
0100
1000
0100
0010
0001
,
1000
0001
0100
0010
0100
0001
0100
0001
1000
0001
0010
0001
0100
0010
0100
0010
,
1000
0001
0010
0100
1000
0100
1000
0001
0100
0010
0100
0001
0100
0010
0100
0001
,
1000
0100
0010
0100
1000
0010
0100
0010
1000
0001
0100
0010
0100
0001
0100
0001
,
1000
0001
1000
0010
0100
0001
0100
0001
0010
0100
1000
0001
0010
0100
0010
0001
,
1000
0001
0100
0010
0100
0001
0100
0001
1000
0001
0010
0001
0100
0010
0100
0010
,
1000
0001
0010
0100
1000
0100
1000
0001
0100
0010
0100
0001
0100
0010
0100
0001
,
1000
0100
0010
0100
1000
0010
0100
0010
1000
0001
0010
0100
0010
0001
0010
0100
,
1000
0010
0100
0010
1000
0001
1000
0010
0100
0001
1000
0010
1000
0010
0100
0001
,
1000
0001
0010
0100
0010
0001
0010
0001
1000
0001
0100
0001
0010
0100
0010
0100
,
1000
0001
0100
0010
1000
0010
1000
0001
0010
0100
0010
0001
0010
0100
0010
0001
,
1000
0010
0100
0010
1000
0100
0010
0100
1000
0001
0010
0100
0010
0001
0010
0001
,
1000
0001
1000
0100
0010
0001
0010
0001
0100
0010
1000
0001
0100
0010
0100
0001
,
1000
0001
0010
0100
0010
0001
0010
0001
1000
0001
0100
0001
0010
0100
0010
0100
,
1000
0001
0100
0010
1000
0010
1000
0001
0010
0100
0010
0001
0010
0100
0010
0001
,
1000
0010
0100
0010
1000
0100
0010
0100
1000
0001
0100
0010
0100
0001
0100
0010
,
1000
0100
0010
0100
1000
0001
1000
0100
0010
0001
1000
0100
1000
0100
0010
0001
,
1000
0001
0100
0010
0100
0001
0100
0001
1000
0001
0010
0001
0100
0010
0100
0010
,
1000
0001
0010
0100
1000
0100
1000
0001
0100
0010
0100
0001
0100
0010
0100
0001
,
1000
0100
0010
0100
1000
0010
0100
0010
1000
0001
0100
0010
0100
0001
0100
0001
,
1000
0001
1000
0010
0100
0001
0100
0001
0010
0100
1000
0001
0010
0100
0010
0001
,
0100
0010
1000
0001
0100
0010
1000
0001
0100
0001
1000
0001
0100
0010
1000
0001
,
0100
0010
1000
0001
0100
0001
1000
0010
1000
0001
0100
0010
1000
0001
0100
0000
,
0010
1000
0000
0001
0100
0000
0010
1000
0000
0001
1000
0000
1001
0000
1001
0000
,
0001
0010
0100
1000
0001
0010
0100
1000
0010
0000
0010
0000
0100
0001
1000
0010
,
0200
0000
0300
1MM1
,
0001
0100
0010
0100
0001
1000
0100
1000
0001
0010
0100
1000
0001
0100
0010
1000
,
0001
0100
0010
0100
0001
1000
0100
1000
0001
0010
0100
1000
0001
0100
0010
1000
,
0001
0100
0010
0100
0001
1000
0100
1000
0001
0010
0100
1000
0001
0100
0010
1000
,
0001
0010
0100
1000
0001
0010
0100
1000
0001
0010
0100
1000
0001
1000
0001
1000
,
0001
0010
0100
0010
0001
1000
0010
1000
0001
0100
0010
1000
0001
0010
0100
1000
,
0001
0010
0100
0010
0001
1000
0010
1000
0001
0100
0010
1000
0001
0010
0100
1000
,
0001
0010
0100
0010
0001
1000
0010
1000
0001
0100
0010
1000
0001
0010
0100
1000
,
0001
0100
0010
1000
0001
0100
0010
1000
0001
0100
0010
1000
0001
1000
0001
1000
,
0001
0100
0010
0100
0001
1000
0100
1000
0001
0010
0100
1000
0001
0100
0010
1000
,
0001
0100
0010
0100
0001
1000
0100
1000
0001
0010
0100
1000
0001
0100
0010
1000
,
0001
0100
0010
0100
0001
1000
0100
1000
0001
0010
0100
1000
0001
0100
0010
1000
,
0001
0010
0100
1000
0001
0010
0100
1000
0001
0010
0100
1000
0001
1000
0001
1000
,
0001
0010
0100
0010
0001
1000
0010
1000
0001
0100
0010
1000
0001
0010
0100
1000
,
0001
0010
0100
0010
0001
1000
0010
1000
0001
0100
0010
1000
0001
0010
0100
1000
,
0001
0010
0100
0010
0001
1000
0010
1000
0001
0100
0010
1000
0001
0010
0100
1000
,
0001
0000
0000
0000
0000
0000
1000
0000
0000
0010
0000
0000
0100
0000
0000
0010
0000
0000
1000
0000
0000
0000
0000
0000
0001
0000
0000
0000
0000
0000
0010
0000
0000
0000
0000
0000
0001
0000
0000
0000
0000
0000
1000
0000
0100
0000
1000
0000
,
0001
1000
0100
1000
0001
0100
0010
0100
0001
0010
0100
1000
0001
0100
0010
1000
,
0001
1000
0100
1000
0001
0100
0010
0100
0001
0010
0100
1000
0001
0100
0010
1000
,
0001
1000
0100
1000
0001
0100
0010
0100
0001
0010
0100
1000
0001
0100
0010
1000
,
0001
0010
0100
1000
0001
0010
0100
1000
0001
0010
0100
1000
0001
1000
0001
1000
,
0001
1000
0010
1000
0001
0010
0100
0010
0001
0100
0010
1000
0001
0010
0100
1000
,
0001
1000
0010
1000
0001
0010
0100
0010
0001
0100
0010
1000
0001
0010
0100
1000
,
0001
1000
0010
1000
0001
0010
0100
0010
0001
0100
0010
1000
0001
0010
0100
1000
,
0001
0100
0010
1000
0001
0100
0010
1000
0001
0100
0010
1000
0001
1000
0001
1000
,
0001
1000
0100
1000
0001
0100
0010
0100
0001
0010
0100
1000
0001
0100
0010
1000
,
0001
1000
0100
1000
0001
0100
0010
0100
0001
0010
0100
1000
0001
0100
0010
1000
,
0001
1000
0100
1000
0001
0100
0010
0100
0001
0010
0100
1000
0001
0100
0010
1000
,
0001
0010
0100
1000
0001
0010
0100
1000
0001
0010
0100
1000
0001
1000
0001
1000
,
0001
1000
0010
1000
0001
0010
0100
0010
0001
0100
0010
1000
0001
0010
0100
1000
,
0001
1000
0010
1000
0001
0010
0100
0010
0001
0100
0010
1000
0001
0010
0100
1000
,
0001
1000
0010
1000
0001
0010
0100
0010
0001
0100
0010
1000
0001
0010
0100
1000
,
0001
0000
0000
0000
0000
0000
1000
0000
0000
0100
0000
0000
0010
0000
0000
0100
0000
0000
1000
0000
0000
0000
0000
0000
0001
0000
0000
0000
0000
0000
0100
0000
0000
0000
0000
0000
0001
0000
0000
0000
0000
0000
1000
0000
0010
0000
1000
0000
,
0001
0100
0001
1000
0001
0100
0001
1000
,
0001
0010
0100
0010
0001
0010
0100
0010
,
0001
1000
0100
1000
0001
1000
0100
1000
,
0001
0100
0010
0100
0001
0100
0010
0100
,
1001
0010
1000
0001
1000
0010
1000
0001
,
1000
0100
0010
0100
1000
0100
0010
0100
,
1000
0001
0010
0001
1000
0001
0010
0001
,
1001
0000
0000
0000
0000
0000
0001
0000
0000
1000
0000
0000
0001
0000
0000
0000
0000
0000
1001
0000
0000
0000
0000
0000
1001
0000
0000
0000
0000
0000
1001
0000
0000
0000
0000
0000
1001
0000
0000
0000
0000
0000
0001
0000
0100
0000
0001
0000
,
1000
0100
0011
1000
0100
0010
0011
1000
,
0010
1000
0101
1000
0010
0100
0101
0001
,
0010
0100
1100
0001
0010
0001
1100
1000
,
0100
0010
0011
1000
0100
1000
0011
1000
,
1001
0000
0001
0000
0010
0100
0010
0001
0100
0001
1000
0010
1000
0000
0100
0000
,
1000
0001
0010
0001
0100
0010
0100
0001
0010
0001
1000
0100
1000
0000
0010
0000
,
1000
0001
0010
0001
0100
0010
0100
0001
0010
0001
1000
0100
1000
0000
0010
0000
,
1000
0010
0100
0001
1000
0010
0100
0001
1000
0001
0100
0001
1000
0001
0010
0100
,
2000
3100
1000
0100
0020
0032
0203
0310
,
2000
3100
0020
0031
2000
3010
0200
0301
,
2000
3010
1000
0010
0200
0320
2030
3200
,
0320
0000
0031
0000
0010
0000
0001
0000
0010
0000
0001
0000
1000
0001
0100
0010
,
2000
3100
1000
0100
0020
0032
0203
0310
,
2000
3100
0020
0031
2000
3010
0200
0301
,
2000
3010
1000
0010
0200
0320
2030
3200
,
0320
0000
0031
0000
0200
0000
0310
0000
2000
0000
3100
0000
0020
0000
0130
1000
,
0020
0130
0010
0100
0002
2003
3200
0310
,
0002
1003
0020
0130
0002
1003
0200
0310
,
0002
1003
0001
1000
0200
0320
0230
2300
,
3002
0000
0103
0000
0001
0000
0100
0000
0001
0000
0100
0000
0010
1000
0001
0010
,
0200
0310
0100
0010
0002
2003
3020
0130
,
0002
1003
0100
0020
0032
1003
0020
0130
,
0002
1003
0001
1000
0200
0320
0230
2300
,
3020
0000
0130
0000
0002
0000
1003
0000
0200
0000
0310
0000
0002
0000
0103
0010
,
2000
3100
1000
0100
0020
0032
0203
0310
,
2000
3100
0020
0031
2000
3010
0200
0301
,
2000
3010
1000
0010
0200
0320
2030
3200
,
0320
0000
0031
0000
0010
0000
0001
0000
0010
0000
0001
0000
1000
0001
0100
0010
,
2000
3100
1000
0100
0020
0032
0203
0310
,
2000
3100
0020
0031
2000
3010
0200
0301
,
2000
3010
1000
0010
0200
0320
2030
3200
,
0320
0000
0031
0000
0200
0000
0310
0000
2000
0000
3100
0000
0020
0000
0130
1000
,
0020
0130
0010
0100
0002
2003
3200
0310
,
0002
1003
0020
0130
0002
1003
0200
0310
,
0002
1003
0001
1000
0200
0320
0230
2300
,
3002
0000
0103
0000
0001
0000
0100
0000
0001
0000
0100
0000
0010
1000
0001
0010
,
0200
0310
0100
0010
0002
2003
3020
0130
,
0002
1003
0100
0020
0032
1003
0020
0130
,
0002
1003
0001
1000
0200
0320
0230
2300
,
3020
0000
0000
0000
0230
0000
0000
0000
0310
1000
0001
0010
0100
1000
0001
0100
,
0001
1000
0010
0100
0010
1000
0010
1000
0001
1000
0100
1000
0010
0100
0010
0100
,
0001
1000
0100
0010
0001
0010
0001
1000
0010
0100
0010
1000
0010
0100
0010
1000
,
0001
0010
0100
0010
0001
0100
0010
0100
0001
1000
0010
0100
0010
1000
0010
1000
,
0001
1000
0001
0100
0010
1000
0010
1000
0100
0010
0001
1000
0100
0010
0100
1000
,
0001
1000
0010
0100
0010
1000
0010
1000
0001
1000
0100
1000
0010
0100
0010
0100
,
0001
1000
0100
0010
0001
0010
0001
1000
0010
0100
0010
1000
0010
0100
0010
1000
,
0001
0010
0100
0010
0001
0100
0010
0100
0001
1000
0100
0010
0100
1000
0100
0010
,
0001
0100
0010
0100
0001
1000
0001
0100
0010
1000
0001
0100
0001
0100
0010
1000
,
0001
1000
0100
0010
0100
1000
0100
1000
0001
1000
0010
1000
0100
0010
0100
0010
,
0001
1000
0010
0100
0001
0100
0001
1000
0100
0010
0100
1000
0100
0010
0100
1000
,
0001
0100
0010
0100
0001
0010
0100
0010
0001
1000
0100
0010
0100
1000
0100
1000
,
0001
1000
0001
0010
0100
1000
0100
1000
0010
0100
0001
1000
0010
0100
0010
1000
,
0001
1000
0100
0010
0100
1000
0100
1000
0001
1000
0010
1000
0100
0010
0100
0010
,
0001
1000
0010
0100
0001
0100
0001
1000
0100
0010
0100
1000
0100
0010
0100
1000
,
0001
0100
0010
0100
0001
0010
0100
0010
0001
1000
0010
0100
0010
1000
0010
0100
,
0001
0010
0100
0010
0001
1000
0001
0010
0100
1000
0001
0010
0001
0010
0100
1000
,
0001
1000
0010
0100
0010
1000
0010
1000
0001
1000
0100
1000
0010
0100
0010
0100
,
0001
1000
0100
0010
0001
0010
0001
1000
0010
0100
0010
1000
0010
0100
0010
1000
,
0001
0010
0100
0010
0001
0100
0010
0100
0001
1000
0010
0100
0010
1000
0010
1000
,
0001
1000
0001
0100
0010
1000
0010
1000
0100
0010
0001
1000
0100
0010
0100
1000
,
0001
1000
0010
0100
0010
1000
0010
1000
0001
1000
0100
1000
0010
0100
0010
0100
,
0001
1000
0100
0010
0001
0010
0001
1000
0010
0100
0010
1000
0010
0100
0010
1000
,
0001
0010
0100
0010
0001
0100
0010
0100
0001
1000
0100
0010
0100
1000
0100
0010
,
0001
0100
0010
0100
0001
1000
0001
0100
0010
1000
0001
0100
0001
0100
0010
1000
,
0001
1000
0100
0010
0100
1000
0100
1000
0001
1000
0010
1000
0100
0010
0100
0010
,
0001
1000
0010
0100
0001
0100
0001
1000
0100
0010
0100
1000
0100
0010
0100
1000
,
0001
0100
0010
0100
0001
0010
0100
0010
0001
1000
0100
0010
0100
1000
0100
1000
,
0001
1000
0001
0010
0100
1000
0100
1000
0010
0100
0001
1000
0010
0100
0010
1000
,
0100
0010
0001
1000
0100
0010
0001
1000
0100
1000
0001
1000
0100
0010
0001
1000
,
0100
0010
0001
1000
0100
1000
0001
0010
0001
1000
0100
0010
0001
1000
0100
0000
,
0010
0001
0000
1000
0100
0000
0010
0001
0000
1000
0001
0000
1001
0000
1001
0000
,
1000
0100
0010
0001
1000
0100
0010
0001
0100
0000
0100
0000
0010
1000
0001
0100
,
0020
0000
0030
0000
;

//---------------dance-single - 14- (Zaia)----------------
#NOTES:
     dance-single:
     14- (Zaia):
     Hard:
     14:
     1.000,1.000,0.041,0.876,1.000,2982.000,17.000,363.000,0.000,0.000:
0000
0000
0000
0000
,
0000
0000
0000
0000
,
0000
0000
0000
0000
,
0000
0000
0000
0000
,
0000
0000
0000
0000
,
0000
0000
0000
0000
,
0000
0000
0000
0000
,
0000
0000
0000
0000
,
1020
0000
0000
0130
0001
0000
1000
0000
,
1200
0000
0000
0300
0010
0000
0000
0000
,
0021
0000
0000
0130
1000
0000
0010
0000
,
0201
0000
0010
0300
0100
0001
1000
0000
,
0001
1000
0001
1000
0001
0010
0001
0010
0100
0010
0100
0010
0100
1000
0100
1000
,
0001
1000
0001
1000
0010
0100
0010
0100
0001
0100
0001
0100
0010
1000
0010
1000
,
0001
1000
0100
0010
0100
1000
0001
0010
0100
1000
0001
1000
0100
1000
0100
0010
,
0100
1000
0001
1000
0010
0100
0001
0100
0010
1000
0001
1000
0010
0100
0001
1000
,
0020
0000
0000
0000
0000
0000
0000
0000
0000
0000
0000
0000
0000
0000
0000
0000
0000
0000
0000
0000
0000
0000
0000
0000
0000
0000
0000
0000
0000
0000
0000
0030
0010
0000
0000
0000
0000
0000
0000
0000
0200
0000
0000
0000
0000
0000
0000
0000
0000
0000
0000
0000
0000
0000
0000
0000
0000
0000
0000
0000
0000
0000
0000
0000
,
0301
2000
0000
0000
3020
0000
0000
0000
,
0230
0000
0302
0000
1003
0200
0000
0000
,
0320
0000
0000
0000
0000
0000
0000
0000
0000
0000
0000
0000
0000
0000
0000
0000
0000
0000
0000
0000
0000
0000
0000
0000
0000
0000
0000
0000
0000
0000
0000
0000
0032
0000
0000
0000
0000
0000
0000
0000
0000
0000
0000
0000
0000
0000
0000
0000
0000
0000
0000
0000
0000
0000
0000
0003
0001
0000
0000
0000
0000
0000
0000
0000
,
0200
0000
0000
0000
0000
0000
0000
0000
0000
0000
0000
0000
0000
0000
0000
0000
0000
0000
0000
0000
0000
0000
0000
0000
0000
0000
0000
0000
0000
0000
0000
0300
0100
0000
0000
0000
0000
0000
0000
0000
0020
0000
0000
0000
0000
0000
0000
0000
0000
0000
0000
0000
0000
0000
0000
0000
0000
0000
0000
0000
0000
0000
0000
0000
,
1030
0002
0000
0000
0203
0000
0000
0000
,
0320
0000
2030
0000
3001
0020
0000
0000
,
0230
0000
0000
0000
,
2300
0000
0000
0000
0000
0000
0000
0000
0000
0000
0000
0000
0000
0000
0000
0000
0000
0000
0000
0000
0000
0000
0000
0000
0000
0000
0000
0000
0000
0000
0000
3000
1000
0000
0000
0000
0000
0000
0000
0000
0200
0000
0000
0000
0000
0000
0000
0000
0000
0000
0000
0000
0000
0000
0000
0000
0000
0000
0000
0000
0000
0000
0000
0000
,
1300
0020
0000
0000
0230
0000
0000
0000
,
0302
0000
2003
0000
3001
0020
0000
0000
,
0230
0000
2300
0000
,
3020
0000
0000
0000
0130
0002
0000
0000
,
1003
0200
0000
0000
0310
0000
0100
0000
,
1000
0001
1000
0001
0100
0001
1000
0100
0010
0100
1000
0001
0010
0001
1000
0001
,
1000
0010
0100
0010
1000
0001
0100
0001
1000
0001
0010
0100
0010
0100
1000
0001
,
0020
0000
0000
0000
,
0130
1000
0100
0000
1000
0000
0001
0000
1000
0000
0001
0000
1000
0000
0001
0000
,
0100
0001
0100
0000
0001
0000
1000
0000
0001
0000
1000
0000
0001
0000
1000
0000
,
0010
0100
0010
0000
1000
0000
0001
0000
1000
0000
0001
0000
1000
0000
0001
0000
,
0010
0100
0010
0000
0001
0000
1000
0000
0001
0000
1000
0000
0001
1000
0100
0010
,
0100
1000
0010
1000
0010
1000
0010
1000
,
0001
0100
0001
0000
1000
0000
0010
0000
1000
0000
0010
0000
1000
0000
0010
0000
,
1000
0001
1000
0000
0001
0000
0010
0000
0001
0000
0010
0000
0001
0000
0010
0000
,
0100
0010
0100
0000
0020
0000
0032
0000
0023
0000
0230
0000
2300
0000
3002
0000
,
1003
0000
0010
0000
1000
0100
1000
0100
1000
0001
1000
0010
0100
0001
1000
0000
,
0001
0000
1000
0000
0001
0100
0001
0100
0001
1000
0001
0010
0100
1000
0001
0000
,
1000
0000
0010
0000
1000
0100
1000
0100
1000
0001
1000
0010
0100
0001
1000
0000
,
0001
0000
1000
0000
0001
0100
0001
0100
0001
1000
0001
0010
0100
1000
0001
0000
,
1000
0000
0010
0000
1000
0100
1000
0100
1000
0001
1000
0010
0100
0001
1000
0000
,
0001
0000
1000
0000
0001
0100
0001
0100
0001
1000
0001
0010
0100
1000
0001
0000
,
1000
0000
0010
0000
1000
0100
1000
0100
1000
0001
1000
0010
0100
0001
0010
0000
,
0001
0000
0000
1000
0000
0000
0001
0000
0000
1000
0000
0000
0001
0000
0000
1000
0000
0000
0001
0000
0000
1000
0010
1000
,
0001
0000
0100
0000
0001
0010
0001
0010
0001
1000
0001
0100
0010
1000
0001
0000
,
1000
0000
0001
0000
1000
0010
1000
0010
1000
0001
1000
0100
0010
0001
1000
0000
,
0001
0000
0100
0000
0001
0010
0001
0010
0001
1000
0001
0100
0010
1000
0001
0000
,
1000
0000
0001
0000
1000
0010
1000
0010
1000
0001
1000
0100
0010
0001
1000
0000
,
0001
0000
0100
0000
0001
0010
0001
0010
0001
1000
0001
0100
0010
1000
0001
0000
,
1000
0000
0001
0000
1000
0010
1000
0010
1000
0001
1000
0100
0010
0001
1000
0000
,
0001
0000
0100
0000
0001
0010
0001
0010
0001
1000
0001
0100
0010
1000
0001
0000
,
1000
0001
2000
3200
0320
0230
2300
3002
,
0103
0000
0001
0000
1000
0100
1000
0100
1000
0001
1000
0010
0100
0001
1000
0000
,
0001
0000
1000
0000
0001
0010
0001
0010
0001
1000
0001
0100
0010
1000
0001
0000
,
1000
0000
0001
0000
1000
0010
1000
0010
1000
0001
1000
0100
0010
0001
1000
0000
,
0001
0000
1000
0000
0001
0100
0001
0100
0001
1000
0001
0010
0100
1000
0001
0000
,
0100
0000
0001
0000
1000
0100
1000
0100
1000
0001
1000
0010
0100
0001
1000
0000
,
0001
0000
1000
0000
0001
0010
0001
0010
0001
1000
0001
0100
0010
1000
0001
0000
,
1000
0010
0100
0001
1000
0010
1000
0010
1000
0001
1000
0100
0010
0001
1000
0001
,
0100
0000
0000
0010
0000
0000
0100
0000
0000
0010
0000
0000
0100
0000
0000
0010
0000
0000
0100
0000
0000
0001
1000
0001
,
0100
0000
0000
0000
0001
0000
0000
0000
1000
0000
0001
0010
0001
0000
1000
0000
,
0010
0000
0000
0000
0100
0000
0000
0000
0001
0000
1000
0100
1000
0000
0001
0000
,
0100
0000
0000
0000
0010
0000
0000
0000
1000
0000
0001
0100
0010
0000
1000
0000
,
0001
0100
0010
1000
0001
0100
0010
1000
0001
0100
0010
1000
0001
1000
0001
1000
,
0001
0000
0000
0000
0100
0000
0000
0000
0010
0000
0100
0001
0100
0000
0010
0000
,
1000
0000
0000
0000
0100
0000
0000
0000
0010
0000
0100
1000
0100
0000
1000
0000
,
0001
0000
0000
0000
0100
0000
0000
0000
0010
0000
0100
0001
1000
0000
0010
0000
,
1000
0100
0010
0001
1000
0100
0010
0001
1000
0100
0010
0001
1000
0001
1000
0001
,
1000
0000
0000
0000
0010
0000
0000
0000
0100
0000
0001
1000
0001
0000
0010
0000
,
0100
0000
0000
0000
1000
0000
0000
0000
0001
0000
0100
0010
0100
0000
0001
0000
,
1000
0000
0000
0000
0100
0000
0000
0000
0010
0000
0100
1000
0010
0000
0100
0000
,
0001
1000
0010
0100
0001
1000
0010
0100
0001
1000
0010
0100
0001
1000
0001
1000
,
0001
0000
0000
0000
0010
0000
0000
0000
0100
0000
1000
0001
1000
0000
0010
0000
,
0100
0000
0000
0000
0001
0000
0000
0000
0010
0000
0100
1000
0100
0000
1000
0000
,
0001
0000
0000
0000
0100
0000
0000
0000
0010
0000
0100
0001
1000
0000
0010
0000
,
1000
0000
0000
0000
0000
0000
0010
0000
0000
0100
0000
0000
0010
0000
0000
1000
0000
0000
0001
0000
0000
0000
0000
0000
0010
0000
0000
0000
0000
0000
0100
0000
0000
0000
0000
0000
0010
0000
0000
0000
0000
0000
0001
0000
1000
0000
0001
0000
,
0010
0000
0000
0000
0100
0000
0000
0000
1000
0000
0001
0100
0010
0000
1000
0000
,
0100
0000
0000
0000
0010
0000
0000
0000
0100
0000
1000
0001
0100
0000
0010
0000
,
0100
0000
0000
0000
0001
0000
0000
0000
1000
0000
0100
0010
0001
0000
1000
0000
,
0001
1000
0010
0100
0001
1000
0010
0100
0001
1000
0010
0100
0001
1000
0001
1000
,
0001
0000
0000
0000
0010
0000
0000
0000
0100
0000
1000
0001
0010
0000
0001
0000
,
0100
0000
0000
0000
0010
0000
0000
0000
0100
0000
0001
1000
0010
0000
0100
0000
,
0001
0000
0000
0000
0010
0000
0000
0000
0100
0000
1000
0010
0100
0000
0001
0000
,
1000
0100
0010
0001
1000
0100
0010
0001
1000
0100
0010
0001
1000
0001
1000
0001
,
1000
0000
0000
0000
0010
0000
0000
0000
0100
0000
0001
1000
0100
0000
0010
0000
,
0100
0000
0000
0000
1000
0000
0000
0000
0010
0000
0100
0001
1000
0000
0010
0000
,
0100
0000
0000
0000
0010
0000
0000
0000
1000
0000
0100
0010
0001
0000
1000
0000
,
0001
1000
0010
0100
0001
1000
0010
0100
0001
1000
0010
0100
0001
1000
0001
1000
,
0001
0000
0000
0000
0010
0000
0000
0000
0100
0000
1000
0010
0100
0000
0001
0000
,
1000
0001
0100
0010
1000
0001
0100
0010
1000
0001
0100
0001
1000
0010
1000
0001
,
0010
0100
1000
0001
0010
0100
1000
0001
0010
0001
0010
0100
1000
0001
0010
0001
,
1000
0000
0000
0000
0000
0000
0010
0000
0000
0100
0000
0000
0010
0000
0000
1000
0000
0000
0001
0000
0000
0000
0000
0000
0010
0000
0000
0000
0000
0000
0100
0000
0000
0000
0000
0000
0010
0000
0000
0000
0000
0000
0001
0000
0010
0000
0001
0000
,
2000
0000
0000
3000
,
2002
0000
0000
0000
,
0000
0000
0000
0000
,
0000
0000
0000
0000
,
0000
0000
0000
3003
,
0000
0000
0001
0000
1000
0000
0020
0030
0000
0000
1000
0000
0001
0000
0020
0030
,
0000
0000
0001
0000
1000
0000
0200
0300
0000
0000
1000
0000
0001
0000
0200
0300
,
0000
0000
0001
0000
0010
0000
0200
0300
0000
0000
1000
0000
0010
0000
0200
0300
,
0000
0000
0001
0000
1000
0000
0200
0300
0000
0000
1000
0000
0001
0000
0200
0300
,
0000
0000
0001
0000
1000
0000
0020
0030
0000
0000
1000
0000
0001
0000
0020
0030
,
0000
0000
0001
0000
0010
0000
0200
0300
0000
0000
1000
0000
0010
0000
0200
0300
,
0000
0000
0001
0000
1000
0000
0200
0300
0000
0000
1000
0000
0010
0000
0200
0300
,
0000
0000
0001
0000
1000
0000
0200
0300
0000
0000
1000
0000
0001
0000
0200
0300
,
0000
0000
0001
0000
1000
0000
0200
0300
0000
0000
1000
0000
0001
0000
0200
0300
,
0000
0000
0001
0000
0100
0000
0020
0030
0000
0000
1000
0000
0100
0000
0020
0030
,
0000
0000
0001
0000
0010
0000
0200
0300
0000
0000
1000
0000
0010
0000
0200
0300
,
0000
0000
0001
0000
1000
0000
0020
0030
0000
0000
0000
0000
1000
0001
0100
0010
,
2000
0000
0000
0000
3200
2300
3020
0000
,
0230
0302
2003
3020
,
0230
0000
0000
0000
0302
0023
0230
2300
,
3020
0000
0000
0000
0000
0000
0000
0000
0000
0000
0000
0000
0030
1000
0010
0100
,
0002
0000
0000
0000
0023
0032
0203
0000
,
0320
2030
3002
0203
,
0320
0000
0000
0000
2030
3200
0320
0032
,
2003
0000
0000
0000
3020
0000
0000
0000
0230
0000
0000
0000
0320
0000
0130
0001
,
0020
0000
0000
0000
0230
2300
3002
0000
,
0203
0320
2030
3002
,
0023
0000
0000
0000
0032
0203
0320
2030
,
3002
0000
0000
0000
0000
0000
0000
0000
0000
0000
0003
0000
0000
0100
0010
1000
,
0001
0010
0100
1000
0001
0010
0100
1000
0001
0010
0001
1000
0100
1000
0001
0010
,
0100
1000
0001
0100
0010
1000
0001
0100
0010
1000
0001
0100
0001
1000
0010
1000
,
0001
0010
0100
1000
0001
0010
0100
1000
0001
0010
0001
0010
0100
1000
0001
0000
,
1001
0000
0000
0000
0000
0000
1000
0000
0000
0001
0000
0000
0100
0000
0000
0000
0000
0000
0001
0000
0000
0000
0000
0000
1000
0000
0000
0000
0000
0000
0001
0000
0000
0000
0000
0000
1000
0000
0000
0000
0000
0000
0001
0000
0100
0000
0001
0000
,
1000
0000
0000
0000
0000
0000
0000
0000
0000
0000
0000
0000
0001
1000
0100
0010
,
0002
0103
0001
0100
0020
2030
3200
0310
,
0002
0103
0020
1030
0002
0013
0200
1300
,
0002
0013
0001
0010
0200
0320
0032
0203
,
0320
0000
1030
0000
0010
0000
1000
0000
0010
0000
1000
0000
0001
1000
0100
0010
,
0002
0103
0001
0100
0020
2030
3200
0310
,
0002
0103
0020
1030
0002
0013
0200
1300
,
0002
0013
0001
0010
0200
0320
0032
0203
,
0320
0000
1030
0000
0200
0000
0310
0000
0002
0000
0103
0000
0020
0000
0130
0001
,
0020
0130
0010
0100
2000
3002
0203
0310
,
2000
3001
0020
0130
2000
3001
0200
0310
,
2000
3001
1000
0001
0200
0320
0230
0302
,
2003
0000
3100
0000
1000
0000
0100
0000
1000
0000
0100
0000
0010
0001
1000
0010
,
0200
0310
0100
0010
2000
3002
0023
0130
,
2000
3001
0100
0020
2030
3001
0020
0130
,
2000
3001
1000
0001
0200
0320
0230
0302
,
0023
0000
0130
0000
2000
0000
3001
0000
0200
0000
0310
0000
2000
0000
3100
0010
,
0002
0103
0001
0100
0020
2030
3200
0310
,
0002
0103
0020
1030
0002
0013
0200
1300
,
0002
0013
0001
0010
0200
0320
0032
0203
,
0320
0000
1030
0000
0010
0000
1000
0000
0010
0000
1000
0000
0001
1000
0100
0010
,
0002
0103
0001
0100
0020
2030
3200
0310
,
0002
0103
0020
1030
0002
0013
0200
1300
,
0002
0013
0001
0010
0200
0320
0032
0203
,
0320
0000
1030
0000
0200
0000
0310
0000
0002
0000
0103
0000
0020
0000
0130
0001
,
0020
0130
0010
0100
2000
3002
0203
0310
,
2000
3001
0020
0130
2000
3001
0200
0310
,
2000
3001
1000
0001
0200
0320
0230
0302
,
2003
0000
3100
0000
1000
0000
0100
0000
1000
0000
0100
0000
0010
0001
1000
0010
,
0200
0310
0100
0010
2000
3002
0023
0130
,
2000
3001
0100
0020
2030
3001
0020
0130
,
2000
3001
1000
0001
0200
0320
0230
0302
,
0023
0000
0000
0000
0230
0000
0000
0000
0310
0001
1000
0010
0100
0001
1000
0100
,
1000
0001
0010
0001
0010
0001
1000
0100
1000
0001
0010
0100
0010
0100
1000
0001
,
1000
0001
0100
0001
0100
0001
1000
0010
1000
0001
0100
0010
0100
0010
1000
0001
,
1000
0100
0010
0001
0010
0100
1000
0001
1000
0010
0100
0001
0100
0010
1000
0001
,
1000
0100
0010
0100
1000
0001
0010
0001
1000
0001
0100
0001
1000
0001
1000
0001
,
0100
0010
1000
0001
1000
0010
0100
0001
0100
0010
1000
0001
0100
0001
1000
0001
,
1000
0100
1000
0001
0010
0001
1000
0100
0010
0100
1000
0001
1000
0001
0010
0100
,
1000
0010
0100
0001
0100
0010
1000
0001
1000
0100
0010
0001
0010
0100
1000
0001
,
1000
0010
0100
0001
1000
0010
1000
0001
0100
0010
1000
0001
0100
0010
0100
0001
,
1000
0001
0100
0001
0100
0001
1000
0010
1000
0001
0100
0010
0100
0010
1000
0001
,
1000
0001
0010
0001
0010
0001
1000
0100
1000
0001
0010
0100
0010
0100
1000
0001
,
1000
0010
0100
0001
0100
0010
1000
0001
1000
0100
0010
0001
0010
0100
1000
0001
,
1000
0010
0100
0010
1000
0001
0100
0001
1000
0001
0010
0001
1000
0001
1000
0001
,
0010
0100
1000
0001
1000
0100
0010
0001
0010
0100
1000
0001
0010
0001
1000
0001
,
1000
0010
1000
0001
0100
0001
1000
0010
0100
0010
1000
0001
1000
0001
0100
0010
,
1000
0100
0010
0001
0010
0100
1000
0001
1000
0010
0100
0001
0100
0010
1000
0001
,
4000
0000
0000
0000
0000
0000
0000
3000
,
0001
1000
0100
1000
0100
1000
0001
0010
0001
1000
0100
0010
0100
0010
0001
1000
,
0001
1000
0010
1000
0010
1000
0001
0100
0001
1000
0010
0100
0010
0100
0001
1000
,
0001
0010
0100
1000
0100
0010
0001
1000
0001
0100
0010
1000
0010
0100
0001
1000
,
0001
0010
0100
0010
0001
1000
0100
1000
0001
1000
0010
1000
0001
1000
0001
1000
,
0010
0100
0001
1000
0001
0100
0010
1000
0010
0100
0001
1000
0010
1000
0001
1000
,
0001
0010
0001
1000
0100
1000
0001
0010
0100
0010
0001
1000
0001
1000
0100
0010
,
0001
0100
0010
1000
0010
0100
0001
1000
0001
0010
0100
1000
0100
0010
0001
1000
,
0001
0100
0010
1000
0001
0100
0001
1000
0010
0100
0001
1000
0010
0100
0010
1000
,
0001
1000
0010
1000
0010
1000
0001
0100
0001
1000
0010
0100
0010
0100
0001
1000
,
0001
1000
0100
1000
0100
1000
0001
0010
0001
1000
0100
0010
0100
0010
0001
1000
,
0001
0100
0010
1000
0010
0100
0001
1000
0001
0010
0100
1000
0100
0010
0001
1000
,
0001
0100
0010
0100
0001
1000
0010
1000
0001
1000
0100
1000
0001
1000
0001
1000
,
0100
0010
0001
1000
0001
0010
0100
1000
0100
0010
0001
1000
0100
1000
0001
1000
,
0001
0100
0001
1000
0010
1000
0001
0100
0010
0100
0001
1000
0001
1000
0010
0100
,
0001
1000
0000
0010
0100
0000
0001
0100
0000
0010
1000
0000
0001
0000
1000
0000
,
0001
0010
0100
1000
0010
0100
0010
0100
0001
0000
1000
0000
0010
0000
0000
0000
,
0200
0000
0000
0300
,
1000
0000
0000
0000
0010
0000
0000
0000
1000
0000
0001
0010
0001
0000
1000
0000
,
0010
0000
0000
0000
0100
0000
0000
0000
0001
0000
1000
0100
1000
0000
0001
0000
,
0100
0000
0000
0000
0010
0000
0000
0000
1000
0000
0001
0100
0010
0000
1000
0000
,
0001
0100
0010
1000
0001
0100
0010
1000
0001
0100
0010
1000
0001
1000
0001
1000
,
0001
0000
0000
0000
0100
0000
0000
0000
0010
0000
0100
0001
0100
0000
0010
0000
,
1000
0000
0000
0000
0100
0000
0000
0000
0010
0000
0100
1000
0100
0000
1000
0000
,
0001
0000
0000
0000
0100
0000
0000
0000
0010
0000
0100
0001
1000
0000
0010
0000
,
1000
0100
0010
0001
1000
0100
0010
0001
1000
0100
0010
0001
1000
0001
1000
0001
,
1000
0000
0000
0000
0010
0000
0000
0000
0100
0000
0001
1000
0001
0000
0010
0000
,
0100
0000
0000
0000
1000
0000
0000
0000
0001
0000
0100
0010
0100
0000
0001
0000
,
1000
0000
0000
0000
0100
0000
0000
0000
0010
0000
0100
1000
0010
0000
0100
0000
,
0001
1000
0010
0100
0001
1000
0010
0100
0001
1000
0010
0100
0001
1000
0001
1000
,
0001
0000
0000
0000
0010
0000
0000
0000
0100
0000
1000
0001
1000
0000
0010
0000
,
0100
0000
0000
0000
0001
0000
0000
0000
0010
0000
0100
1000
0100
0000
1000
0000
,
0001
0000
0000
0000
0100
0000
0000
0000
0010
0000
0100
0001
1000
0000
0010
0000
,
1000
0000
0000
0000
0000
0000
0010
0000
0000
0100
0000
0000
0010
0000
0000
1000
0000
0000
0001
0000
0000
0000
0000
0000
0010
0000
0000
0000
0000
0000
0100
0000
0000
0000
0000
0000
0010
0000
0000
0000
0000
0000
0001
0000
1000
0000
0001
0000
,
0010
0000
0000
0000
0100
0000
0000
0000
1000
0000
0001
0100
0010
0000
1000
0000
,
0100
0000
0000
0000
0010
0000
0000
0000
0100
0000
1000
0001
0100
0000
0010
0000
,
0100
0000
0000
0000
0001
0000
0000
0000
1000
0000
0100
0010
0001
0000
1000
0000
,
0001
1000
0010
0100
0001
1000
0010
0100
0001
1000
0010
0100
0001
1000
0001
1000
,
0001
0000
0000
0000
0010
0000
0000
0000
0100
0000
1000
0001
0010
0000
0001
0000
,
0100
0000
0000
0000
0010
0000
0000
0000
0100
0000
0001
1000
0010
0000
0100
0000
,
0001
0000
0000
0000
0010
0000
0000
0000
0100
0000
1000
0010
0100
0000
0001
0000
,
1000
0100
0010
0001
1000
0100
0010
0001
1000
0100
0010
0001
1000
0001
1000
0001
,
1000
0000
0000
0000
0010
0000
0000
0000
0100
0000
0001
1000
0100
0000
0010
0000
,
0100
0000
0000
0000
1000
0000
0000
0000
0010
0000
0100
0001
1000
0000
0010
0000
,
0100
0000
0000
0000
0010
0000
0000
0000
1000
0000
0100
0010
0001
0000
1000
0000
,
0001
1000
0010
0100
0001
1000
0010
0100
0001
1000
0010
0100
0001
1000
0001
1000
,
0001
0000
0000
0000
0010
0000
0000
0000
0100
0000
1000
0010
0100
0000
0001
0000
,
0010
0000
0000
0000
0001
0000
0000
0000
0100
0000
0010
1000
0001
0000
0010
0000
,
0100
0000
0000
0000
0010
0000
0000
0000
0001
0000
1000
0010
0100
0000
0001
0000
,
1000
0000
0000
0000
0000
0000
0010
0000
0000
0100
0000
0000
0010
0000
0000
1000
0000
0000
0001
0000
0000
0000
0000
0000
0010
0000
0000
0000
0000
0000
0100
0000
0000
0000
0000
0000
0010
0000
0000
0000
0000
0000
0001
0000
0010
0000
0001
0000
,
1000
0010
1000
0001
1000
0010
1000
0001
,
1000
0100
0010
0100
1000
0100
0010
0100
,
1000
0001
0010
0001
1000
0001
0010
0001
,
1000
0010
0100
0010
1000
0010
0100
0010
,
1001
0100
0001
1000
0001
0100
0001
1000
,
0001
0010
0100
0010
0001
0010
0100
0010
,
0001
1000
0100
1000
0001
1000
0100
1000
,
1001
0000
0000
0000
0000
0000
0001
0000
0000
1000
0000
0000
0001
0000
0000
0000
0000
0000
1000
0000
0000
0000
0000
0000
0001
0000
0000
0000
0000
0000
1000
0000
0000
0000
0000
0000
0001
0000
0000
0000
0000
0000
1000
0000
0010
0000
1000
0000
,
0001
0010
1100
0001
0010
0100
1100
0001
,
0100
0001
1010
0001
0100
0010
1010
1000
,
0100
0010
0011
1000
0100
1000
0011
0001
,
0010
0100
1100
0001
0010
0001
1100
0001
,
1001
0000
1000
0000
0100
0010
0100
1000
0010
1000
0001
0100
0001
0000
0010
0000
,
0001
1000
0100
1000
0010
0100
0010
1000
0100
1000
0001
0010
0001
0000
0100
0000
,
0001
1000
0100
1000
0010
0100
0010
1000
0100
1000
0001
0010
0001
0000
0100
0000
,
0001
0100
0010
1000
0001
0100
0010
1000
0001
1000
0010
1000
0001
1000
0100
0010
,
0002
0013
0001
0010
0200
2300
3020
0130
,
0002
0013
0200
1300
0002
0103
0020
1030
,
0002
0103
0001
0100
0020
0230
0302
0023
,
0230
0000
1300
0000
0100
0000
1000
0000
0100
0000
1000
0000
0001
1000
0010
0100
,
0002
0013
0001
0010
0200
2300
3020
0130
,
0002
0013
0200
1300
0002
0103
0020
1030
,
0002
0103
0001
0100
0020
0230
0302
0023
,
0230
0000
1300
0000
0020
0000
0130
0000
0002
0000
0013
0000
0200
0000
0310
0001
,
0200
0310
0100
0010
2000
3002
0023
0130
,
2000
3001
0200
0310
2000
3001
0020
0130
,
2000
3001
1000
0001
0020
0230
0320
0032
,
2003
0000
3010
0000
1000
0000
0010
0000
1000
0000
0010
0000
0100
0001
1000
0100
,
0020
0130
0010
0100
2000
3002
0203
0310
,
2000
3001
0010
0200
2300
3001
0200
0310
,
2000
3001
1000
0001
0020
0230
0320
0032
,
0203
0000
0310
0000
2000
0000
3001
0000
0020
0000
0130
0000
2000
0000
3010
0100
,
0002
0013
0001
0010
0200
2300
3020
0130
,
0002
0013
0200
1300
0002
0103
0020
1030
,
0002
0103
0001
0100
0020
0230
0302
0023
,
0230
0000
1300
0000
0100
0000
1000
0000
0100
0000
1000
0000
0001
1000
0010
0100
,
0002
0013
0001
0010
0200
2300
3020
0130
,
0002
0013
0200
1300
0002
0103
0020
1030
,
0002
0103
0001
0100
0020
0230
0302
0023
,
0230
0000
1300
0000
0020
0000
0130
0000
0002
0000
0013
0000
0200
0000
0310
0001
,
0200
0310
0100
0010
2000
3002
0023
0130
,
2000
3001
0200
0310
2000
3001
0020
0130
,
2000
3001
1000
0001
0020
0230
0320
0032
,
2003
0000
3010
0000
1000
0000
0010
0000
1000
0000
0010
0000
0100
0001
1000
0100
,
0020
0130
0010
0100
2000
3002
0203
0310
,
2000
3001
0010
0200
2300
3001
0200
0310
,
2000
3001
1000
0001
0020
0230
0320
0032
,
0203
0000
0000
0000
0320
0000
0000
0000
0130
0001
1000
0100
0010
0001
1000
0010
,
1000
0001
0010
0001
0010
0001
1000
0100
1000
0001
0010
0100
0010
0100
1000
0001
,
1000
0001
0100
0001
0100
0001
1000
0010
1000
0001
0100
0010
0100
0010
1000
0001
,
1000
0100
0010
0001
0010
0100
1000
0001
1000
0010
0100
0001
0100
0010
1000
0001
,
1000
0100
0010
0100
1000
0001
0010
0001
1000
0001
0100
0001
1000
0001
1000
0001
,
0100
0010
1000
0001
1000
0010
0100
0001
0100
0010
1000
0001
0100
0001
1000
0001
,
1000
0100
1000
0001
0010
0001
1000
0100
0010
0100
1000
0001
1000
0001
0010
0100
,
1000
0010
0100
0001
0100
0010
1000
0001
1000
0100
0010
0001
0010
0100
1000
0001
,
1000
0010
0100
0001
1000
0010
1000
0001
0100
0010
1000
0001
0100
0010
0100
0001
,
1000
0001
0100
0001
0100
0001
1000
0010
1000
0001
0100
0010
0100
0010
1000
0001
,
1000
0001
0010
0001
0010
0001
1000
0100
1000
0001
0010
0100
0010
0100
1000
0001
,
1000
0010
0100
0001
0100
0010
1000
0001
1000
0100
0010
0001
0010
0100
1000
0001
,
1000
0010
0100
0010
1000
0001
0100
0001
1000
0001
0010
0001
1000
0001
1000
0001
,
0010
0100
1000
0001
1000
0100
0010
0001
0010
0100
1000
0001
0010
0001
1000
0001
,
1000
0010
1000
0001
0100
0001
1000
0010
0100
0010
1000
0001
1000
0001
0100
0010
,
1000
0100
0010
0001
0010
0100
1000
0001
1000
0010
0100
0001
0100
0010
1000
0001
,
4000
0000
0000
0000
0000
0000
0000
3000
,
0001
1000
0100
1000
0100
1000
0001
0010
0001
1000
0100
0010
0100
0010
0001
1000
,
0001
1000
0010
1000
0010
1000
0001
0100
0001
1000
0010
0100
0010
0100
0001
1000
,
0001
0010
0100
1000
0100
0010
0001
1000
0001
0100
0010
1000
0010
0100
0001
1000
,
0001
0010
0100
0010
0001
1000
0100
1000
0001
1000
0010
1000
0001
1000
0001
1000
,
0010
0100
0001
1000
0001
0100
0010
1000
0010
0100
0001
1000
0010
1000
0001
1000
,
0001
0010
0001
1000
0100
1000
0001
0010
0100
0010
0001
1000
0001
1000
0100
0010
,
0001
0100
0010
1000
0010
0100
0001
1000
0001
0010
0100
1000
0100
0010
0001
1000
,
0001
0100
0010
1000
0001
0100
0001
1000
0010
0100
0001
1000
0010
0100
0010
1000
,
0001
1000
0010
1000
0010
1000
0001
0100
0001
1000
0010
0100
0010
0100
0001
1000
,
0001
1000
0100
1000
0100
1000
0001
0010
0001
1000
0100
0010
0100
0010
0001
1000
,
0001
0100
0010
1000
0010
0100
0001
1000
0001
0010
0100
1000
0100
0010
0001
1000
,
0001
0100
0010
0100
0001
1000
0010
1000
0001
1000
0100
1000
0001
1000
0001
1000
,
0100
0010
0001
1000
0001
0010
0100
1000
0100
0010
0001
1000
0100
1000
0001
1000
,
0001
0100
0001
1000
0010
1000
0001
0100
0010
0100
0001
1000
0001
1000
0010
0100
,
0001
1000
0000
0010
0100
0000
0001
0100
0000
0010
1000
0000
0001
0000
1000
0000
,
0001
0010
0100
1000
0010
0100
0010
0100
0001
0000
1000
0000
0010
0000
0000
0000
,
0200
0000
0000
0300
;
