#TITLE:The Forgotten One;
#SUBTITLE:;
#ARTIST:Metea11;
#TITLETRANSLIT:;
#SUBTITLETRANSLIT:;
#ARTISTTRANSLIT:;
#CREDIT:Mad Matt;
#BANNER:../Tachyon Delta-bn.png;
#BACKGROUND:../Tachyon Delta-bg.png;
#LYRICSPATH:;
#CDTITLE:;
#MUSIC:The Forgotten One.ogg;
#OFFSET:0.025;
#SAMPLESTART:40.992;
#SAMPLELENGTH:12.000;
#SELECTABLE:YES;
#DISPLAYBPM:150.000;
#BPMS:0.000=150.000;
#STOPS:;
#BGCHANGES:;
// cache tags:
#FIRSTBEAT:20.000;
#LASTBEAT:440.000;
#SONGFILENAME:Songs/Tachyon Delta/The Forgotten One - [Mad Matt]/The Forgotten One.sm;
#HASMUSIC:1;
#HASBANNER:1;
#MUSICLENGTH:181.218;
// end cache tags

//---------------dance-single - Mad Matt----------------
#NOTES:
     dance-single:
     Mad Matt:
     Challenge:
     15:
     1.000,1.000,0.000,0.210,1.000,1425.000,0.000,38.000,0.000,0.000:

0000
0000
0000
0000
,
0000
0000
0000
0000
,
0000
0000
0000
0000
,
0000
0000
0000
0000
,
0000
0000
0000
0000
,
1000
0010
1000
0100
0010
0001
1000
0020
,
0000
0130
0001
1000
0100
0010
0100
1000
,
0001
0100
0010
1000
0010
0100
0001
0020
,
0000
0031
0010
0100
1000
0100
0010
0100
,
1000
0001
0100
0010
2000
0000
3001
0100
,
0001
1000
0100
0010
0001
0010
0100
1000
,
0020
0000
0130
0001
0020
0000
0130
1000
,
0001
0010
0000
0001
1000
0000
0001
0100
0000
0010
1000
0000
0010
0100
0001
0000
,
1000
0100
0010
0100
1000
0010
0100
0001
1000
0010
0100
0001
1000
0100
0010
0001
,
0010
0100
1000
0100
0010
0100
1000
0100
0010
0001
0010
0100
0010
0001
0010
0100
,
1000
0001
0100
0010
1000
0100
1000
0010
0100
0001
0100
0010
1000
0100
1000
0010
,
0100
0001
0100
0010
1000
0010
0100
0001
1000
0100
0010
0001
1000
0100
0010
0100
,
1000
0010
1000
0001
0010
0100
1000
0001
0100
0001
0010
0100
1000
0001
0010
0100
,
1000
0010
0100
0001
1000
0100
0010
0001
1000
0010
0100
0001
1000
0100
0010
0001
,
1000
0100
0010
0001
0100
0001
1000
0001
0010
0000
0100
0000
1000
0000
0010
0000
,
0100
0000
0001
0000
1000
0000
0001
0000
0010
0100
1000
0100
0010
0001
0100
0001
,
1000
0100
0010
0001
1000
0100
0010
0001
1000
0100
0010
0001
1000
0010
0100
0001
1000
0010
0100
0001
0010
0100
1000
0001
,
0100
0010
1000
0001
1000
0001
0010
0100
1000
0001
0010
0100
1000
0001
0100
0010
1000
0001
1000
0100
0010
0001
0100
0010
,
1000
0100
0010
0001
1000
0010
0100
0010
1000
0100
0010
0100
1000
0010
0100
0010
,
1000
0100
0010
0001
0010
0100
0010
0001
0010
0100
1000
0100
0010
0001
0010
0100
,
1000
0000
0010
0000
0100
0000
0001
0000
0100
0000
0010
0000
1000
0001
0100
0010
1000
0001
1000
0010
0100
0001
0100
0010
,
1000
0000
0010
0000
0100
0000
0001
0000
0100
0000
0010
0000
1000
0001
0100
0010
1000
0001
1000
0010
0100
0001
0100
0010
,
1000
0000
0100
0000
0010
0000
0001
0000
0010
0000
0100
0000
1000
0001
0010
0100
1000
0001
1000
0100
0010
0001
0010
0100
,
1000
0000
0100
0000
0010
0000
0001
0000
0010
0000
0100
0000
1000
0001
0010
0100
1000
0001
1000
0100
0010
0001
0010
0100
,
1000
0000
0010
0000
0100
0000
0001
0000
0100
0000
0010
0000
1000
0001
0100
0010
1000
0001
1000
0010
0100
0001
0100
0010
,
1000
0000
0010
0000
0100
0000
0001
0000
0100
0000
0010
0000
1000
0001
0100
0010
1000
0001
1000
0010
0100
0001
0100
0010
,
1000
0001
0100
0001
1000
0010
1000
0100
0010
0100
1000
0010
1000
0001
0010
0100
,
1000
0001
0100
0010
1000
0001
0100
0001
1000
0001
0010
0100
1000
0001
1000
0100
1000
0001
1000
0010
1000
0001
0100
0001
,
1000
0000
0010
0000
1000
0000
0001
0000
0100
0000
0010
0000
1000
0000
0010
0000
0100
0000
0002
0000
0000
0000
0000
0000
0000
0000
0000
2003
0000
0000
0000
0000
0000
0000
0000
0000
3020
0000
0000
0000
0000
0000
0000
0000
0000
0000
0000
0000
,
2030
0000
3200
0000
0320
0000
0130
1000
,
0002
0203
0320
0230
,
0302
0000
0023
0000
0130
0010
0002
0000
,
2003
3200
2300
3002
,
1003
0010
0100
0001
1000
0010
1000
0001
0100
0001
1000
0010
0100
0001
1000
0100
1000
0001
0010
0001
1000
0100
0010
0001
,
1000
0010
0100
0001
1000
0010
1000
0001
0100
0001
1000
0010
0100
0001
1000
0100
1000
0001
0010
0001
1000
0100
0010
0001
,
1000
0100
0010
0001
0010
0100
0010
0001
0010
0100
1000
0100
0010
0100
1000
0001
0100
0001
1000
0010
1000
0001
0100
0010
,
1000
0000
0000
1000
0000
0000
1000
0000
0000
0001
0000
0000
0100
0000
0010
0000
,
1000
0000
0000
1000
0000
0000
1000
0000
0000
0001
0000
0000
0010
0000
0100
0000
,
1000
0000
0000
1000
0000
0000
1000
0000
0000
0001
0000
0000
0100
0000
0010
0000
,
1000
0000
0000
1000
0000
0000
1000
0000
0000
0001
0000
0000
0010
0000
0100
0000
,
1000
0010
0100
0010
1000
0001
0100
0010
1000
0001
0100
0010
1000
0001
0010
0100
,
1000
0001
0100
0010
1000
0010
0100
0001
1000
0100
0010
0100
1000
0100
0010
0001
,
1000
0000
0000
0100
0000
0000
0010
0000
0000
0100
0000
0000
1000
0000
0000
0100
0000
0000
0010
0000
0000
0001
0000
0000
1000
0000
0000
0010
0000
0000
0100
0000
0000
0000
0000
0000
0001
0000
0000
0000
0000
0000
1000
0000
0010
0000
0100
0000
,
0010
0000
0100
0000
0001
0000
0100
0000
0010
0000
1000
0000
0001
0000
0100
0000
0010
0000
1000
0000
0000
0001
0000
0000
0010
0000
0000
0100
0000
0000
1000
0000
0000
0001
0000
0000
0010
0000
0000
0100
0000
0000
0000
0000
0000
0000
0000
0000
,
1000
0000
0001
0010
0000
0010
0100
0000
1000
0000
0001
0010
0000
0010
0100
0000
,
1000
0000
0001
0100
0000
0100
0010
0000
1000
0000
0001
0100
0000
0100
0010
0000
,
1000
0000
0001
0010
0000
0010
0100
0000
1000
0000
0001
0010
0000
0010
0100
0000
,
1000
0000
0010
0100
0000
0100
0001
0000
1000
0000
0100
0010
0000
0010
0001
0000
,
1000
0100
0010
0001
1000
0100
1000
0001
0010
0001
1000
0010
0100
0001
1000
0100
1000
0001
0010
0001
1000
0100
0010
0001
,
1000
0010
0100
0001
1000
0010
1000
0001
0100
0001
1000
0100
0010
0001
1000
0010
1000
0001
0100
0001
1000
0010
0100
0001
,
1000
0100
0010
0100
1000
0100
0010
0001
0010
0100
0010
0001
0010
0100
1000
0001
0100
0001
1000
0010
1000
0001
0100
0010
,
1000
0001
0010
0100
1000
0001
1000
0100
0010
0001
1000
0001
0100
0010
1000
0001
0000
0000
0010
0000
0000
0100
0000
0000
,
1000
0010
0100
0001
1000
0100
1000
0010
,
0100
0001
0010
0100
0010
0100
0010
0100
,
1000
0000
0001
0000
0100
0010
0000
0010
1000
0000
0001
0000
0100
0010
0000
0010
,
1000
0000
0001
0000
0010
0100
0000
0100
1000
0000
0001
0000
0010
0100
0000
0100
,
1000
0000
0001
0000
0010
0100
0000
0100
1000
0000
0001
0000
1000
0010
0000
0010
,
0100
0000
0001
0000
0100
0010
0000
0010
1000
0000
0001
0000
0010
0100
0000
0100
,
1000
0000
0001
0000
0010
0100
0000
0100
1000
0000
0001
0000
1000
0010
0000
0010
,
0100
0000
0001
0000
0100
0010
0000
0010
1000
0000
0001
0000
0010
0100
0000
0100
,
1000
0000
0001
0000
0010
0100
0000
0100
1000
0000
0001
0000
1000
0010
0000
0010
,
0100
0000
0001
0000
1000
0000
0010
0000
0100
0000
0001
1000
0010
0100
0001
1000
,
0010
0100
0010
1000
0010
0100
0001
0100
0010
1000
0001
1000
0100
1000
0010
1000
,
0001
1000
0100
0010
0100
1000
0001
0010
0100
0010
0001
1000
0001
0100
0001
1000
,
0001
0010
0100
1000
0100
0010
0001
0100
0001
1000
0100
0010
0001
1000
0010
1000
,
0100
0010
0001
0100
0001
1000
0100
0010
0001
1000
0010
1000
0100
0010
0001
0100
,
0001
1000
0100
0010
0001
1000
0010
1000
0100
0010
0001
0100
0001
1000
0100
0010
,
0001
1000
0100
1000
0001
0100
0001
1000
0010
1000
0001
0010
0001
1000
0100
1000
,
0001
0100
0010
1000
0001
0010
0001
0100
0010
1000
0100
1000
0001
0100
0010
1000
,
0001
0010
0001
0100
0010
1000
0100
1000
0001
0100
0010
1000
0010
0100
0001
1000
,
0010
0100
0002
0000
0203
0000
0320
0000
,
1030
0001
0020
0000
0230
0000
0310
0001
,
1000
0010
0100
0001
1000
0010
0100
0001
,
1000
0010
0100
0001
1000
0100
0010
0001
,
1000
0010
0100
0001
1000
0010
0100
0001
1000
0010
0100
0001
1000
0001
0100
0001
,
0010
0100
1000
0001
0010
0100
1000
0001
0010
0100
1000
0001
1000
0010
1000
0001
,
0010
0100
0010
0001
1000
0100
0010
0100
1000
0001
0010
0001
1000
0010
0100
0001
,
0010
0100
0010
0001
1000
0100
0010
0100
1000
0001
0010
0001
1000
0010
0100
0001
,
1000
0100
1000
0001
0100
0001
1000
0100
1000
0001
0100
0001
1000
0100
0010
0001
,
1000
0010
1000
0001
0010
0001
1000
0010
1000
0001
0010
0001
1000
0010
0100
0001
,
1000
0100
0010
0001
1000
0001
0010
0100
1000
0001
1000
0100
0010
0001
1000
0001
0010
0100
1000
0001
0100
0010
0100
0001
,
1000
0100
0010
0001
1000
0001
0010
0100
1000
0001
1000
0100
0010
0001
1000
0001
0010
0100
1000
0001
0100
0010
0000
0000
,
1000
0000
0100
0000
0010
0000
0001
0000
0000
1000
0000
0000
0001
0000
0010
0000
0100
0000
1000
0000
0000
0000
0000
0000
0001
0000
0000
1000
0000
0000
0010
0000
0000
1000
0000
0000
0001
0000
0000
0010
0000
0000
0100
0000
0000
0010
0000
0000
,
0001
1000
0010
1000
0001
0010
0100
0010
0001
1000
0010
1000
0001
0010
0100
1000
,
0001
0010
0001
0100
0001
1000
0100
1000
0001
0010
0001
0100
0001
1000
0100
1000
,
0001
0010
0001
0100
0001
1000
0100
1000
0001
0010
0001
0100
0001
1000
0010
1000
,
0100
0010
0001
0100
0001
1000
0010
1000
0100
0010
0001
0100
0001
1000
0010
1000
,
0001
0010
0100
1000
0100
0010
0001
1000
,
0001
1000
0010
0100
0001
0100
0010
1000
,
0001
0010
0100
1000
0100
0010
0001
1000
,
0001
0010
0100
1000
0001
0100
0001
0010
0100
1000
0010
1000
0001
0100
0001
1000
,
0001
0010
0001
0100
0001
1000
0010
1000
0100
1000
0001
0010
0001
0100
0001
1000
0010
1000
0100
1000
0001
0010
0001
0100
,
0001
1000
0010
0100
0001
1000
0010
0100
0001
1000
0001
0100
0010
1000
0001
1000
,
0010
1000
0100
1000
0001
0100
0010
1000
0001
0100
0001
0010
0001
1000
0001
0100
,
0001
1000
0010
0100
0001
1000
0010
0100
0001
1000
0001
0100
0010
1000
0001
1000
,
0010
1000
0100
1000
0001
0100
0010
1000
0001
0100
0001
0010
0001
0100
0001
1000
,
0001
0000
1000
0010
1000
0000
0001
0000
1000
0000
0001
0010
0001
0000
1000
0000
,
0001
0000
1000
0010
1000
0000
0001
0010
0001
0000
1000
0010
1000
0000
0001
0100
,
0001
0000
1000
0100
1000
0000
0001
0100
0001
0000
1000
0100
1000
0000
0001
1000
,
0100
0000
1000
0001
0100
0000
0001
1000
0100
0000
1000
0001
0100
0000
0001
1000
,
0100
1000
0010
0100
0001
1000
0001
0100
0010
1000
0001
0100
0010
0100
0010
1000
0001
1000
0100
1000
0001
0010
0100
1000
,
0002
0203
0320
2030
,
3200
0320
0032
2003
,
3001
0010
0000
0001
1000
0000
0001
0100
0000
0010
1000
0000
0010
0100
0001
0000
,
2000
3020
0230
0000
,
0300
0000
0000
0000
;
