#TITLE:PARANOID;
#SUBTITLE:EXoduz Violation;
#ARTIST:Steps by Ov3rHell3XoduZ;
#TITLETRANSLIT:;
#SUBTITLETRANSLIT:;
#ARTISTTRANSLIT:;
#CREDIT:;
#BANNER:../Banner.png;
#BACKGROUND:../Background.png;
#LYRICSPATH:;
#CDTITLE:;
#MUSIC:PARANOID.ogg;
#OFFSET:0.070;
#SAMPLESTART:10.000;
#SAMPLELENGTH:12.000;
#SELECTABLE:YES;
#DISPLAYBPM:180.000;
#BPMS:0.000=175.000,12.000=180.020,248.000=1000.000,314.500=15.000,314.521=1000.000,318.250=15.000,318.271=1000.000,322.250=15.000,322.271=1000.000,326.500=15.000,326.521=1000.000,330.750=15.000,330.771=300.000,332.000=15.000,332.021=300.000;
#STOPS:;
#BGCHANGES:;
// cache tags:
#FIRSTBEAT:0.000;
#LASTBEAT:364.000;
#SONGFILENAME:Songs/EXoduz Violation/Paranoid/paranoid.sm;
#HASMUSIC:1;
#HASBANNER:1;
#MUSICLENGTH:99.690;
// end cache tags

//---------------dance-single - ----------------
#NOTES:
     dance-single:
     :
     Challenge:
     15:
     1.000,1.000,0.772,0.692,1.000,795.000,77.000,69.000,15.000,1.000:

2000
3001
0100
0020
1030
0100
0020
0031
1000
0020
0130
0001
,
2000
3001
0100
0020
1030
0100
0020
0031
0010
0002
1003
0010
,
0200
0301
1000
0200
0310
0001
2000
3100
0010
0002
1003
0010
,
0200
0320
2030
3002
,
1003
0001
0100
0010
1000
0010
1000
0100
0010
0001
0010
0100
1000
0010
0100
0001
,
0010
0100
0010
0001
1000
0100
0010
0100
1000
0010
0100
0001
0100
0001
1000
0001
,
0010
0001
1000
0001
0100
0001
1000
0001
1000
0100
0010
0100
1000
0001
0010
0100
,
1000
0001
1000
0010
0100
0001
0010
0100
0010
0001
1000
0010
0100
0001
1000
0010
,
0100
0001
0100
0001
0000
0000
0100
0010
0100
0010
0000
0000
1000
0010
1000
0010
0000
0000
0100
0010
0100
0010
0000
0000
,
0100
0001
0100
0001
0000
0000
1000
0010
1000
0010
0000
0000
0100
0001
0100
0001
0000
0000
1000
0010
1000
0010
0000
0000
,
0100
0010
0100
0010
0000
0000
0100
0001
0100
0001
0000
0000
1000
0001
1000
0001
0000
0000
1000
0010
1000
0010
0000
0000
,
0100
0001
0100
0001
0000
0000
0010
0001
0010
0001
0000
0000
0100
0010
0100
0010
0000
0000
1000
0010
1000
0010
0000
0000
,
0202
0000
0000
0303
2000
0000
3020
0000
,
0230
0000
0302
0023
,
0230
0000
2300
3020
,
0130
0001
0100
0001
0000
0000
1000
0010
1000
0010
0000
0000
0100
0010
0100
0010
0000
0000
0100
0001
0100
0001
0000
0000
,
1000
0001
0100
0010
1000
0100
0010
0001
0010
0001
1000
0010
0100
0001
0010
0100
,
1000
0100
1000
0001
0010
0100
1000
0010
0100
0001
1000
0010
1000
0010
0100
0001
,
0010
0100
1000
0001
0010
0001
1000
0010
0100
0001
1000
0010
1000
0010
0100
0001
,
0010
0100
1000
0001
0010
0100
1000
0010
0100
0001
1000
0010
1000
0010
0100
0001
,
1000
1100
2200
0000
3300
0110
0110
0220
,
0330
0011
0011
0011
0101
1010
0110
0101
,
0202
0000
0000
0000
0000
0000
0303
0000
1000
0001
1000
0010
1000
0010
0100
0001
,
0010
0100
1000
0001
0010
0001
1000
0010
1000
0010
0100
0001
1000
0010
0100
0001
,
0010
0100
1000
0001
0010
0100
1000
0010
0100
0001
1000
0010
1000
0010
0100
0001
,
0010
0100
1000
0001
0010
0100
1000
0010
0100
0001
1000
0010
1000
0010
0100
0001
,
1000
0010
0100
0001
0010
0100
1000
0010
0100
0001
0010
0100
1000
0010
0100
0001
,
0010
0100
1000
0100
0010
0001
1000
0010
1000
0010
0100
0010
0100
0001
1000
0010
,
0100
0001
1000
0010
1000
0010
0100
0001
0010
0100
0010
0001
1000
0100
0010
0100
,
2000
3002
0203
0320
,
1030
0100
1000
0100
1000
0100
0010
0100
0010
0001
0010
0001
0010
0001
1000
0010
,
2000
3002
0203
0320
,
1030
0001
0100
0010
1000
0010
1000
0001
0100
0010
1000
0010
1000
0010
0100
0001
,
2000
3002
2003
3020
,
0130
0001
0100
0001
1000
0010
0100
0001
0010
0100
1000
0100
1000
0001
0010
0100
,
1000
0010
0100
0001
0010
0100
0010
0001
1000
0010
0100
0001
1000
0010
1000
0010
,
0100
0001
0010
0100
1000
0100
0010
0001
1000
0010
1000
0010
0100
0001
1000
0100
,
0010
0001
1000
0100
0010
0001
0010
0100
1000
0010
0100
0001
1000
0010
1000
0010
,
0100
0101
1000
0011
0100
1001
0020
0000
,
0130
1100
0010
0101
0001
1100
0020
0000
,
0130
1100
1000
1010
0100
0101
0020
0000
,
1030
0100
0101
0010
1010
1000
1200
0000
,
0310
0011
0022
0000
0033
0110
0110
0220
,
0330
1001
0011
0110
0110
1010
0101
0011
,
0110
0110
0220
0000
0330
1100
1100
2200
,
3300
0110
0011
1010
1001
1010
0110
0011
,
0100
0000
1000
0000
0001
0000
0010
0000
0000
0100
0000
0000
1000
0000
0010
0000
0100
0000
0001
0000
0000
1000
0000
0000
0010
0000
0100
0000
0001
0000
0100
0000
0000
0001
0000
0000
1000
0000
0010
0000
0100
0000
0001
0000
0000
0010
0000
0000
,
0100
0000
1000
0000
0010
0000
0100
0000
0000
0001
0000
0000
1000
0000
0001
0000
0100
0000
0010
0000
0000
1000
0000
0000
0100
0000
0010
0000
0001
0000
1000
0000
0000
0010
0000
0000
0100
0000
0001
0000
1000
0000
0010
0000
0000
0100
0000
0000
,
0001
0000
1000
0000
0010
0000
0100
0000
0000
0001
0000
0000
1000
0000
0100
0000
0010
0000
0001
0000
0000
1000
0000
0000
0010
0000
0100
0000
0001
0000
0010
0000
0000
0100
0000
0000
1000
0000
0001
0000
0010
0000
0100
0000
0000
1000
0000
0000
,
0010
0000
0100
0000
0001
0000
0010
0000
0000
0100
0000
0000
1000
0000
0010
0000
0100
0000
0001
0000
0000
1000
0000
0000
0010
0000
1000
0000
0010
0000
1000
0000
0000
0100
0000
0000
0010
0000
1000
0000
0010
0000
0100
0000
0000
0001
0000
0000
,
0010
0000
0100
0000
1000
0000
0001
0000
0000
0010
0000
0000
0100
0000
1000
0000
0010
0000
0100
0000
0000
0001
0000
0000
1000
0000
0010
0000
0100
0000
0001
0000
0000
1000
0000
0000
0010
0000
0100
0000
0001
0000
0010
0000
0000
0100
0000
0000
,
1000
0000
0100
0000
0010
0000
0001
0000
0000
0010
0000
0000
0100
0000
1000
0000
0010
0000
0100
0000
0000
0001
0000
0000
1000
0000
0010
0000
0100
0000
0001
0000
0000
1000
0000
0000
0010
0000
0100
0000
0001
0000
0010
0000
0000
0100
0000
0000
,
1000
1100
2200
0000
3300
0110
0110
0220
,
0330
0011
0101
1010
1010
1010
0110
0011
,
2000
0000
0000
0000
3001
1000
0010
0100
0001
0010
0100
1000
0010
0100
0001
1000
,
0010
0000
0100
0000
0001
0000
0010
0000
0000
0100
0000
0000
1000
0000
0010
0000
0100
0000
0001
0000
0000
1000
0000
0000
0010
0000
0100
0000
0001
0000
0010
0000
0000
0100
0000
0000
1000
0000
0010
0000
0100
0000
0001
0000
0000
1000
0000
0000
,
0010
0100
0001
0010
0100
1000
0001
0010
0100
1000
0010
0100
0001
1000
0010
0100
,
0001
0000
1000
0000
0010
0000
0100
0000
0000
0001
0000
0000
1000
0000
0010
0000
0100
0000
0001
0000
0000
0010
0000
0000
0100
0000
1000
0000
0001
0000
0010
0000
0000
0100
0000
0000
1000
0000
0010
0000
0100
0000
0001
0000
0000
1000
0000
0000
,
0010
0100
0001
0010
0100
1000
0010
1000
0010
0100
0001
1000
0010
0100
0001
0010
,
0100
0000
1000
0000
0001
0000
0010
0000
0000
0100
0000
0000
1000
0000
0010
0000
0100
0000
0001
0000
0000
1000
0000
0000
0010
0000
0100
0000
0001
0000
0010
0000
0000
0100
0000
0000
1000
0000
0001
0000
0010
0000
0100
0000
0000
1000
0000
0000
,
0010
0110
0220
0000
0330
0101
0101
0202
,
0303
0110
1010
0110
0011
0011
0110
1001
,
1001
0000
0000
0000
,
0000
0000
0000
0000
,
0000
0000
0000
0000
,
0000
0000
0000
0000
,
0000
0000
0000
0000
,
0000
0000
0000
0000
,
0000
0000
0000
0000
,
0000
0000
0000
0000
,
0000
0000
0000
0000
,
0000
0000
0000
0000
,
0000
0000
0000
0000
,
0000
0000
0000
0000
,
0000
0000
0000
0000
,
0000
0000
0000
0000
,
0000
0000
0000
0000
,
0000
0000
0000
0000
,
0000
0000
0000
0000
0000
1MMM
0000
0000
,
0000
0000
0000
0000
0000
0000
0000
0000
0000
M1MM
0000
0000
0000
0000
0000
0000
,
0000
0000
0000
0000
0000
0000
0000
0000
0000
MM1M
0000
0000
0000
0000
0000
0000
,
0000
0000
0000
0000
0000
MMM1
0000
0000
,
0000
0000
0000
0000
0000
0000
0000
0000
0000
0000
0000
1MMM
0000
0000
0000
0000
,
2222
0000
0000
0000
,
0000
0000
0000
0000
,
0000
0000
0000
0000
,
0000
0000
0000
0000
,
0000
0000
0000
0000
,
0000
0000
0000
0000
,
0000
0000
0000
0000
,
0000
0000
0000
0000
,
3333
0000
0000
0000
;
