#TITLE:My Spirit will Go on;
#SUBTITLE:;
#ARTIST:Dragonforce;
#TITLETRANSLIT:;
#SUBTITLETRANSLIT:;
#ARTISTTRANSLIT:;
#CREDIT:;
#BANNER:banner.jpg;
#BACKGROUND:Untitled-1(2).jpg;
#LYRICSPATH:;
#CDTITLE:cdtitle2.png;
#MUSIC:My Spirit Will Go On.mp3;
#OFFSET:-7.100;
#SAMPLESTART:30.000;
#SAMPLELENGTH:12.000;
#SELECTABLE:YES;
#BPMS:0.000=200.000;
#STOPS:;
#BGCHANGES:;
// cache tags:
#FIRSTBEAT:0.000;
#LASTBEAT:1564.250;
#SONGFILENAME:Songs/dragon force/My Spirit will Go on/mswgo.sm;
#HASMUSIC:1;
#HASBANNER:1;
#MUSICLENGTH:478.328;
// end cache tags

//---------------dance-single - Hard Version lol----------------
#NOTES:
     dance-single:
     Hard Version lol:
     Challenge:
     15:
     1.000,1.000,1.000,0.048,1.000,4948.000,1052.000,23.000,0.000,4.000:
1000
0000
0000
0000
,
0100
0000
0000
0000
,
0001
0000
0000
0000
,
0010
0000
0000
0000
,
0100
0000
0000
0000
,
0001
0000
0000
0000
,
1000
0000
0000
0000
,
0010
0000
0000
0000
,
1000
0000
0000
0000
,
0100
0000
0000
0000
,
1000
0000
0000
0000
,
0100
0000
0000
0000
,
1000
0000
0000
0000
,
0010
0000
0000
0000
,
1000
0000
0000
0000
,
0100
0000
0000
0000
,
1001
1001
0000
0000
0000
0000
0000
0000
,
1001
1010
0000
0000
0000
0000
0000
0000
,
1100
0110
0000
0000
0000
0000
0000
0000
,
1010
0011
0000
0000
0000
0000
0000
0000
,
0011
0110
0000
0000
0000
0000
0000
0000
,
0110
1100
0000
0000
0000
0000
0000
0000
,
1010
0101
0000
0000
0000
0000
0000
0000
,
0101
1100
0000
0000
0000
0000
0000
0000
,
0101
0110
0000
0000
0000
0000
0000
0000
,
1001
1010
0000
0000
0000
0000
0000
0000
,
0101
1010
0000
0000
0000
0000
0000
0000
,
1010
0011
0000
0000
0000
0000
0000
0000
,
0101
0011
0000
0000
0000
0000
0000
0000
,
1001
1100
0000
0000
0000
0000
0000
0000
,
0011
1100
0000
0000
0000
0000
0000
0000
,
0101
1100
0000
0000
0000
0000
0000
0000
,
1001
0001
1000
0001
1000
0001
1000
0001
1000
0001
1000
0001
1000
0001
1000
0001
,
1100
0011
0110
1010
,
1001
0100
0010
0100
0001
0010
1001
0100
0010
0001
0100
0010
1100
0001
0100
1000
,
0101
0010
0001
0100
0010
1000
0011
0100
0001
0100
0001
1000
0011
0100
0001
1000
,
0110
0001
1000
0001
0010
1000
0110
0001
1000
0010
0001
1000
0101
0010
0001
0100
,
0011
1000
0010
0001
1000
0100
1000
0001
1100
0010
0100
0010
1100
0010
0100
0010
,
0101
1000
0100
1000
0100
0001
1100
0010
1000
0100
0001
1000
0011
0100
0010
1000
,
0110
0001
1000
0100
1000
0010
0001
1000
0101
0010
0100
1000
0101
0010
0001
0100
,
1001
0010
1000
0010
0100
1000
0101
0010
1000
0100
0010
1000
0011
0100
0010
0001
,
0110
1000
0100
0010
1000
0001
1100
0010
0100
0010
0100
0001
1100
0010
0100
0001
,
1010
0100
0001
0100
1000
0001
1010
0100
0001
1000
0100
0001
0110
1000
0100
0010
,
1100
0001
1000
0100
0001
0010
1001
0100
1000
0100
1000
0010
1001
0100
1000
0010
,
1100
0001
0010
0001
1000
0100
0011
1000
0001
0010
0100
0001
1100
0010
1000
0001
,
1010
0100
0001
0010
0001
1000
0100
0001
1100
0010
1000
0010
0101
0010
1000
0010
,
0101
0010
1000
0010
0100
1000
0101
0010
1000
0100
0010
1000
0011
0100
0010
0001
,
0110
1000
0100
0010
1000
0001
1000
0010
1100
0010
0100
0001
1100
0010
0100
0001
,
1010
0100
0001
0100
1000
0001
1010
0100
0001
1000
0100
0001
0110
1000
0100
0010
,
1100
0001
1000
0100
0001
0010
1001
0100
1000
0100
1001
0010
0001
0100
1000
0001
,
0110
0000
0000
0000
,
1001
0010
0100
1000
0001
0100
0011
1000
0100
0001
1000
0100
1010
0001
1000
0010
,
1001
0100
0011
1000
0100
0010
0101
1000
0001
1000
0001
0010
0101
1000
0001
0010
,
1001
0010
0100
1000
0010
0100
0011
1000
0100
0010
1000
0100
1001
0010
1000
0001
,
1010
0100
0010
1000
0110
1000
0101
1000
0100
1000
0001
0100
0010
1000
0001
0010
,
1001
0100
1000
0100
1000
0010
1100
0001
0100
1000
0010
0100
0011
1000
0001
0100
,
1001
0010
0101
1000
0100
0001
1010
0100
0010
0001
1000
0100
1010
0001
0010
1000
,
0110
0001
0100
0001
1000
0100
0010
0001
0110
1000
0011
0100
0010
1000
0101
0010
,
1000
0010
0100
0001
1000
0010
0100
0001
0100
0001
0100
0010
1100
0001
0100
0010
,
1001
0100
0010
0100
1000
0010
1001
0100
0010
1000
0100
0010
0101
1000
0100
0001
,
1100
0010
1001
0100
0010
0001
1010
0100
1000
0100
1000
0001
1010
0100
1000
0001
,
1100
0010
0001
0010
1000
0100
0011
1000
0010
0001
0100
0010
1100
0001
1000
0010
,
0101
0010
0100
1000
0110
0001
1010
0100
0010
1000
0001
1000
0100
1000
0001
1000
,
0110
1000
0001
1000
0010
0001
0110
1000
0001
0010
1000
0001
1100
0010
1000
0100
,
1010
0001
0110
1000
0001
0100
0011
1000
0010
1000
0010
0100
0011
1000
0010
0100
,
1001
0010
0100
0001
1010
0100
1001
0010
1000
0001
0010
0100
1010
0001
0010
1000
,
0011
0100
0001
0010
0100
1000
0100
0010
0001
0010
0001
1000
0100
0010
0001
0100
,
1000
0010
1000
0010
0101
1000
0100
0010
1001
0100
0010
1000
0011
0100
0010
0001
,
0110
1000
0101
0010
1000
0001
1100
0010
0100
0010
0100
0001
1100
0010
0100
0001
,
1010
0100
0001
0100
1010
0001
1000
0100
0011
1000
0110
0001
0100
1000
0100
0010
,
1100
0001
0010
0100
1001
0010
0001
0100
0011
1000
0010
1000
0010
1000
0010
1000
,
0100
0001
0010
0001
1010
0100
0010
1000
0101
0010
0100
0001
1100
0010
1000
0001
,
1100
0001
0110
1000
0010
0100
0001
0010
1001
0100
1000
0010
0001
0100
0011
1000
,
0001
0100
0010
0100
1001
0010
0001
0100
0011
1000
0101
0010
0001
1000
0100
0001
,
1100
0010
1000
0100
1010
0001
1000
0100
1000
0100
1010
0001
1000
0100
1000
0001
,
0100
1000
0001
1000
0110
0001
0100
1000
0101
0010
1000
0001
1100
0010
1000
0100
,
1010
0001
0010
1000
0011
0100
0011
1000
0010
1000
0010
0100
0011
1000
0010
0100
,
1010
0001
0100
0001
0110
1000
0101
0010
0001
0100
1010
0001
1000
0100
0010
0001
,
0110
1000
0001
0100
0001
0010
0100
0001
1000
0100
0010
0100
0001
0100
0010
0100
,
1000
0100
0010
0100
1001
0010
0001
0100
0011
1000
0100
0001
1100
0010
1000
0100
,
1010
0001
0010
1000
0011
0100
0011
1000
0010
1000
0010
0100
0011
1000
0010
0100
,
1001
0010
0100
0010
1001
0100
1001
0010
0100
0001
1010
0100
1000
0001
0010
1000
,
0011
0100
0001
0010
0100
1000
0100
0010
0001
0010
0001
1000
0100
0010
0001
0100
,
1000
0010
0001
0100
0011
1000
0001
0100
0011
1000
0100
0010
1001
0010
0100
1000
,
0101
0010
0100
0010
0101
0010
0101
1000
0001
0100
0001
1000
0011
0100
0001
1000
,
0011
0100
1000
0010
0100
0001
1100
0010
0101
1000
0100
0010
1001
0100
0010
1000
,
0101
0010
0001
0100
0011
1000
0011
0100
0010
0001
0100
1000
0101
0010
1000
0001
,
1010
0100
0010
0100
1000
0010
1001
0100
0001
1000
0100
0001
1100
0010
1000
0100
,
1010
0001
0010
1000
0001
0100
0011
1000
0010
1000
0010
0100
0011
1000
0010
0100
,
1001
0000
0000
0100
0000
0000
0001
0000
,
1000
0000
0000
0010
0000
0000
0001
0000
,
1001
0100
0010
0100
1000
0010
0001
0100
0010
1000
0100
0001
0100
0010
1000
0100
,
1010
0001
0010
1000
0001
0100
0001
1000
0010
1000
0010
0100
0010
1000
0010
0100
,
1001
0010
0100
0010
0001
0100
1000
0010
0100
0001
0010
0100
1000
0001
0010
1000
,
0011
0100
0001
0010
0100
1000
0100
0010
0001
0010
0001
1000
0100
0010
0001
0100
,
1001
0010
0001
0100
0010
1000
0001
0100
0010
1000
0100
0010
0001
0010
0100
1000
,
0101
0010
0100
0010
0001
0010
0100
1000
0010
0100
0001
1000
0010
0100
0001
1000
,
0110
0001
0100
1000
0001
0010
0100
1000
0001
0100
0001
1000
0010
0001
1000
0100
,
0011
1000
0010
0001
1000
0100
1000
0001
1000
0010
0001
0100
0001
1000
0100
0010
,
1100
0001
1000
0001
0100
1000
0010
0001
1000
0100
0001
0010
0001
1000
0100
0001
,
1100
0010
1000
0100
0010
0001
0010
0100
1000
0100
1000
0001
1000
0100
1000
0001
,
0110
1000
0001
1000
0010
0001
0100
1000
0001
0010
1000
0001
0100
0010
1000
0100
,
1010
0001
0010
1000
0001
0100
0001
1000
0010
1000
0010
0100
0001
1000
0010
0001
,
0110
1000
0010
0001
1000
0100
0010
0001
1000
0100
0001
1000
0010
1000
0001
0100
,
0011
1000
0001
1000
0010
1000
0001
0100
1000
0001
0010
0100
1000
0001
0010
0100
,
1001
0100
1000
0010
0100
0001
1000
0010
0100
1000
0100
0010
0001
0100
0010
1000
,
0110
0000
0000
0001
0000
0000
0010
0000
,
1100
0101
0110
1001
,
1010
0000
0011
0000
1010
0000
0110
1001
,
0000
0011
1010
0110
,
1001
0000
0101
0000
1100
0000
0110
1001
,
0000
0101
0011
1001
,
0110
0000
1100
0000
1010
0000
1001
0110
,
0000
1100
0110
0110
0011
0011
1001
0110
,
0000
1100
0110
0011
0110
0011
0110
1100
,
0000
1010
0110
1001
,
0101
0000
1100
0000
0101
0000
0110
1001
,
0000
1100
0101
0110
,
1001
0000
1010
0000
0011
0000
0110
1001
,
0000
1010
1100
1001
,
0110
0000
0011
0000
0101
0000
1001
0110
,
0000
0011
0110
0110
1100
1100
1001
0110
,
0000
0011
0110
1100
0110
1100
0011
2002
,
0000
0000
0000
0000
,
3103
0010
1000
0001
0100
0010
1000
0001
0100
0010
1000
0001
,
0110
1000
0010
0100
0001
1000
0010
0100
0001
1000
0010
0100
,
1001
0010
0100
1000
0001
0100
0011
1000
0100
0001
1000
0100
1010
0001
1000
0010
,
1001
0100
0011
1000
0100
0010
0101
1000
0001
1000
0001
0010
0101
1000
0001
0010
,
1001
0010
0100
1000
0010
0100
0011
1000
0100
0010
1000
0100
1001
0010
1000
0001
,
1010
0100
0010
1000
0110
1000
0101
1000
0100
1000
0001
0100
0010
1000
0001
0010
,
1001
0100
1000
0100
1000
0010
1100
0001
0100
1000
0010
0100
0011
1000
0001
0100
,
1001
0010
0101
1000
0100
0001
1010
0100
0010
0001
1000
0100
1010
0001
0010
1000
,
0110
0001
0100
0001
1000
0100
0010
0001
0110
1000
0011
0100
0010
1000
0101
0010
,
1000
0010
0100
0001
1000
0010
0100
0001
0100
0001
0100
0010
1100
0001
0100
0010
,
1001
0100
0010
0100
1000
0010
1001
0100
0010
1000
0100
0010
0101
1000
0100
0001
,
1100
0010
1001
0100
0010
0001
1010
0100
1000
0100
1000
0001
1010
0100
1000
0001
,
1100
0010
0001
0010
1000
0100
0011
1000
0010
0001
0100
0010
1100
0001
1000
0010
,
0101
0010
0100
1000
0110
0001
1010
0100
0010
1000
0001
1000
0100
1000
0001
1000
,
0110
1000
0001
1000
0010
0001
0110
1000
0001
0010
1000
0001
1100
0010
1000
0100
,
1010
0001
0110
1000
0001
0100
0011
1000
0010
1000
0010
0100
0011
1000
0010
0100
,
1001
0010
0100
0001
1010
0100
1001
0010
1000
0001
0010
0100
1010
0001
0010
1000
,
0011
0100
0001
0010
0100
1000
0100
0010
0001
0010
0001
1000
0100
0010
0001
0100
,
1000
0010
1000
0010
0101
1000
0100
0010
1001
0100
0010
1000
0011
0100
0010
0001
,
0110
1000
0101
0010
1000
0001
1100
0010
0100
0010
0100
0001
1100
0010
0100
0001
,
1010
0100
0001
0100
1010
0001
1000
0100
0011
1000
0110
0001
0100
1000
0100
0010
,
1100
0001
0010
0100
1001
0010
0001
0100
0011
1000
0010
1000
0010
1000
0010
1000
,
0100
0001
0010
0001
1010
0100
0010
1000
0101
0010
0100
0001
1100
0010
1000
0001
,
1100
0001
0110
1000
0010
0100
0001
0010
1001
0100
1000
0010
0001
0100
0011
1000
,
0001
0100
0010
0100
1001
0010
0001
0100
0011
1000
0101
0010
0001
1000
0100
0001
,
1100
0010
1000
0100
1010
0001
1000
0100
1000
0100
1010
0001
1000
0100
1000
0001
,
0100
1000
0001
1000
0110
0001
0100
1000
0101
0010
1000
0001
1100
0010
1000
0100
,
1010
0001
0010
1000
0011
0100
0011
1000
0010
1000
0010
0100
0011
1000
0010
0100
,
1010
0001
0100
0001
0110
1000
0101
0010
0001
0100
1010
0001
1000
0100
0010
0001
,
0110
1000
0001
0100
0001
0010
0100
0001
1000
0100
0010
0100
0001
0100
0010
0100
,
1000
0100
0010
0100
1001
0010
0001
0100
0011
1000
0100
0001
1100
0010
1000
0100
,
1010
0001
0010
1000
0011
0100
0011
1000
0010
1000
0010
0100
0011
1000
0010
0100
,
1001
0010
0100
0010
1001
0100
1001
0010
0100
0001
1010
0100
1000
0001
0010
1000
,
0011
0100
0001
0010
0100
1000
0100
0010
0001
0010
0001
1000
0100
0010
0001
0100
,
1000
0010
0001
0100
0011
1000
0001
0100
0011
1000
0100
0010
1001
0010
0100
1000
,
0101
0010
0100
0010
0101
0010
0101
1000
0001
0100
0001
1000
0011
0100
0001
1000
,
0011
0100
1000
0010
0100
0001
1100
0010
0101
1000
0100
0010
1001
0100
0010
1000
,
0101
0010
0001
0100
0011
1000
0011
0100
0010
0001
0100
1000
0101
0010
1000
0001
,
1010
0100
0010
0100
1000
0010
1001
0100
0001
1000
0100
0001
1100
0010
1000
0100
,
1010
0001
0010
1000
0001
0100
0011
1000
0010
1000
0010
0100
0011
1000
0010
0100
,
1001
0000
0000
0100
0000
0000
0001
0000
,
1000
0000
0000
0000
0000
0000
0010
0000
0010
0100
0010
0100
0011
0100
0010
0100
,
1001
0100
0010
0100
1000
0010
0001
0100
0010
1000
0100
0001
0100
0010
1000
0100
,
1010
0001
0010
1000
0001
0100
0001
1000
0010
1000
0010
0100
0010
1000
0010
0100
,
1001
0010
0100
0010
0001
0100
1000
0010
0100
0001
0010
0100
1000
0001
0010
1000
,
0011
0100
0001
0010
0100
1000
0100
0010
0001
0010
0001
1000
0100
0010
0001
0100
,
1001
0010
0001
0100
0010
1000
0001
0100
0010
1000
0100
0010
0001
0010
0100
1000
,
0101
0010
0100
0010
0001
0010
0100
1000
0010
0100
0001
1000
0010
0100
0001
1000
,
0110
0001
0100
1000
0001
0010
0100
1000
0001
0100
0001
1000
0010
0001
1000
0100
,
0011
1000
0010
0001
1000
0100
1000
0001
1000
0010
0001
0100
0001
1000
0100
0010
,
1100
0001
1000
0001
0100
1000
0010
0001
1000
0100
0001
0010
0001
1000
0100
0001
,
1100
0010
1000
0100
0010
0001
0010
0100
1000
0100
1000
0001
1000
0100
1000
0001
,
0110
1000
0001
1000
0010
0001
0100
1000
0001
0010
1000
0001
0100
0010
1000
0100
,
1010
0001
0010
1000
0001
0100
0001
1000
0010
1000
0010
0100
0001
1000
0010
0001
,
0110
1000
0010
0001
1000
0100
0010
0001
1000
0100
0001
1000
0010
1000
0001
0100
,
0011
1000
0001
1000
0010
1000
0001
0100
1000
0001
0010
0100
1000
0001
0010
0100
,
1001
0100
1000
0010
0100
0001
1000
0010
0100
1000
0100
0010
0001
0100
0010
1000
,
0110
0000
0000
0001
0000
0000
0010
0000
,
1100
0101
0110
1001
,
1010
0000
0011
0000
1010
0000
0110
1001
,
0000
0011
1010
0110
,
1001
0000
0101
0000
1100
0000
0110
1001
,
0000
0101
0011
1001
,
0110
0000
1100
0000
1010
0000
1001
0110
,
0000
1100
0110
0110
0011
0011
1001
0110
,
0000
1100
0110
0011
0110
0011
0110
1100
,
0000
1010
0110
1001
,
0101
0000
1100
0000
0101
0000
0110
1001
,
0000
1100
0101
0110
,
1001
0000
1010
0000
0011
0000
0110
1001
,
0000
1010
1100
1001
,
0110
0000
0011
0000
0101
0000
1001
0110
,
0000
0011
0110
0110
1100
1100
1001
0110
,
0000
0011
0110
1100
0110
1100
0011
2002
,
0000
0000
0000
0000
,
3113
0000
0000
0000
,
1001
0000
0000
0000
,
0100
0000
0100
0000
0100
0000
0100
0000
0100
0100
0100
0000
0100
0000
0100
0000
,
0010
0000
0010
0000
0010
0000
0010
0000
0010
0010
0010
0000
0010
0000
0010
0000
,
0001
0000
0001
0000
0001
0000
0001
0000
0001
0001
0001
0000
0001
0000
0001
0000
,
1000
0000
1000
0000
1000
0000
1000
0000
1000
1000
1000
0000
1000
0000
1000
0000
,
0100
0000
0100
0000
0100
0000
0100
0000
0100
0100
0100
0000
0100
0000
0100
0000
,
0010
0000
0010
0000
0010
0000
0010
0000
0010
0010
0010
0000
0010
0000
0010
0000
,
0001
0000
0001
0000
0001
0000
0001
0000
0001
0001
0001
0000
0001
0000
0001
0000
,
1000
0000
1000
0000
1000
0000
1000
0000
1000
1000
1000
0000
1000
0000
1000
0000
,
0110
0000
0100
0000
0100
0000
0110
0000
0100
0110
0100
0000
0110
0000
0100
0000
,
0110
0000
0010
0000
0010
0000
0110
0000
0010
0110
0010
0000
0110
0000
0010
0000
,
0011
0000
0001
0000
0001
0000
0011
0000
0001
1001
0001
0000
0011
0000
0001
0000
,
1100
0000
1000
0000
1000
0000
1100
0000
1000
1001
1000
0000
1100
0000
1000
0000
,
0110
0000
0100
0000
0100
0000
0110
0000
0100
0110
0100
0000
0110
0000
0100
0000
,
0110
0000
0010
0000
0010
0000
0110
0000
0010
0110
0010
0000
0110
0000
0010
0000
,
0011
0000
0001
0000
0001
0000
0011
0000
0001
1001
0001
0000
0011
0000
0001
0000
,
1100
0000
1000
0000
1000
0000
1100
0000
1000
1001
1000
0000
1100
0000
1000
0000
,
1100
0000
0000
0100
0000
0000
0000
0000
0000
0010
0000
0000
0000
0001
0000
0000
0000
0010
0000
0000
0000
0100
0000
0000
,
0000
0000
0000
0000
0000
1000
0000
0000
0100
0000
0000
0000
0000
0000
0000
0001
0000
0000
1000
0000
0100
0000
0010
0000
,
0001
0010
0000
0000
0100
0000
0010
0000
0000
0001
0000
0100
,
0000
0000
0010
0000
0000
0000
0001
0000
0000
0000
0010
0000
0000
0000
0100
0000
0000
0000
1000
0000
0000
0100
0000
0000
,
0010
0000
0000
0000
0000
0000
0001
0000
0000
0000
0000
0000
0000
0000
0000
0000
0000
0000
0000
0000
0100
0000
0000
0000
0000
0000
0000
0000
0000
0000
0000
0000
0000
0000
0000
0000
0010
0000
0000
0010
0000
0000
0010
0000
0000
0010
0000
0000
,
1000
0000
0000
0000
1000
0000
0000
0000
0001
0000
0000
0000
1000
0000
0000
0000
0010
0000
0000
0010
0000
0000
0010
0000
0000
0010
0000
0000
0100
0000
0000
0000
0100
0000
0000
0000
0001
0000
0000
0000
0100
0000
0000
0000
0001
0000
0000
0001
,
0000
0000
0000
0000
0000
0000
0000
0000
0001
0000
0000
0000
0000
0000
0000
0000
0000
0000
0000
0000
0001
0000
0000
0000
0000
0000
0000
0000
0000
0000
0000
0000
0010
0000
0000
0000
0000
0000
0000
0000
0000
0000
0000
0000
0000
0000
0000
0000
0100
0000
0000
0000
0000
0000
0000
0000
0000
0000
0000
0000
0000
0000
0000
0000
0100
0000
0000
0000
0000
0000
0000
0000
0000
0000
0000
0000
0000
0000
0000
0000
0010
0000
0000
0000
0000
0000
0000
0000
0000
0000
0000
0000
0000
0000
0000
0000
0001
0000
0000
0000
0000
0000
0000
0000
0000
0000
0000
0000
0001
0000
0000
0000
0000
0000
0000
0000
0000
0000
0000
0000
0001
0000
0000
0000
0000
0000
0000
0000
0000
0000
0000
0000
0001
0000
0000
0000
0000
0000
0100
0000
0000
0000
0000
0000
1000
0000
0000
0000
0000
0000
0000
0000
0000
0000
0000
0000
0000
0000
0000
0000
0010
0000
0000
0000
0000
0000
0000
0000
0000
0000
0000
0000
0000
0000
0000
0000
0010
0000
0000
0000
0000
0000
0000
0000
0100
0000
0000
0000
0000
0000
0000
0000
,
1000
0000
0000
0010
0000
0000
0001
0000
0000
0000
0000
0000
1000
0000
0000
0000
0100
0000
0000
0000
0010
0000
0000
0000
,
0001
0000
0000
0000
0000
0000
0010
0000
0000
0000
0000
0000
0100
0000
0000
0000
0000
0000
0010
0000
0000
0000
0000
0000
0000
0000
0000
0000
0000
0000
0000
0000
0001
0000
0000
0000
0000
0000
0000
0000
0010
0000
0000
0100
0000
0000
1000
0000
,
0000
0100
0000
0000
0001
0000
0000
0000
0000
0000
0000
0000
0000
0000
0000
0000
0000
0000
0000
0000
0000
1000
0000
0000
0100
0000
0000
1000
0000
0000
0010
0000
0000
0100
0000
0000
0010
0000
0000
0100
0000
0000
0001
0000
0000
0010
0000
0000
,
0001
0000
0000
0000
0000
0000
0000
0000
0001
0000
0000
0000
0000
0000
0000
0000
1000
0000
0010
0000
0100
0000
0001
0000
0000
0000
0000
0000
0000
0000
1000
0000
0000
0100
0000
0000
0100
0000
0000
0100
0000
0000
0000
0001
0000
0000
0000
0010
,
0000
0000
0000
0100
0000
0000
0000
1000
0000
0000
0000
0100
0000
0000
0010
0000
0000
0001
0000
0000
0010
0000
0000
1000
0000
0000
0000
0000
0000
0000
0000
0000
0000
0000
0000
0000
1000
0000
0000
0000
0000
0000
0000
0000
0000
1000
0000
0000
,
0100
0000
0000
0010
0000
0000
0001
0000
0000
0010
0000
0000
1000
0000
0000
0000
0100
0000
0000
0000
0000
0000
0100
0000
0000
0000
0000
0001
0000
0000
0000
0000
0000
1000
0000
0000
0100
0000
0000
0010
0000
0000
0001
0000
0000
0010
0000
0000
,
0000
0000
0000
0000
0000
0000
1000
0000
0000
0100
0000
0000
0010
0000
0000
0000
1000
0000
0000
0000
0100
0000
0000
0000
0001
0000
0000
0010
0000
0000
0100
0000
0000
0000
1000
0000
0000
0000
0100
0000
0000
0000
1000
0000
0000
0001
0000
0000
,
0010
0000
0000
0000
0000
0000
0000
0000
1000
0000
0000
0000
0000
0000
0000
0000
0100
0000
0000
0000
0000
0000
0000
0000
0010
0000
0000
0000
0000
0000
0000
0000
0001
0000
0000
0000
0000
0000
0000
0000
0010
0000
0000
0000
0000
0000
0000
0000
1001
0000
0000
0000
0000
0000
0100
0000
0000
0000
0000
0000
0010
0000
0000
0000
0000
0000
0001
0000
0000
0000
0000
0000
1000
0000
0000
0000
0000
0000
0100
0000
0000
0000
0000
0000
0010
0000
0000
0000
0000
0000
0001
0000
0000
0000
0000
0000
1010
0000
0000
0000
0000
0000
0100
0000
0000
0000
0000
0000
0010
0000
0000
0000
0000
0000
0001
0000
0000
0000
0000
0000
1000
0000
0000
0000
0000
0000
0100
0000
0000
0000
0000
0000
0010
0000
0000
0000
0000
0000
0001
0000
0000
0000
0000
0000
1010
0000
0000
0000
0000
0000
0100
0000
0000
0000
0000
0000
0010
0000
0000
0000
0000
0000
0001
0000
0000
0000
0000
0000
1000
0000
0000
0000
0000
0000
0100
0000
0000
0000
0000
0000
0010
0000
0000
0000
0000
0000
0001
0000
0000
0000
0000
0000
,
1010
0100
0010
0001
1000
0100
0010
0001
1010
0100
0010
0001
0010
0100
0010
0100
1001
0010
0100
1000
0001
0010
0100
1000
0101
0010
0100
1000
0001
0010
0100
1000
,
0101
0010
0100
1000
0001
0010
0100
1000
0101
0010
0100
1000
0001
0010
0100
1000
0101
0010
0100
0010
0100
0010
1000
0001
1100
0010
1000
0001
0100
0010
1000
0001
,
1100
0010
1000
0001
0100
0010
1000
0001
1100
0010
1000
0001
0100
0010
1000
0001
1100
0010
1000
0001
0100
0001
1000
0001
0110
1000
0010
0001
0100
1000
0010
0001
,
0110
1000
0010
0001
0100
1000
0010
0001
0110
1000
0010
0001
0100
1000
0010
0001
0110
1000
0010
0001
0100
1000
0010
0001
0110
0000
0000
0000
1000
0000
0000
0000
,
0000
0000
0000
1000
0100
0010
0001
0010
0100
0010
0001
0100
1000
0100
0001
0010
1000
0010
0100
0001
0100
0010
1000
0100
,
0010
0001
0010
0100
0001
0010
0100
1000
0100
0010
1000
0100
0010
0001
0010
0200
0000
0000
0000
0000
0000
0000
0000
0000
,
0300
0000
0000
0000
0000
0000
1100
0010
1000
0010
1000
0010
1000
0010
1000
0010
1000
0010
1000
0010
1100
0001
0100
0001
,
0100
0001
0100
0001
0100
0001
0100
0001
0100
0001
1010
0100
0010
0100
0010
0100
0010
0100
0010
0100
0010
0100
0010
0100
,
1010
0001
1000
0001
1000
0001
1000
0001
1000
0001
1000
0001
1000
0000
0000
1000
0010
0100
0001
0010
1000
0100
1000
0100
,
0010
0001
0100
0010
1000
0001
0100
0010
0100
1000
0001
0010
0100
0010
1000
0001
0100
0010
0100
1000
0010
0100
0001
0010
,
0100
1000
0010
0100
0001
0100
0020
0000
0000
0000
0000
0000
0000
0000
0000
0000
0000
0000
0030
0000
0000
1000
0100
0010
,
0100
0001
0010
0100
0010
1000
0100
0010
0100
0001
0010
1000
0010
0100
0001
0100
0010
1000
0100
0010
0001
0100
0010
0001
,
1010
0100
1000
0010
0100
1000
0101
0010
0100
0001
0010
0100
1001
0100
0010
1000
0001
0100
0011
0100
1000
0010
0100
0001
,
1010
0100
1000
0010
0100
0010
1001
0000
0000
0000
0000
0000
0000
0000
0000
0000
0000
0000
0110
0000
0000
0000
0000
0000
,
0000
1010
0000
0101
,
0000
2002
0000
0000
,
0000
0000
0000
0000
0000
0000
0000
3003
1000
0010
0100
0001
0010
1000
0001
0100
0010
0001
0100
0001
1000
0010
0100
0001
0010
1000
0001
0100
0010
0001
0100
0001
,
1000
0010
0100
0001
0010
1000
0001
0100
0010
0001
0100
0010
1000
0001
0100
1000
0010
1000
0001
0100
0010
0001
0100
0001
1000
0010
0100
0001
0010
0100
1000
0100
,
0010
0001
0100
0001
1000
0010
0100
0001
0010
0100
0001
1000
0010
0001
0100
0010
1000
0010
0100
0001
0010
1000
0001
0100
0010
0001
0100
0010
1000
0010
0100
0001
,
0010
1000
0001
0100
0010
0001
0100
0001
1000
0010
0100
0000
0010
0000
0100
0000
1000
0000
0100
0000
0001
0000
0000
0000
0010
0000
0001
0000
0010
0000
0100
0000
,
1000
0000
0000
0000
0100
0010
0010
0010
0001
0010
0010
0010
1000
1000
0001
0001
,
0100
0100
0010
0010
1000
0001
0001
0001
0100
0001
0001
0001
0010
0010
0100
0100
,
0010
0010
1000
1000
0010
0010
0010
0010
0001
0001
0001
0001
0010
0010
0010
0010
,
0001
0001
0001
0001
0010
0010
0010
0010
1000
0100
0100
0100
0010
0001
0001
0001
,
0010
0100
0100
0100
1001
0000
0000
0000
1001
0000
0000
0000
1001
0000
0000
0000
,
1100
0100
0011
0010
1100
0100
0011
0001
0110
0100
1010
0000
0000
0000
1001
0000
,
0000
0000
0000
0000
0010
0100
0010
0001
1000
0100
1000
0010
0001
0010
0001
0100
,
1000
0000
0100
0000
1000
0000
0001
0000
0010
0000
0010
0000
0010
0000
0010
0000
1000
0010
1000
0000
0001
0000
0001
0000
0100
0000
0100
0000
0100
0000
0100
0000
,
1000
0000
0000
0000
0000
0000
0010
0000
0000
0000
0000
0000
1000
0000
0000
0000
0000
0000
0000
0000
0000
0000
0000
0000
0001
0000
0000
0000
0000
0000
0000
0000
0000
0000
0000
0000
0001
0000
0000
0000
0000
0000
0000
0000
0000
0000
0000
0000
1000
0000
0000
0000
0000
0000
0000
0000
0000
0000
0000
0000
0100
0000
0000
0000
0000
0000
0000
0000
0000
0000
0000
0000
0010
0000
0000
0000
0001
0000
0000
0000
0010
0000
0000
0000
0100
0000
0000
0000
0000
0000
0000
0000
0000
0000
0000
0000
0010
0000
0000
0000
0000
0000
0000
0000
0000
0000
0000
0000
1000
0000
0000
0000
0000
0000
0000
0000
0000
0000
0000
0000
0100
0000
0000
0000
0010
0000
0000
0000
0100
0000
0000
0000
0001
0000
0000
0000
0000
0000
0000
0000
0000
0000
0000
0000
0010
0000
0000
0000
0000
0000
0000
0000
0100
0000
0000
0000
0000
0000
0000
0000
1000
0000
0000
0000
0000
0000
0000
0000
0001
0000
0000
0000
0000
0000
0000
0000
0010
0000
0000
0000
0000
0000
0000
0000
0100
0000
0000
0000
0000
0000
0000
0000
,
0010
0001
1000
0100
0010
0001
0100
0010
0001
0010
0100
1000
0010
0100
0001
1000
0010
0100
0001
0010
1000
0100
1000
0010
,
0100
0000
0001
0000
0010
0000
0100
0000
0001
0000
1000
0000
0100
0000
0000
0000
0000
0000
0010
0000
0000
0000
0000
0000
0010
0000
0000
0000
0000
0000
0010
0000
0000
0100
0000
0000
1000
0000
0000
0001
0000
0000
0010
0000
0000
0001
0000
0000
,
1000
0000
1000
0100
0010
0000
0001
0000
0010
0000
0100
0000
0020
0000
0000
0000
,
0000
0000
0000
0000
1030
1000
1000
1000
0010
0010
0010
0010
0100
0100
0100
0100
,
0001
0001
0001
0001
0100
0100
0100
0100
0010
0010
0010
0010
1000
1000
1000
1000
,
0100
0100
0100
0100
0010
0010
0010
0010
0001
0001
0001
0001
0100
0100
0100
0100
,
0010
0010
0010
0010
1000
1000
1000
1000
0100
0100
0100
0100
0001
0001
0001
0001
,
0100
0100
0100
0100
0010
0010
0010
0010
1000
1000
1000
1000
0001
0001
0001
0001
,
0100
0100
0100
0100
0010
0010
0010
0010
0100
0100
0100
0100
1000
1000
1000
1000
,
0001
0001
0001
0001
0010
0010
0010
0010
0100
0100
0100
0100
1000
1000
1000
1000
,
0010
0010
0010
0010
0100
0001
0100
0001
1000
0001
1000
0001
1000
0001
1000
0001
,
1000
0001
0100
0001
1010
0100
1010
0001
1010
0100
1001
0100
1010
0100
1010
0001
,
1010
0100
1001
0100
1010
0100
1010
0001
1010
0100
1001
0100
1001
0100
1010
0100
,
1001
0000
1000
0000
0101
1000
0011
1000
0011
0100
1001
0100
0011
1000
0011
0100
,
1001
0100
0011
1000
0011
0100
0011
1000
0101
1000
0011
1000
0101
1000
0011
0100
,
1001
0000
0001
0000
1001
0010
0101
0010
0101
1000
0110
1000
0011
1000
0101
1000
,
0101
0010
0101
1000
0101
0010
1001
0010
0101
1000
0101
0010
1001
0010
0101
1000
,
0011
0000
0010
0000
1010
0100
1001
0010
1001
0100
1001
0010
1001
0100
1001
0010
,
0101
0010
1001
0100
1001
0010
1001
0100
1010
0100
1001
0010
0101
0010
1001
0100
,
1001
0000
1100
1010
0000
1001
0000
0000
,
1001
0000
0000
0000
1010
0000
0000
0000
1010
0000
0000
0000
0000
0000
0000
0000
1010
0000
0000
0000
0100
0010
0000
0000
0000
0000
0000
0000
0000
0000
0000
0000
,
1100
0110
0011
0000
0011
0110
0000
1001
,
0110
1001
0110
1001
0000
1100
0110
1100
,
0101
0000
0010
0000
1000
1000
0010
0010
0001
0001
0010
0010
0100
0100
0001
0001
,
0010
0010
1000
1000
0001
0001
0100
0100
0001
0001
0010
0010
0001
0001
0010
0010
,
0100
0100
1000
1000
0010
0010
0001
0001
0100
0100
0001
0001
1000
1000
0010
0010
,
0100
0100
0001
0001
0010
0010
0001
0001
0010
0010
0100
0100
0010
0010
0001
0001
,
1000
1000
0010
0010
1001
0010
0101
0010
1010
0100
0011
1000
0011
0100
1010
0001
,
1100
0010
1001
0010
1100
0001
0110
0001
1010
0100
0101
0010
1001
0100
1010
0001
,
0110
0000
0100
0000
1001
0010
0101
0010
1010
0100
1010
0001
0011
0100
1001
0010
,
1100
0001
1100
0010
0101
1000
0011
0100
0011
1000
0110
0010
1001
0100
0011
0100
,
1100
0000
1000
0000
1001
1000
1100
0001
0110
0001
1100
0001
0101
0010
1100
0010
,
1100
0001
1010
0100
0011
0010
0101
1000
1010
0001
0110
0010
0101
1000
1010
0001
,
1010
0000
0100
0000
1100
0010
0101
1000
0110
1000
0011
0100
1001
0100
1100
0001
,
0101
0010
0011
1000
0101
1000
0011
0001
0110
1000
0011
0100
1100
0001
0110
0010
,
1001
0000
2000
3200
,
0320
0000
0032
0000
0000
0203
0000
0000
,
0320
0000
0000
0000
0000
0000
1030
0001
0100
0010
1000
0001
0100
0010
1000
0001
0000
0000
1000
0000
0000
0001
0000
0000
,
1000
0000
0000
0100
0000
0000
0001
1000
0010
0100
0001
1000
0010
0100
0001
1000
0000
0000
0100
0000
0000
0001
0000
0000
,
0100
1000
0002
0000
0000
0023
0000
0000
,
0230
0000
0302
0000
0000
0203
0000
0000
,
2300
0000
0000
0000
0000
0000
3101
0010
1000
0001
1000
0100
0010
1000
0001
0100
0010
1000
0100
0010
1000
0100
0010
0001
,
0100
1000
0010
1000
0001
0100
0010
1000
0010
0100
0010
0001
0010
0100
1000
0001
0100
0010
1000
0001
0100
0010
1000
0100
,
0010
0000
0001
0000
0100
0000
1000
0000
0010
0000
0100
0000
0010
0000
0000
0010
0000
0000
0100
0000
0000
0100
0000
0000
1000
0000
0000
1000
0000
0000
0100
0000
0000
0100
0000
0000
0010
0000
0000
0010
0000
0000
0001
0000
0000
0001
0000
0000
,
0010
0010
0100
0100
0010
0010
0100
0100
0010
0010
0001
0001
0010
0010
0100
0100
,
1000
1000
0100
0100
1000
0100
0010
0001
0100
0000
0000
0000
1000
0010
0100
0001
,
0010
0000
0000
0000
0000
0000
1000
0010
0100
0001
0010
0001
0010
0100
0010
0100
1000
0100
0010
1000
0100
0010
1000
0001
,
0010
0100
0010
0100
1000
0010
0100
1000
0010
1000
0001
0010
1000
0010
0100
1000
0001
0010
1000
0100
0010
1000
0010
0001
,
0100
0000
0010
0000
1000
0000
0010
0000
0100
0000
0001
0000
0110
0000
0000
0000
0000
0000
1100
0000
0000
0000
0000
0000
0101
0000
0000
0000
0000
0000
1100
0000
0000
0110
0000
0000
0011
0000
0000
0000
0000
0000
0011
0000
0000
0000
0000
0000
,
1010
0000
0000
0000
0000
0000
0011
0000
0000
0000
0000
0000
1010
0000
0001
0100
1000
0000
0110
0000
0000
0001
0000
0000
1100
0000
0000
0010
0000
0000
1001
0000
0000
0010
0000
0000
1001
0000
0000
0100
0000
0000
0011
0000
0000
1000
0000
0000
,
0110
0000
1000
0001
0010
0000
0101
0000
0000
1000
0000
0000
0101
0000
0000
0010
0000
0000
0101
0000
0000
1000
0000
0000
0101
0000
0000
0010
0000
0000
1100
0000
0000
1000
0000
0000
0101
0000
0000
0010
0000
0000
1100
0000
0000
1000
0000
0000
,
0011
0010
1100
0000
1010
0001
0010
0001
1000
0100
0011
0100
1000
0100
0010
0001
,
1010
0100
0001
0100
1001
0010
0100
0001
0100
0010
1001
0010
0100
0001
0100
0010
,
0101
1000
0100
0001
1100
0010
1000
0010
0100
0001
1010
0100
1000
0100
0010
0001
,
1010
0100
0001
0100
1001
0010
0100
0001
0100
0010
1001
0010
0100
0001
0100
0010
,
1001
0010
1000
0100
1010
0001
0010
0001
1000
0100
0011
0100
1000
0100
0010
0001
,
1010
0100
0001
0100
1001
0010
0100
0001
0100
0010
1001
0010
0100
0001
0100
0010
,
0101
1000
0100
0001
1100
0010
0100
0010
0100
0001
1010
0100
0001
0100
0010
0001
,
1000
0100
0001
0100
1000
0010
0100
0001
0100
0010
1000
0010
0100
0001
0100
0010
,
1000
0010
1000
0100
1010
0001
0010
0001
1000
0100
0011
0100
1000
0100
0010
0001
,
1010
0100
0001
0100
1001
0010
0100
0001
0100
0010
1001
0010
0100
0001
0100
0010
,
0101
1000
0100
0001
1100
0010
1000
0010
0100
0001
1010
0100
1000
0100
0010
0001
,
1010
0100
0001
0100
1001
0010
0100
0001
0100
0010
1001
0010
0100
0001
0100
0010
,
1100
0010
1000
0100
1010
0001
0010
0001
1000
0100
0011
0100
1000
0100
0010
0001
,
1010
0100
0001
0100
1001
0010
0100
0001
0100
0010
1001
0010
0100
0001
0100
0010
,
1001
0010
1000
0100
1010
0001
0010
0001
1000
0100
0011
0100
1000
0100
0010
0001
,
0100
0010
1000
0001
0100
1000
0010
0100
0001
0010
1000
0010
0100
0001
0010
0100
,
1000
0010
1000
0100
1000
0001
0010
0001
1010
0100
0001
0100
1010
0100
0010
0001
,
1010
0100
0001
0100
1001
0010
0100
0001
1100
0010
1001
0010
0100
0001
0100
0010
,
0101
1000
0100
0001
1100
0010
1000
0010
1100
0001
1010
0100
1000
0100
1010
0001
,
0010
0100
0001
0100
1001
0010
0100
0001
0100
0010
1000
0010
0100
0001
0100
0010
,
1000
0010
1000
0100
1000
0001
0010
0001
1010
0100
0001
0100
1010
0100
0010
0001
,
1010
0100
0001
0100
1001
0010
0100
0001
1100
0010
1001
0010
0100
0001
0100
0010
,
1001
0010
1000
0100
1010
0001
0010
0001
1010
0100
0011
0100
1000
0100
1010
0001
,
0100
0010
1000
0001
0110
1000
0010
0100
0001
0010
1000
0010
1000
0001
0010
0100
,
1001
0010
1000
0100
1000
0001
0010
0001
1010
0100
0001
0100
1010
0100
0010
0001
,
1010
0100
0001
0100
1001
0010
0100
0001
1100
0010
1001
0010
0100
0001
1100
0010
,
0100
1000
0100
0001
1100
0010
1000
0010
1100
0001
1010
0100
1000
0100
1010
0001
,
0010
0100
0001
0100
1001
0010
0100
0001
1100
0010
1001
0010
0100
0001
0100
0010
,
1001
0010
1000
0100
1010
0001
0010
0001
1000
0100
0011
0100
1000
0100
0010
0001
,
1010
0100
0001
0100
1001
0010
0100
0001
0100
0010
1100
0010
0100
0001
0100
0010
,
1001
0100
0010
0001
1010
0000
0000
0000
0000
0000
0101
0000
0000
0000
0000
0000
,
0110
0000
0000
0000
1010
0100
1000
0100
0010
1000
0101
0010
0100
0001
0010
0100
,
1001
0000
0000
0000
0011
0100
1001
0010
1001
0100
0011
1000
0110
0001
1100
0010
,
1001
0100
1010
0001
0110
1000
0011
0100
0011
1000
0011
1000
0011
0100
0011
1000
,
0011
0100
1001
0010
0101
0010
1001
0100
1001
0010
1100
0001
1010
0100
1010
0001
,
0110
1000
0011
0100
1001
0010
0101
1000
0101
0010
0101
0010
0101
1000
0101
0010
,
1001
0100
1001
0010
1001
0100
0011
1000
0011
0100
0011
1000
0100
0010
1001
0010
,
0101
1000
0101
0010
1100
0010
0101
0010
0101
1000
0011
0100
0011
1000
0011
0100
,
0011
1000
0110
0001
0110
1000
0101
0010
0101
1000
0011
0100
0011
1000
0110
0001
,
1010
0100
0011
1000
0110
0001
1010
0100
1010
0001
1100
0010
1001
0100
0011
1000
,
0101
0010
1100
0001
1100
0001
0110
1000
0110
0001
1010
0100
1001
0010
0101
1000
,
0110
0001
1100
0010
1001
0100
1010
0001
1010
0100
1001
0100
1010
0001
1010
0100
,
1010
0001
0110
1000
0011
1000
0110
0001
0110
1000
0101
0010
1100
0001
1100
0010
,
1001
0100
1010
0001
0110
1000
0011
0100
0011
1000
0110
1000
0011
0100
0011
1000
,
0110
0001
0110
1000
0110
0001
1010
0100
1010
0001
1010
0100
0011
1000
0110
1000
,
0011
0100
0011
1000
0011
1000
0110
1000
0011
0100
1010
0001
1010
0100
1010
0001
,
1010
0100
1001
0100
1001
0010
1100
0001
1100
0010
0101
1000
0101
0010
1001
0100
,
0011
1000
0011
1000
0011
1000
0100
0001
0100
1000
0010
0100
0001
0100
0010
1000
,
0110
0000
0000
0000
1010
1000
1000
1000
1000
1000
1010
1000
1000
1000
1000
1000
,
1010
1000
1000
1000
1001
1000
1100
1000
1000
1000
1010
1000
1000
1000
1000
1000
,
1100
1000
1000
1000
1010
0100
0010
1000
0010
0100
0010
1000
0001
0100
0010
1000
,
0001
0100
0010
1000
0110
0000
0000
0000
0000
0000
0001
0000
0000
0000
0000
0000
,
0010
0000
0000
0000
1001
0100
0010
0100
0001
0010
1001
0100
0010
0001
0100
0010
,
1100
0001
0100
1000
0101
0010
0001
0100
0010
1000
0011
0100
0001
0100
0001
1000
,
0011
0100
0001
1000
0110
0001
1000
0001
0010
1000
0110
0001
1000
0010
0001
1000
,
0101
0010
0001
0100
0011
1000
0010
0001
1000
0100
1000
0001
1100
0010
0100
0010
,
1100
0010
0100
0010
0101
1000
0100
1000
0100
0001
1100
0010
1000
0100
0001
1000
,
0011
0100
0010
1000
0110
0001
1000
0100
1000
0010
0001
1000
0101
0010
0100
1000
,
0101
0010
0001
0100
1001
0010
1000
0010
0100
1000
0101
0010
1000
0100
0010
1000
,
0011
0100
0010
0001
0110
1000
0100
0010
1000
0001
1100
0010
0100
0010
0100
0001
,
1100
0010
0100
0001
1010
0100
0001
0100
1000
0001
1010
0100
0001
1000
0100
0001
,
0110
1000
0100
0010
1100
0001
1000
0100
0001
0010
1001
0100
1000
0100
1000
0010
,
1001
0100
1000
0010
1100
0001
0010
0001
1000
0100
0011
1000
0001
0010
0100
0001
,
1100
0010
1000
0001
1010
0100
0001
0010
0001
1000
0100
0001
1100
0010
1000
0010
,
0101
0010
1000
0010
0101
0010
1000
0010
0100
1000
0101
0010
1000
0100
0010
1000
,
0011
0100
0010
0001
0110
1000
0100
0010
1000
0001
1000
0010
1100
0010
0100
0001
,
1100
0000
0000
0010
0000
0000
0100
0000
0000
0001
0000
0000
1010
0000
0100
0000
0010
0000
0001
0000
1000
0000
0100
0000
1010
0000
0001
0000
0100
0000
1010
0000
0001
0000
1000
0000
0001
0000
1000
0000
0010
0000
0101
0000
0010
0000
1000
0000
,
0110
0000
1000
0000
0010
0000
0101
0000
1000
0000
0010
0000
1100
0000
0000
0001
0000
0000
1010
0000
0000
0100
0000
0000
0001
0000
0000
0010
0000
0000
1001
0000
0000
0100
0000
0000
1000
0000
0000
0100
0000
0000
1001
0000
0000
0010
0000
0000
,
0001
0100
1000
0001
0110
1000
0001
1000
0001
1000
0001
1000
0101
1000
0001
1000
,
0001
1000
0001
1000
0101
1000
0001
1000
0001
1000
0001
1000
0101
1000
0001
1000
,
0001
1000
0001
1000
0110
0000
0110
0000
0110
0000
0000
0000
0110
0000
0110
0000
,
0110
0000
0000
0000
1000
0100
0010
0001
1000
0100
0010
0001
1000
0100
0010
0001
,
1000
0100
0010
0001
1000
0100
0010
0001
1000
0100
0010
0001
1000
0100
0010
0001
,
1000
0100
0010
0001
1000
2002
0000
0000
0000
0000
0000
0000
0000
0000
0000
0000
,
0000
0000
0000
0000
,
0000
0000
0000
0000
,
0000
0000
0000
0000
,
0000
0000
0000
0000
,
0000
0000
0000
0000
0000
0000
0000
0000
0000
0000
0000
0000
0000
0000
0000
3113
,
0000
0110
0000
0000
0000
0000
0000
0000
0000
0000
0000
0000
0000
0000
0000
0000
;

//---------------dance-single - EZ Version lol----------------
#NOTES:
     dance-single:
     EZ Version lol:
     Hard:
     15:
     1.000,1.000,1.000,0.023,1.000,5218.000,887.000,11.000,0.000,3.000:
1000
0100
0001
1000
0100
0001
0010
0100
,
0001
0010
1000
0001
0010
1000
0100
0010
,
0001
1000
0010
0001
1000
0010
0001
1000
,
0001
1000
0010
0001
1000
0010
0001
1000
,
0100
0010
0001
0100
0010
0001
0100
0010
,
0001
0010
0100
0001
0010
0100
0001
0100
,
1000
0010
0100
1000
0010
0100
1000
0001
,
0100
0010
1000
0100
0010
1000
0100
0010
,
0001
0010
0010
0001
0010
0010
0001
0010
,
0100
0010
0010
0100
0010
0010
0100
0010
,
0001
0010
0010
0001
0010
0010
0001
0010
,
0001
0010
0010
0001
0010
0010
0001
0010
,
0010
0100
0100
0010
0100
0100
0010
0100
,
0001
0100
0100
0001
0100
0100
0001
0100
,
0001
0100
0100
0001
0100
0100
0001
0100
,
0010
1000
1000
0010
0001
0001
0010
1000
,
1001
0100
0100
1001
0100
0100
1001
0100
,
1001
0010
0010
0101
0010
0010
0101
0010
,
1001
0100
0100
1001
0100
0100
1001
0100
,
1010
0001
0001
1010
0001
0001
1010
0100
,
0011
1000
1000
0011
1000
1000
0011
0001
,
0110
1000
1000
0110
1000
1000
0101
0010
,
1010
0001
0001
1010
0001
0001
1010
1000
,
0101
0010
0010
0101
0010
0010
1010
0100
,
0101
0010
0010
0101
1000
1000
0110
0010
,
1001
0010
0010
0101
0100
0100
1010
1000
,
0101
0100
0100
1001
0100
0100
0011
0010
,
1001
0100
0100
0011
0100
0100
0101
1000
,
0101
0010
0010
1100
0010
0010
1001
0100
,
0101
1000
1000
0011
1000
1000
0101
0001
,
1001
1000
1000
0101
0100
0100
0011
1000
,
0101
1000
1000
0110
0001
0001
1001
0100
,
1001
0001
1000
0001
1000
0001
1000
0001
1000
0001
1000
0001
1000
0001
1000
0001
,
1100
0011
0110
1010
,
1001
0100
0010
0100
0001
0010
1001
0100
0010
0001
0100
0010
1100
0001
0100
1000
,
0101
0010
0001
0100
0010
1000
0011
0100
0001
0100
0001
1000
0011
0100
0001
1000
,
0110
0001
1000
0001
0010
1000
0110
0001
1000
0010
0001
1000
0101
0010
0001
0100
,
0011
1000
0010
0001
1000
0100
1000
0001
1100
0010
0100
0010
1100
0010
0100
0010
,
0101
1000
0100
1000
0100
0001
1100
0010
1000
0100
0001
1000
0011
0100
0010
1000
,
0110
0001
1000
0100
1000
0010
0001
1000
0101
0010
0100
1000
0101
0010
0001
0100
,
1001
0010
1000
0010
0100
1000
0101
0010
1000
0100
0010
1000
0011
0100
0010
0001
,
0110
1000
0100
0010
1000
0001
1100
0010
0100
0010
0100
0001
1100
0010
0100
0001
,
1010
0100
0001
0100
1000
0001
1010
0100
0001
1000
0100
0001
0110
1000
0100
0010
,
1100
0001
1000
0100
0001
0010
1001
0100
1000
0100
1000
0010
1001
0100
1000
0010
,
1100
0001
0010
0001
1000
0100
0011
1000
0001
0010
0100
0001
1100
0010
1000
0001
,
1010
0100
0001
0010
0001
1000
0100
0001
1100
0010
1000
0010
0101
0010
1000
0010
,
0101
0010
1000
0010
0100
1000
0101
0010
1000
0100
0010
1000
0011
0100
0010
0001
,
0110
1000
0100
0010
1000
0001
1000
0010
1100
0010
0100
0001
1100
0010
0100
0001
,
1010
0100
0001
0100
1000
0001
1010
0100
0001
1000
0100
0001
0110
1000
0100
0010
,
1100
0001
1000
0100
0001
0010
1001
0100
1000
0100
1001
0010
0001
0100
1000
0001
,
0110
0000
0000
0000
,
1001
0010
0100
1000
0001
0100
0011
1000
0100
0001
1000
0100
1010
0001
1000
0010
,
1001
0100
0011
1000
0100
0010
0101
1000
0001
1000
0001
0010
0101
1000
0001
0010
,
1001
0010
0100
1000
0010
0100
0011
1000
0100
0010
1000
0100
1001
0010
1000
0001
,
1010
0100
0010
1000
0110
1000
0101
1000
0100
1000
0001
0100
0010
1000
0001
0010
,
1001
0100
1000
0100
1000
0010
1100
0001
0100
1000
0010
0100
0011
1000
0001
0100
,
1001
0010
0101
1000
0100
0001
1010
0100
0010
0001
1000
0100
1010
0001
0010
1000
,
0110
0001
0100
0001
1000
0100
0010
0001
0110
1000
0011
0100
0010
1000
0101
0010
,
1000
0010
0100
0001
1000
0010
0100
0001
0100
0001
0100
0010
1100
0001
0100
0010
,
1001
0100
0010
0100
1000
0010
1001
0100
0010
1000
0100
0010
0101
1000
0100
0001
,
1100
0010
1001
0100
0010
0001
1010
0100
1000
0100
1000
0001
1010
0100
1000
0001
,
1100
0010
0001
0010
1000
0100
0011
1000
0010
0001
0100
0010
1100
0001
1000
0010
,
0101
0010
0100
1000
0110
0001
1010
0100
0010
1000
0001
1000
0100
1000
0001
1000
,
0110
1000
0001
1000
0010
0001
0110
1000
0001
0010
1000
0001
1100
0010
1000
0100
,
1010
0001
0110
1000
0001
0100
0011
1000
0010
1000
0010
0100
0011
1000
0010
0100
,
1001
0010
0100
0001
1010
0100
1001
0010
1000
0001
0010
0100
1010
0001
0010
1000
,
0011
0100
0001
0010
0100
1000
0100
0010
0001
0010
0001
1000
0100
0010
0001
0100
,
1000
0010
1000
0010
0101
1000
0100
0010
1001
0100
0010
1000
0011
0100
0010
0001
,
0110
1000
0101
0010
1000
0001
1100
0010
0100
0010
0100
0001
1100
0010
0100
0001
,
1010
0100
0001
0100
1010
0001
1000
0100
0011
1000
0110
0001
0100
1000
0100
0010
,
1100
0001
0010
0100
1001
0010
0001
0100
0011
1000
0010
1000
0010
1000
0010
1000
,
0100
0001
0010
0001
1010
0100
0010
1000
0101
0010
0100
0001
1100
0010
1000
0001
,
1100
0001
0110
1000
0010
0100
0001
0010
1001
0100
1000
0010
0001
0100
0011
1000
,
0001
0100
0010
0100
1001
0010
0001
0100
0011
1000
0101
0010
0001
1000
0100
0001
,
1100
0010
1000
0100
1010
0001
1000
0100
1000
0100
1010
0001
1000
0100
1000
0001
,
0100
1000
0001
1000
0110
0001
0100
1000
0101
0010
1000
0001
1100
0010
1000
0100
,
1010
0001
0010
1000
0011
0100
0011
1000
0010
1000
0010
0100
0011
1000
0010
0100
,
1010
0001
0100
0001
0110
1000
0101
0010
0001
0100
1010
0001
1000
0100
0010
0001
,
0110
1000
0001
0100
0001
0010
0100
0001
1000
0100
0010
0100
0001
0100
0010
0100
,
1000
0100
0010
0100
1001
0010
0001
0100
0011
1000
0100
0001
1100
0010
1000
0100
,
1010
0001
0010
1000
0011
0100
0011
1000
0010
1000
0010
0100
0011
1000
0010
0100
,
1001
0010
0100
0010
1001
0100
1001
0010
0100
0001
1010
0100
1000
0001
0010
1000
,
0011
0100
0001
0010
0100
1000
0100
0010
0001
0010
0001
1000
0100
0010
0001
0100
,
1000
0010
0001
0100
0011
1000
0001
0100
0011
1000
0100
0010
1001
0010
0100
1000
,
0101
0010
0100
0010
0101
0010
0101
1000
0001
0100
0001
1000
0011
0100
0001
1000
,
0011
0100
1000
0010
0100
0001
1100
0010
0101
1000
0100
0010
1001
0100
0010
1000
,
0101
0010
0001
0100
0011
1000
0011
0100
0010
0001
0100
1000
0101
0010
1000
0001
,
1010
0100
0010
0100
1000
0010
1001
0100
0001
1000
0100
0001
1100
0010
1000
0100
,
1010
0001
0010
1000
0001
0100
0011
1000
0010
1000
0010
0100
0011
1000
0010
0100
,
1001
0000
0000
0100
0000
0000
0001
0000
,
1000
0000
0000
0010
0000
0000
0001
0000
,
1001
0100
0010
0100
1000
0010
0001
0100
0010
1000
0100
0001
0100
0010
1000
0100
,
1010
0001
0010
1000
0001
0100
0001
1000
0010
1000
0010
0100
0010
1000
0010
0100
,
1001
0010
0100
0010
0001
0100
1000
0010
0100
0001
0010
0100
1000
0001
0010
1000
,
0011
0100
0001
0010
0100
1000
0100
0010
0001
0010
0001
1000
0100
0010
0001
0100
,
1001
0010
0001
0100
0010
1000
0001
0100
0010
1000
0100
0010
0001
0010
0100
1000
,
0101
0010
0100
0010
0001
0010
0100
1000
0010
0100
0001
1000
0010
0100
0001
1000
,
0110
0001
0100
1000
0001
0010
0100
1000
0001
0100
0001
1000
0010
0001
1000
0100
,
0011
1000
0010
0001
1000
0100
1000
0001
1000
0010
0001
0100
0001
1000
0100
0010
,
1100
0001
1000
0001
0100
1000
0010
0001
1000
0100
0001
0010
0001
1000
0100
0001
,
1100
0010
1000
0100
0010
0001
0010
0100
1000
0100
1000
0001
1000
0100
1000
0001
,
0110
1000
0001
1000
0010
0001
0100
1000
0001
0010
1000
0001
0100
0010
1000
0100
,
1010
0001
0010
1000
0001
0100
0001
1000
0010
1000
0010
0100
0001
1000
0010
0001
,
0110
1000
0010
0001
1000
0100
0010
0001
1000
0100
0001
1000
0010
1000
0001
0100
,
0011
1000
0001
1000
0010
1000
0001
0100
1000
0001
0010
0100
1000
0001
0010
0100
,
1001
0100
1000
0010
0100
0001
1000
0010
0100
1000
0100
0010
0001
0100
0010
1000
,
0110
0000
0000
0001
0000
0000
0010
0000
,
1100
0100
0101
0010
0110
0100
1001
0001
,
1010
0010
0011
0001
1010
0010
0110
1001
,
0000
0000
0011
0010
1010
1000
0110
0100
,
1001
0001
0101
0100
1100
1000
0110
1001
,
0000
0000
0101
0010
0011
0001
1001
1000
,
0110
0100
1100
0010
1010
1000
1001
0110
,
0000
1100
0110
0110
0011
0011
1001
0110
,
0000
1100
0110
0011
0110
0011
0110
1100
,
0000
0000
1010
0010
0110
0100
1001
1000
,
0101
0100
1100
0010
0101
0100
0110
1001
,
0000
0000
1100
0100
0101
0001
0110
0010
,
1001
1000
1010
0010
0011
0001
0110
1001
,
0000
0000
1010
0100
1100
0010
1001
1000
,
0110
0100
0011
0001
0101
0100
1001
0110
,
0000
0011
0110
0110
1100
1100
1001
0110
,
0000
0011
0110
1100
0110
1100
0011
2002
,
0000
0000
0000
0000
,
3103
0010
1000
0001
0100
0010
1000
0001
0100
0010
1000
0001
,
0110
1000
0010
0100
0001
1000
0010
0100
0001
1000
0010
0100
,
1001
0010
0100
1000
0001
0100
0011
1000
0100
0001
1000
0100
1010
0001
1000
0010
,
1001
0100
0011
1000
0100
0010
0101
1000
0001
1000
0001
0010
0101
1000
0001
0010
,
1001
0010
0100
1000
0010
0100
0011
1000
0100
0010
1000
0100
1001
0010
1000
0001
,
1010
0100
0010
1000
0110
1000
0101
1000
0100
1000
0001
0100
0010
1000
0001
0010
,
1001
0100
1000
0100
1000
0010
1100
0001
0100
1000
0010
0100
0011
1000
0001
0100
,
1001
0010
0101
1000
0100
0001
1010
0100
0010
0001
1000
0100
1010
0001
0010
1000
,
0110
0001
0100
0001
1000
0100
0010
0001
0110
1000
0011
0100
0010
1000
0101
0010
,
1000
0010
0100
0001
1000
0010
0100
0001
0100
0001
0100
0010
1100
0001
0100
0010
,
1001
0100
0010
0100
1000
0010
1001
0100
0010
1000
0100
0010
0101
1000
0100
0001
,
1100
0010
1001
0100
0010
0001
1010
0100
1000
0100
1000
0001
1010
0100
1000
0001
,
1100
0010
0001
0010
1000
0100
0011
1000
0010
0001
0100
0010
1100
0001
1000
0010
,
0101
0010
0100
1000
0110
0001
1010
0100
0010
1000
0001
1000
0100
1000
0001
1000
,
0110
1000
0001
1000
0010
0001
0110
1000
0001
0010
1000
0001
1100
0010
1000
0100
,
1010
0001
0110
1000
0001
0100
0011
1000
0010
1000
0010
0100
0011
1000
0010
0100
,
1001
0010
0100
0001
1010
0100
1001
0010
1000
0001
0010
0100
1010
0001
0010
1000
,
0011
0100
0001
0010
0100
1000
0100
0010
0001
0010
0001
1000
0100
0010
0001
0100
,
1000
0010
1000
0010
0101
1000
0100
0010
1001
0100
0010
1000
0011
0100
0010
0001
,
0110
1000
0101
0010
1000
0001
1100
0010
0100
0010
0100
0001
1100
0010
0100
0001
,
1010
0100
0001
0100
1010
0001
1000
0100
0011
1000
0110
0001
0100
1000
0100
0010
,
1100
0001
0010
0100
1001
0010
0001
0100
0011
1000
0010
1000
0010
1000
0010
1000
,
0100
0001
0010
0001
1010
0100
0010
1000
0101
0010
0100
0001
1100
0010
1000
0001
,
1100
0001
0110
1000
0010
0100
0001
0010
1001
0100
1000
0010
0001
0100
0011
1000
,
0001
0100
0010
0100
1001
0010
0001
0100
0011
1000
0101
0010
0001
1000
0100
0001
,
1100
0010
1000
0100
1010
0001
1000
0100
1000
0100
1010
0001
1000
0100
1000
0001
,
0100
1000
0001
1000
0110
0001
0100
1000
0101
0010
1000
0001
1100
0010
1000
0100
,
1010
0001
0010
1000
0011
0100
0011
1000
0010
1000
0010
0100
0011
1000
0010
0100
,
1010
0001
0100
0001
0110
1000
0101
0010
0001
0100
1010
0001
1000
0100
0010
0001
,
0110
1000
0001
0100
0001
0010
0100
0001
1000
0100
0010
0100
0001
0100
0010
0100
,
1000
0100
0010
0100
1001
0010
0001
0100
0011
1000
0100
0001
1100
0010
1000
0100
,
1010
0001
0010
1000
0011
0100
0011
1000
0010
1000
0010
0100
0011
1000
0010
0100
,
1001
0010
0100
0010
1001
0100
1001
0010
0100
0001
1010
0100
1000
0001
0010
1000
,
0011
0100
0001
0010
0100
1000
0100
0010
0001
0010
0001
1000
0100
0010
0001
0100
,
1000
0010
0001
0100
0011
1000
0001
0100
0011
1000
0100
0010
1001
0010
0100
1000
,
0101
0010
0100
0010
0101
0010
0101
1000
0001
0100
0001
1000
0011
0100
0001
1000
,
0011
0100
1000
0010
0100
0001
1100
0010
0101
1000
0100
0010
1001
0100
0010
1000
,
0101
0010
0001
0100
0011
1000
0011
0100
0010
0001
0100
1000
0101
0010
1000
0001
,
1010
0100
0010
0100
1000
0010
1001
0100
0001
1000
0100
0001
1100
0010
1000
0100
,
1010
0001
0010
1000
0001
0100
0011
1000
0010
1000
0010
0100
0011
1000
0010
0100
,
1001
0000
0000
0100
0000
0000
0001
0000
,
1000
0000
0000
0000
0000
0000
0010
0000
0010
0100
0010
0100
0011
0100
0010
0100
,
1001
0100
0010
0100
1000
0010
0001
0100
0010
1000
0100
0001
0100
0010
1000
0100
,
1010
0001
0010
1000
0001
0100
0001
1000
0010
1000
0010
0100
0010
1000
0010
0100
,
1001
0010
0100
0010
0001
0100
1000
0010
0100
0001
0010
0100
1000
0001
0010
1000
,
0011
0100
0001
0010
0100
1000
0100
0010
0001
0010
0001
1000
0100
0010
0001
0100
,
1001
0010
0001
0100
0010
1000
0001
0100
0010
1000
0100
0010
0001
0010
0100
1000
,
0101
0010
0100
0010
0001
0010
0100
1000
0010
0100
0001
1000
0010
0100
0001
1000
,
0110
0001
0100
1000
0001
0010
0100
1000
0001
0100
0001
1000
0010
0001
1000
0100
,
0011
1000
0010
0001
1000
0100
1000
0001
1000
0010
0001
0100
0001
1000
0100
0010
,
1100
0001
1000
0001
0100
1000
0010
0001
1000
0100
0001
0010
0001
1000
0100
0001
,
1100
0010
1000
0100
0010
0001
0010
0100
1000
0100
1000
0001
1000
0100
1000
0001
,
0110
1000
0001
1000
0010
0001
0100
1000
0001
0010
1000
0001
0100
0010
1000
0100
,
1010
0001
0010
1000
0001
0100
0001
1000
0010
1000
0010
0100
0001
1000
0010
0001
,
0110
1000
0010
0001
1000
0100
0010
0001
1000
0100
0001
1000
0010
1000
0001
0100
,
0011
1000
0001
1000
0010
1000
0001
0100
1000
0001
0010
0100
1000
0001
0010
0100
,
1001
0100
1000
0010
0100
0001
1000
0010
0100
1000
0100
0010
0001
0100
0010
1000
,
0110
0000
0000
0001
0000
0000
0010
0000
,
1100
0100
0101
0010
0110
0100
1001
0001
,
1010
0010
0011
0001
1010
0010
0110
1001
,
0000
0000
0011
0010
1010
1000
0110
0100
,
1001
0001
0101
0100
1100
1000
0110
1001
,
0000
0000
0101
0010
0011
0001
1001
1000
,
0110
0100
1100
0010
1010
1000
1001
0110
,
0000
1100
0110
0110
0011
0011
1001
0110
,
0000
1100
0110
0011
0110
0011
0110
1100
,
0000
0000
1010
0010
0110
0100
1001
1000
,
0101
0100
1100
0010
0101
0100
0110
1001
,
0000
0000
1100
0100
0101
0001
0110
0010
,
1001
1000
1010
0010
0011
0001
0110
1001
,
0000
0000
1010
0100
1100
0010
1001
1000
,
0110
0100
0011
0001
0101
0100
1001
0110
,
0000
0011
0110
0110
1100
1100
1001
0110
,
0000
0011
0110
1100
0110
1100
0011
2002
,
0000
0000
0000
0000
,
3113
0000
0000
0000
,
1001
0000
0000
0000
,
0100
0000
0100
0000
0100
0000
0100
0000
0100
0010
0100
0000
0100
0000
0100
0000
,
0010
0000
0010
0000
0010
0000
0010
0000
0010
0100
0010
0000
0010
0000
0010
0000
,
0001
0000
0001
0000
0001
0000
0001
0000
0001
1000
0001
0000
0001
0000
0001
0000
,
1000
0000
1000
0000
1000
0000
1000
0000
1000
0001
1000
0000
1000
0000
1000
0000
,
0100
0000
0100
0000
0100
0000
0100
0000
0100
0010
0100
0000
0100
0000
0100
0000
,
0010
0000
0010
0000
0010
0000
0010
0000
0010
0100
0010
0000
0010
0000
0010
0000
,
0001
0000
0001
0000
0001
0000
0001
0000
0001
1000
0001
0000
0001
0000
0001
0000
,
1000
0000
1000
0000
1000
0000
1000
0000
1000
0001
1000
0000
1000
0000
1000
0000
,
0110
0000
0100
0000
0100
0000
0110
0000
0100
0010
0100
0000
0110
0000
0100
0000
,
0110
0000
0010
0000
0010
0000
0110
0000
0010
0100
0010
0000
0110
0000
0010
0000
,
0011
0000
0001
0000
0001
0000
0011
0000
0001
1000
0001
0000
0011
0000
0001
0000
,
1100
0000
1000
0000
1000
0000
1100
0000
1000
0001
1000
0000
1100
0000
1000
0000
,
0110
0000
0100
0000
0100
0000
0110
0000
0100
0010
0100
0000
0110
0000
0100
0000
,
0110
0000
0010
0000
0010
0000
0110
0000
0010
0100
0010
0000
0110
0000
0010
0000
,
0011
0000
0001
0000
0001
0000
0011
0000
0001
1000
0001
0000
0011
0000
0001
0000
,
1100
0000
1000
0000
1000
0000
1100
0000
1000
0001
1000
0000
1100
0000
1000
0000
,
1100
0000
0000
0100
0000
0000
0000
0000
0000
0010
0000
0000
0000
0001
0000
0000
0000
0010
0000
0000
0000
0100
0000
0000
,
0000
0000
0000
0000
0000
1000
0000
0000
0100
0000
0000
0000
0000
0000
0000
0001
0000
0000
1000
0000
0100
0000
0010
0000
,
0001
0010
0000
0000
0100
0000
0010
0000
0000
0001
0000
0100
,
0000
0000
0010
0000
0000
0000
0001
0000
0000
0000
0010
0000
0000
0000
0100
0000
0000
0000
1000
0000
0000
0100
0000
0000
,
0010
0000
0000
0000
0000
0000
0001
0000
0000
0000
0000
0000
0000
0000
0000
0000
0000
0000
0000
0000
0100
0000
0000
0000
0000
0000
0000
0000
0000
0000
0000
0000
0000
0000
0000
0000
0010
0000
0000
0010
0000
0000
0010
0000
0000
0010
0000
0000
,
1000
0000
0000
0000
1000
0000
0000
0000
0001
0000
0000
0000
1000
0000
0000
0000
0010
0000
0000
0010
0000
0000
0010
0000
0000
0010
0000
0000
0100
0000
0000
0000
0100
0000
0000
0000
0001
0000
0000
0000
0100
0000
0000
0000
0001
0000
0000
0001
,
0000
0000
0000
0000
0000
0000
0000
0000
0001
0000
0000
0000
0000
0000
0000
0000
0000
0000
0000
0000
0001
0000
0000
0000
0000
0000
0000
0000
0000
0000
0000
0000
0010
0000
0000
0000
0000
0000
0000
0000
0000
0000
0000
0000
0000
0000
0000
0000
0100
0000
0000
0000
0000
0000
0000
0000
0000
0000
0000
0000
0000
0000
0000
0000
0100
0000
0000
0000
0000
0000
0000
0000
0000
0000
0000
0000
0000
0000
0000
0000
0010
0000
0000
0000
0000
0000
0000
0000
0000
0000
0000
0000
0000
0000
0000
0000
0001
0000
0000
0000
0000
0000
0000
0000
0000
0000
0000
0000
0001
0000
0000
0000
0000
0000
0000
0000
0000
0000
0000
0000
0001
0000
0000
0000
0000
0000
0000
0000
0000
0000
0000
0000
0001
0000
0000
0000
0000
0000
0100
0000
0000
0000
0000
0000
1000
0000
0000
0000
0000
0000
0000
0000
0000
0000
0000
0000
0000
0000
0000
0000
0010
0000
0000
0000
0000
0000
0000
0000
0000
0000
0000
0000
0000
0000
0000
0000
0010
0000
0000
0000
0000
0000
0000
0000
0100
0000
0000
0000
0000
0000
0000
0000
,
1000
0000
0000
0010
0000
0000
0001
0000
0000
0000
0000
0000
1000
0000
0000
0000
0100
0000
0000
0000
0010
0000
0000
0000
,
0001
0000
0000
0000
0000
0000
0010
0000
0000
0000
0000
0000
0100
0000
0000
0000
0000
0000
0010
0000
0000
0000
0000
0000
0000
0000
0000
0000
0000
0000
0000
0000
0001
0000
0000
0000
0000
0000
0000
0000
0010
0000
0000
0100
0000
0000
1000
0000
,
0000
0100
0000
0000
0001
0000
0000
0000
0000
0000
0000
0000
0000
0000
0000
0000
0000
0000
0000
0000
0000
1000
0000
0000
0100
0000
0000
1000
0000
0000
0010
0000
0000
0100
0000
0000
0010
0000
0000
0100
0000
0000
0001
0000
0000
0010
0000
0000
,
0001
0000
0000
0000
0000
0000
0000
0000
0001
0000
0000
0000
0000
0000
0000
0000
1000
0000
0010
0000
0100
0000
0001
0000
0000
0000
0000
0000
0000
0000
1000
0000
0000
0100
0000
0000
0100
0000
0000
0100
0000
0000
0000
0001
0000
0000
0000
0010
,
0000
0000
0000
0100
0000
0000
0000
1000
0000
0000
0000
0100
0000
0000
0010
0000
0000
0001
0000
0000
0010
0000
0000
1000
0000
0000
0000
0000
0000
0000
0000
0000
0000
0000
0000
0000
1000
0000
0000
0000
0000
0000
0000
0000
0000
1000
0000
0000
,
0100
0000
0000
0010
0000
0000
0001
0000
0000
0010
0000
0000
1000
0000
0000
0000
0100
0000
0000
0000
0000
0000
0100
0000
0000
0000
0000
0001
0000
0000
0000
0000
0000
1000
0000
0000
0100
0000
0000
0010
0000
0000
0001
0000
0000
0010
0000
0000
,
0000
0000
0000
0000
0000
0000
1000
0000
0000
0100
0000
0000
0010
0000
0000
0000
1000
0000
0000
0000
0100
0000
0000
0000
0001
0000
0000
0010
0000
0000
0100
0000
0000
0000
1000
0000
0000
0000
0100
0000
0000
0000
1000
0000
0000
0001
0000
0000
,
0010
0000
0000
0000
0000
0000
0000
0000
1000
0000
0000
0000
0000
0000
0000
0000
0100
0000
0000
0000
0000
0000
0000
0000
0010
0000
0000
0000
0000
0000
0000
0000
0001
0000
0000
0000
0000
0000
0000
0000
0010
0000
0000
0000
0000
0000
0000
0000
1000
0000
0000
0000
0000
0000
0100
0000
0000
0000
0000
0000
0010
0000
0000
0000
0000
0000
0001
0000
0000
0000
0000
0000
1000
0000
0000
0000
0000
0000
0100
0000
0000
0000
0000
0000
0010
0000
0000
0000
0000
0000
0001
0000
0000
0000
0000
0000
1000
0000
0000
0000
0000
0000
0100
0000
0000
0000
0000
0000
0010
0000
0000
0000
0000
0000
0001
0000
0000
0000
0000
0000
1000
0000
0000
0000
0000
0000
0100
0000
0000
0000
0000
0000
0010
0000
0000
0000
0000
0000
0001
0000
0000
0000
0000
0000
1000
0000
0000
0000
0000
0000
0100
0000
0000
0000
0000
0000
0010
0000
0000
0000
0000
0000
0001
0000
0000
0000
0000
0000
1000
0000
0000
0000
0000
0000
0100
0000
0000
0000
0000
0000
0010
0000
0000
0000
0000
0000
0001
0000
0000
0000
0000
0000
,
1000
0100
0010
0001
1000
0100
0010
0001
1000
0100
0010
0001
0010
0100
0010
0100
0001
0010
0100
1000
0001
0010
0100
1000
0001
0010
0100
1000
0001
0010
0100
1000
,
0001
0010
0100
1000
0001
0010
0100
1000
0001
0010
0100
1000
0001
0010
0100
1000
0100
0010
0100
0010
0100
0010
1000
0001
0100
0010
1000
0001
0100
0010
1000
0001
,
0100
0010
1000
0001
0100
0010
1000
0001
0100
0010
1000
0001
0100
0010
1000
0001
0100
0010
1000
0001
1000
0001
1000
0001
0100
1000
0010
0001
0100
1000
0010
0001
,
0100
1000
0010
0001
0100
1000
0010
0001
0100
1000
0010
0001
0100
1000
0010
0001
0100
1000
0010
0001
0100
1000
0010
0001
0000
0000
0000
0000
1000
0000
0000
0000
,
0000
0000
0000
1000
0100
0010
0001
0010
0100
0010
0001
0100
1000
0100
0001
0010
1000
0010
0100
0001
0100
0010
1000
0100
,
0010
0001
0010
0100
0001
0010
0100
1000
0100
0010
1000
0100
0010
0001
0010
0200
0000
0000
0000
0000
0000
0000
0000
0000
,
0300
0000
0000
0000
0000
0000
1000
0010
1000
0010
1000
0010
1000
0010
1000
0010
1000
0010
1000
0000
0100
0001
0100
0001
,
0100
0001
0100
0001
0100
0001
0100
0001
0100
0000
0010
0100
0010
0100
0010
0100
0010
0100
0010
0100
0010
0100
0010
0000
,
1000
0001
1000
0001
1000
0001
1000
0001
1000
0001
1000
0001
1000
0000
0000
1000
0010
0100
0001
0010
1000
0100
1000
0100
,
0010
0001
0100
0010
1000
0001
0100
0010
0100
1000
0001
0010
0100
0010
1000
0001
0100
0010
0100
1000
0010
0100
0001
0010
,
0100
1000
0010
0100
0001
0100
0020
0000
0000
0000
0000
0000
0000
0000
0000
0000
0000
0000
0030
0000
0000
1000
0100
0010
,
0100
0001
0010
0100
0010
1000
0100
0010
0100
0001
0010
1000
0010
0100
0001
0100
0010
1000
0100
0010
0001
0100
0010
0001
,
0010
0100
1000
0010
0100
1000
0100
0010
0100
0001
0010
0100
1000
0100
0010
1000
0001
0100
0010
0100
1000
0010
0100
0001
,
0010
0100
1000
0010
0100
0010
1001
0000
0000
0000
0000
0000
0000
0000
0000
0000
0000
0000
0110
0000
0000
0000
0000
0000
,
0000
1010
0000
0101
,
0000
2002
0000
0000
,
0000
0000
0000
0000
0000
0000
0000
3003
1000
0010
0100
0000
0010
1000
0001
0000
0010
0001
0100
0000
1000
0010
0100
0000
0010
1000
0001
0000
0010
0001
0100
0000
,
1000
0010
0100
0000
0010
1000
0001
0000
0010
0001
0100
0000
1000
0001
0100
0000
0010
1000
0001
0000
0010
0001
0100
0000
1000
0010
0100
0000
0010
0000
1001
0000
,
0010
0001
0100
0000
1000
0010
0100
0000
0010
0100
0001
0000
0010
0001
0100
0000
1000
0010
0100
0000
0010
1000
0001
0000
0010
0001
0100
0000
1000
0010
0100
0000
,
0010
1000
0001
0000
0010
0001
0100
0000
1000
0010
0100
0000
0010
0000
0100
0000
1000
0000
0100
0000
0001
0000
0000
0000
0010
0000
0001
0000
0010
0000
0100
0000
,
1000
0000
0000
0000
0100
0010
0010
0010
0010
0010
0010
0010
1000
1000
0001
0001
,
0100
0100
0010
0010
1000
0001
0001
0001
0100
0001
0001
0001
0010
0010
0100
0100
,
0010
0010
1000
1000
0100
0010
0100
0010
1000
0001
1000
0001
0100
0010
0100
0010
,
1000
0001
1000
0001
0100
0010
0100
0010
1000
0100
0100
0100
0010
0001
0001
0001
,
0010
0100
0100
0100
1001
0000
0000
0000
1001
0000
0000
0000
1001
0000
0000
0000
,
0100
0100
0010
0010
0100
0100
0001
0001
0100
0100
1000
0000
0010
0000
1001
0000
,
0000
0000
0000
0000
0010
0100
0010
0001
1000
0100
1000
0010
0001
0010
0001
0100
,
1000
0000
0100
0000
1000
0000
0001
0000
0010
0000
0010
0000
0010
0000
0010
0000
1000
0010
1000
0000
0001
0000
0001
0000
0100
0000
0100
0000
0100
0000
0100
0000
,
1000
0000
0000
0000
0000
0000
0010
0000
0000
0000
0000
0000
1000
0000
0000
0000
0000
0000
0000
0000
0000
0000
0000
0000
0001
0000
0000
0000
0000
0000
0000
0000
0000
0000
0000
0000
0001
0000
0000
0000
0000
0000
0000
0000
0000
0000
0000
0000
1000
0000
0000
0000
0000
0000
0000
0000
0000
0000
0000
0000
0100
0000
0000
0000
0000
0000
0000
0000
0000
0000
0000
0000
0010
0000
0000
0000
0001
0000
0000
0000
0010
0000
0000
0000
0100
0000
0000
0000
0000
0000
0000
0000
0000
0000
0000
0000
0010
0000
0000
0000
0000
0000
0000
0000
0000
0000
0000
0000
1000
0000
0000
0000
0000
0000
0000
0000
0000
0000
0000
0000
0100
0000
0000
0000
0010
0000
0000
0000
0100
0000
0000
0000
0001
0000
0000
0000
0000
0000
0000
0000
0000
0000
0000
0000
0010
0000
0000
0000
0000
0000
0000
0000
0100
0000
0000
0000
0000
0000
0000
0000
1000
0000
0000
0000
0000
0000
0000
0000
0001
0000
0000
0000
0000
0000
0000
0000
0010
0000
0000
0000
0000
0000
0000
0000
0100
0000
0000
0000
0000
0000
0000
0000
,
0010
0001
1000
0100
0010
0001
0100
0010
0001
0010
0100
1000
0010
0100
0001
1000
0010
0100
0001
0010
1000
0100
1000
0010
,
0100
0000
0001
0000
0010
0000
0100
0000
0001
0000
1000
0000
0100
0000
0000
0000
0000
0000
0010
0000
0000
0000
0000
0000
0010
0000
0000
0000
0000
0000
0010
0000
0000
0100
0000
0000
1000
0000
0000
0001
0000
0000
0010
0000
0000
0001
0000
0000
,
1000
0000
1000
0100
0010
0000
0001
0000
0010
0000
0100
0000
0020
0000
0000
0000
,
0000
0000
0000
0000
1030
0100
0010
0100
0001
1000
0010
0100
1000
0100
0010
0001
,
0010
0100
1000
0100
0010
0100
0001
0010
1000
0010
0100
0001
0010
1000
0100
0010
,
0001
0100
0010
1000
0100
0010
0100
0001
1000
0010
1000
0100
0001
1000
0010
0100
,
0001
1000
0100
0001
0010
0100
1000
0010
0100
1000
0100
0001
0010
0100
0010
1000
,
0001
0010
0100
1000
0010
0100
0010
0001
1000
0010
0100
0001
0010
0100
1000
0010
,
0100
0010
1000
0001
0100
0010
1000
0100
0010
0001
0100
0010
1000
0001
0100
0010
,
1000
0100
0001
0010
0100
1000
0010
0100
0001
1000
0010
0100
0010
1000
0001
0100
,
0010
0100
0010
1000
0001
0100
0010
0100
1000
0001
0100
0010
1000
0000
0000
0000
,
0000
0000
0000
0000
1010
0100
1010
0001
1010
0100
1001
0100
1010
0100
1010
0001
,
1010
0100
1001
0100
1010
0100
1010
0001
1010
0100
1001
0100
1001
0100
1010
0100
,
1001
0000
0000
0000
0101
1000
0011
1000
0011
0100
1001
0100
0011
1000
0011
0100
,
1001
0100
0011
1000
0011
0100
0011
1000
0101
1000
0011
1000
0101
1000
0011
0100
,
1001
0000
0000
0000
1001
0010
0101
0010
0101
1000
0110
1000
0011
1000
0101
1000
,
0101
0010
0101
1000
0101
0010
1001
0010
0101
1000
0101
0010
1001
0010
0101
1000
,
0011
0000
0000
0000
1010
0100
1001
0010
1001
0100
1001
0010
1001
0100
1001
0010
,
0101
0010
1001
0100
1001
0010
1001
0100
1010
0100
1001
0010
0101
0010
1001
0100
,
1001
0000
1100
1010
0000
1001
0000
0000
,
1001
0000
0000
0000
1010
0000
0000
0000
1010
0000
0000
0000
0000
0000
0000
0000
1010
0000
0000
0000
0100
0010
0000
0000
0000
0000
0000
0000
0000
0000
0000
0000
,
1100
0110
0011
0000
0011
0110
0000
1001
,
0110
1001
0110
1001
0000
1100
0110
1100
,
0101
0000
0010
0000
1000
0100
0010
1000
0001
0100
0010
1000
0100
0010
0001
0100
,
0010
1000
0100
0010
0001
0100
0010
1000
0001
0100
0010
0100
0001
0100
0010
1000
,
0100
0010
1000
0100
0010
0100
0001
0010
0100
1000
0001
0100
1000
0010
0100
1000
,
0100
0010
0001
0100
0010
1000
0001
0100
0010
1000
0100
0001
0010
0100
0001
0100
,
1000
0100
0010
0100
1001
0010
0101
0010
1010
0100
0011
1000
0011
0100
1010
0001
,
1100
0010
1001
0010
1100
0001
0110
0001
1010
0100
0101
0010
1001
0100
1010
0001
,
0110
0000
0000
0000
1001
0010
0101
0010
1010
0100
1010
0001
0011
0100
1001
0010
,
1100
0001
1100
0010
0101
1000
0011
0100
0011
1000
0110
0010
1001
0100
0011
0100
,
1100
0000
0000
0000
1001
1000
1100
0001
0110
0001
1100
0001
0101
0010
1100
0010
,
1100
0001
1010
0100
0011
0010
0101
1000
1010
0001
0110
0010
0101
1000
1010
0001
,
1010
0000
0000
0000
1100
0010
0101
1000
0110
1000
0011
0100
1001
0100
1100
0001
,
0101
0010
0011
1000
0101
1000
0011
0001
0110
1000
0011
0100
1100
0001
0110
0010
,
1001
0000
0000
0000
1000
0010
0100
0001
1000
0010
0100
0001
0010
0100
1000
0001
,
0010
1000
0010
0100
0001
0100
0001
0010
0100
1000
0001
0100
0010
1000
0100
0010
,
0001
0010
0100
1000
0010
0100
1000
0010
0100
0001
0010
0100
1000
0010
0100
0001
,
1000
0100
0010
0001
0100
1000
0010
1000
0100
0010
0001
0100
0010
1000
0010
0100
,
0001
0100
1000
0010
0100
0001
1000
0010
0100
1000
0010
0100
0001
1000
0100
0010
,
0001
0100
0001
0010
1000
0100
0010
1000
0010
0100
0001
0010
1000
0100
0010
0001
,
0100
0010
1000
0001
0100
0010
1000
0100
0010
0001
0010
0100
1000
0010
0100
0001
,
0010
0100
1000
0010
0100
0001
0010
0100
1000
0010
0100
0001
0010
0100
1000
0010
,
0100
0001
0010
1000
0010
0100
0001
0100
0010
1000
0100
0010
0001
0010
0100
1000
,
0010
0100
0001
0100
1000
0010
0100
0001
0100
0010
1000
0010
0100
0001
0100
0010
,
0100
0010
1000
0100
0001
0010
0100
1000
0001
0100
0010
1000
0010
0001
0100
0010
,
0001
1000
0010
0100
1000
0010
0001
0100
1000
0010
0100
1000
0100
0010
0001
0100
,
1000
0010
1000
0100
1000
0001
0010
0001
1000
0100
0001
1000
0010
1000
0001
0100
,
1000
0100
0001
0100
1000
0010
0100
0001
0100
0010
1000
0010
0100
0001
0100
0010
,
0100
1000
0100
0001
0100
0010
1000
0010
0100
0001
0010
0100
1000
0100
0010
0001
,
1000
0100
0001
0100
1000
0010
0100
0001
0100
0010
1000
0010
0100
0001
0100
0010
,
1000
0010
1000
0100
1010
0001
0010
0001
1000
0100
0011
0100
1000
0100
0010
0001
,
1010
0100
0001
0100
1001
0010
0100
0001
0100
0010
1001
0010
0100
0001
0100
0010
,
0101
1000
0100
0001
1100
0010
1000
0010
0100
0001
1010
0100
1000
0100
0010
0001
,
1010
0100
0001
0100
1001
0010
0100
0001
0100
0010
1001
0010
0100
0001
0100
0010
,
1001
0010
1000
0100
1010
0001
0010
0001
1000
0100
0011
0100
1000
0100
0010
0001
,
1010
0100
0001
0100
1001
0010
0100
0001
0100
0010
1001
0010
0100
0001
0100
0010
,
0101
1000
0100
0001
1100
0010
0100
0010
0100
0001
1010
0100
0001
0100
0010
0001
,
1000
0100
0001
0100
1000
0010
0100
0001
0100
0010
1000
0010
0100
0001
0100
0010
,
1000
0010
1000
0100
1010
0001
0010
0001
1000
0100
0011
0100
1000
0100
0010
0001
,
1010
0100
0001
0100
1001
0010
0100
0001
0100
0010
1001
0010
0100
0001
0100
0010
,
0101
1000
0100
0001
1100
0010
1000
0010
0100
0001
1010
0100
1000
0100
0010
0001
,
1010
0100
0001
0100
1001
0010
0100
0001
0100
0010
1001
0010
0100
0001
0100
0010
,
1100
0010
1000
0100
1010
0001
0010
0001
1000
0100
0011
0100
1000
0100
0010
0001
,
1010
0100
0001
0100
1001
0010
0100
0001
0100
0010
1001
0010
0100
0001
0100
0010
,
1001
0010
1000
0100
1010
0001
0010
0001
1000
0100
0011
0100
1000
0100
0010
0001
,
0100
0010
1000
0001
0100
1000
0010
0100
0001
0010
1000
0010
0100
0001
0010
0100
,
1000
0010
1000
0100
1000
0001
0010
0001
1010
0100
0001
0100
1010
0100
0010
0001
,
1010
0100
0001
0100
1001
0010
0100
0001
1100
0010
1001
0010
0100
0001
0100
0010
,
0101
1000
0100
0001
1100
0010
1000
0010
1100
0001
1010
0100
1000
0100
1010
0001
,
0010
0100
0001
0100
1001
0010
0100
0001
0100
0010
1000
0010
0100
0001
0100
0010
,
1000
0010
1000
0100
1000
0001
0010
0001
1010
0100
0001
0100
1010
0100
0010
0001
,
1010
0100
0001
0100
1001
0010
0100
0001
1100
0010
1001
0010
0100
0001
0100
0010
,
1001
0010
1000
0100
1010
0001
0010
0001
1010
0100
0011
0100
1000
0100
1010
0001
,
0100
0010
1000
0001
0110
1000
0010
0100
0001
0010
1000
0010
1000
0001
0010
0100
,
1001
0010
1000
0100
1000
0001
0010
0001
1010
0100
0001
0100
1010
0100
0010
0001
,
1010
0100
0001
0100
1001
0010
0100
0001
1100
0010
1001
0010
0100
0001
1100
0010
,
0100
1000
0100
0001
1100
0010
1000
0010
1100
0001
1010
0100
1000
0100
1010
0001
,
0010
0100
0001
0100
1001
0010
0100
0001
1100
0010
1001
0010
0100
0001
0100
0010
,
1001
0010
1000
0100
1010
0001
0010
0001
1000
0100
0011
0100
1000
0100
0010
0001
,
1010
0100
0001
0100
1001
0010
0100
0001
0100
0010
1100
0010
0100
0001
0100
0010
,
1001
0100
0010
0001
1010
0000
0000
0000
0000
0000
0101
0000
0000
0000
0000
0000
,
0110
0000
0000
0000
1010
0100
1000
0100
0010
1000
0101
0010
0100
0001
0010
0100
,
1001
0000
0000
0000
0011
0100
1000
0010
0001
0100
0010
1000
0100
0001
0100
0010
,
1000
0100
1000
0001
0110
1000
0001
0100
0001
1000
0010
1000
0010
0100
0010
1000
,
0010
0100
1000
0010
0101
0010
0001
0100
1000
0010
0100
0001
0010
0100
1000
0001
,
0010
1000
0010
0100
1001
0010
0100
1000
0100
0010
0001
0010
0001
1000
0100
0010
,
0001
0100
1000
0010
1001
0100
0010
1000
0001
0100
0010
1000
0100
0010
0001
0010
,
0100
1000
0100
0010
1100
0010
0001
0010
0100
1000
0010
0100
0001
1000
0010
0100
,
0001
1000
0100
0001
0110
1000
0001
0010
0100
1000
0001
0100
0001
1000
0010
0001
,
1000
0100
0001
1000
0110
0001
1000
0100
1000
0001
1000
0010
0001
0100
0001
1000
,
0100
0010
0100
0001
1100
0001
0100
1000
0010
0001
1000
0100
0001
0010
0001
1000
,
0100
0001
0100
0010
1001
0100
0010
0001
0010
0100
1000
0100
1000
0001
1000
0100
,
1000
0001
0100
1000
0011
1000
0010
0001
0100
1000
0001
0010
1000
0001
0100
0010
,
1000
0100
1000
0001
0110
1000
0001
0100
0001
1000
0010
1000
0010
0100
0001
1000
,
0010
0001
0100
1000
0110
0001
1000
0100
0010
0001
1000
0100
0001
1000
0010
1000
,
0001
0100
0001
1000
0011
1000
0010
1000
0001
0100
1000
0001
0010
0100
1000
0001
,
0010
0100
1000
0100
1001
0010
0100
0001
1000
0010
0100
1000
0100
0010
0001
0100
,
0010
1000
0010
1000
0110
1000
0100
0001
0100
1000
0010
0100
0001
0100
0010
1000
,
0010
0100
0010
1000
0011
1000
0010
0100
0010
1000
0010
1000
0010
0100
0001
0100
,
0001
1000
0001
0100
0011
0100
0010
1000
0001
0100
0010
1000
0001
0100
0010
1000
,
0010
0100
0010
1000
0011
0100
0010
1000
0010
0100
0010
1000
0001
0100
0010
1000
,
0001
0100
0010
1000
0110
0000
0000
0000
0000
0000
0001
0000
0000
0000
0000
0000
,
0010
0000
0000
0000
1001
0100
0010
0100
0001
0010
1001
0100
0010
0001
0100
0010
,
1100
0001
0100
1000
0101
0010
0001
0100
0010
1000
0011
0100
0001
0100
0001
1000
,
0011
0100
0001
1000
0110
0001
1000
0001
0010
1000
0110
0001
1000
0010
0001
1000
,
0101
0010
0001
0100
0011
1000
0010
0001
1000
0100
1000
0001
1100
0010
0100
0010
,
1100
0010
0100
0010
0101
1000
0100
1000
0100
0001
1100
0010
1000
0100
0001
1000
,
0011
0100
0010
1000
0110
0001
1000
0100
1000
0010
0001
1000
0101
0010
0100
1000
,
0101
0010
0001
0100
1001
0010
1000
0010
0100
1000
0101
0010
1000
0100
0010
1000
,
0011
0100
0010
0001
0110
1000
0100
0010
1000
0001
1100
0010
0100
0010
0100
0001
,
1100
0010
0100
0001
1010
0100
0001
0100
1000
0001
1010
0100
0001
1000
0100
0001
,
0110
1000
0100
0010
1100
0001
1000
0100
0001
0010
1001
0100
1000
0100
1000
0010
,
1001
0100
1000
0010
1100
0001
0010
0001
1000
0100
0011
1000
0001
0010
0100
0001
,
1100
0010
1000
0001
1010
0100
0001
0010
0001
1000
0100
0001
1100
0010
1000
0010
,
0101
0010
1000
0010
0101
0010
1000
0010
0100
1000
0101
0010
1000
0100
0010
1000
,
0011
0100
0010
0001
0110
1000
0100
0010
1000
0001
1000
0010
1100
0010
0100
0001
,
1100
0010
0100
0001
1010
0100
0001
0100
1000
0001
1010
0100
0001
1000
0100
0001
,
0110
1000
0100
0010
1100
0001
1000
0100
0001
0010
1001
0100
1000
0100
1001
0010
,
0001
0100
1000
0001
0110
1000
0001
1000
0001
1000
0001
1000
0101
1000
0001
1000
,
0001
1000
0001
1000
0101
1000
0001
1000
0001
1000
0001
1000
0101
1000
0001
1000
,
0001
1000
0001
1000
0110
0000
0110
0000
0110
0000
0000
0000
0110
0000
0110
0000
,
0110
0000
0000
0000
1000
0100
0010
0001
1000
0100
0010
0001
1000
0100
0010
0001
,
1000
0100
0010
0001
1000
0100
0010
0001
1000
0100
0010
0001
1000
0100
0010
0001
,
1000
0100
0010
0001
1000
2002
0000
0000
0000
0000
0000
0000
0000
0000
0000
0000
,
0000
0000
0000
0000
,
0000
0000
0000
0000
,
0000
0000
0000
0000
,
0000
0000
0000
0000
,
0000
0000
0000
0000
0000
0000
0000
0000
0000
0000
0000
0000
0000
0000
0000
3113
,
0000
0110
0000
0000
0000
0000
0000
0000
0000
0000
0000
0000
0000
0000
0000
0000
;

//---------------dance-double - Copied from EZ Versi----------------
#NOTES:
     dance-double:
     Copied from EZ Versi:
     Hard:
     15:
     1.000,1.000,1.000,0.023,1.000,5218.000,887.000,11.000,0.000,3.000:
10000000
01000000
00010000
10000000
01000000
00010000
00100000
01000000
,
00000001
00000010
00001000
00000001
00000010
00001000
00000100
00000010
,
00010000
10000000
00100000
00010000
10000000
00100000
00010000
10000000
,
00000001
00001000
00000010
00000001
00001000
00000010
00000001
00001000
,
01000000
00100000
00010000
01000000
00100000
00010000
01000000
00100000
,
00000001
00000010
00000100
00000001
00000010
00000100
00000001
00000100
,
10000000
00100000
01000000
10000000
00100000
01000000
10000000
00010000
,
00000100
00000010
00001000
00000010
00000001
00001000
00000100
00000010
,
00010000
00100000
00100000
00010000
00100000
00100000
00010000
00100000
,
00000100
00000010
00000010
00000100
00000010
00000010
00000100
00000010
,
00010000
00100000
00100000
00010000
00100000
00100000
00010000
00100000
,
00000001
00000010
00000010
00000001
00000010
00000010
00000001
00000010
,
00100000
01000000
01000000
00100000
01000000
01000000
00100000
01000000
,
00000001
00000100
00000100
00000001
00000100
00000100
00000001
00000100
,
00010000
01000000
01000000
00010000
01000000
01000000
00010000
01000000
,
00000010
00001000
00001000
00000010
00000001
00000001
00000010
00001000
,
10000001
01000000
01000000
10000001
01000000
01000000
10000001
01000000
,
10000001
00000010
00000010
01000001
00000010
00000010
01000001
00000010
,
10000001
01000000
01000000
10000001
01000000
01000000
10000001
01000000
,
10000010
00000001
00000001
10000010
00000001
00000001
10000010
00000100
,
00010010
10000000
10000000
00010010
10000000
10000000
00010010
00010000
,
01100000
10000000
10000000
01100000
10000000
10000000
01010000
00100000
,
00001010
00000001
00000001
00001010
00000001
00000001
00001010
00001000
,
01010000
00100000
00100000
01010000
00100000
00100000
10100000
01000000
,
00000101
00000010
00000010
00000101
00001000
00001000
00000110
00000010
,
10010000
00100000
00100000
01010000
01000000
01000000
10100000
10000000
,
00000101
00000100
00000100
00001001
00000100
00000100
00000011
00000010
,
10010000
01000000
01000000
00110000
01000000
01000000
01010000
10000000
,
01010000
00100000
00100000
11000000
00100000
00100000
10010000
01000000
,
00000101
00001000
00001000
00000011
00001000
00001000
00000101
00000001
,
00001001
00001000
00001000
00000101
00000100
00000100
00000011
00001000
,
01000100
10000000
10000000
01000010
00000001
00000001
10000001
00100000
,
00011000
00010000
00001000
00010000
00001000
00010000
00001000
00010000
00001000
00010000
00001000
00010000
00001000
00010000
00001000
00010000
,
10000001
01000010
00100100
00011000
,
10001000
01000000
00100000
01000000
00010000
00100000
10001000
01000000
00100000
00010000
01000000
00100000
10000100
00010000
01000000
10000000
,
01000010
00100000
00010000
01000000
00100000
10000000
00100001
01000000
00010000
01000000
00010000
10000000
00010010
01000000
00010000
10000000
,
01000010
00010000
10000000
00010000
00100000
10000000
01000100
00010000
10000000
00100000
00010000
10000000
00011000
00100000
00010000
01000000
,
00100100
10000000
00100000
00010000
10000000
01000000
10000000
00010000
01001000
00100000
01000000
00100000
01000100
00100000
01000000
00100000
,
01000001
10000000
01000000
10000000
01000000
00010000
10000010
00100000
10000000
01000000
00010000
10000000
00010100
01000000
00100000
10000000
,
01000010
00010000
10000000
01000000
10000000
00100000
00010000
10000000
00011000
00100000
01000000
10000000
01000100
00100000
00010000
01000000
,
10000001
00100000
10000000
00100000
01000000
10000000
01000010
00100000
10000000
01000000
00100000
10000000
00100100
01000000
00100000
00010000
,
01000100
10000000
01000000
00100000
10000000
00010000
01000100
00100000
01000000
00100000
01000000
00010000
01001000
00100000
01000000
00010000
,
10100000
01000000
00010000
01000000
10000000
00010000
10100000
01000000
00010000
10000000
01000000
00010000
01100000
10000000
01000000
00100000
,
11000000
00010000
10000000
01000000
00010000
00100000
10010000
01000000
10000000
01000000
10000000
00100000
10010000
01000000
10000000
00100000
,
11000000
00010000
00100000
00010000
10000000
01000000
00110000
10000000
00010000
00100000
01000000
00010000
11000000
00100000
10000000
00010000
,
10100000
01000000
00010000
00100000
00010000
10000000
01000000
00010000
11000000
00100000
10000000
00100000
01010000
00100000
10000000
00100000
,
01010000
00100000
10000000
00100000
01000000
10000000
01010000
00100000
10000000
01000000
00100000
10000000
00110000
01000000
00100000
00010000
,
01100000
10000000
01000000
00100000
10000000
00010000
10000000
00100000
11000000
00100000
01000000
00010000
11000000
00100000
01000000
00010000
,
10100000
01000000
00010000
01000000
10000000
00010000
10100000
01000000
00010000
10000000
01000000
00010000
01100000
10000000
01000000
00100000
,
11000000
00010000
10000000
01000000
00010000
00100000
10010000
01000000
10000000
01000000
10010000
00100000
00010000
01000000
10000000
00010000
,
01100000
00000000
00000000
00000000
,
10010000
00100000
01000000
10000000
00010000
01000000
00110000
10000000
01000000
00010000
10000000
01000000
10100000
00010000
10000000
00100000
,
10010000
01000000
00110000
10000000
01000000
00100000
01010000
10000000
00010000
10000000
00010000
00100000
01010000
10000000
00010000
00100000
,
10010000
00100000
01000000
10000000
00100000
01000000
00110000
10000000
01000000
00100000
10000000
01000000
10010000
00100000
10000000
00010000
,
10100000
01000000
00100000
10000000
01100000
10000000
01010000
10000000
01000000
10000000
00010000
01000000
00100000
10000000
00010000
00100000
,
10010000
01000000
10000000
01000000
10000000
00100000
11000000
00010000
01000000
10000000
00100000
01000000
00110000
10000000
00010000
01000000
,
10010000
00100000
01010000
10000000
01000000
00010000
10100000
01000000
00100000
00010000
10000000
01000000
10100000
00010000
00100000
10000000
,
01100000
00010000
01000000
00010000
10000000
01000000
00100000
00010000
01100000
10000000
00110000
01000000
00100000
10000000
01010000
00100000
,
10000000
00100000
01000000
00010000
10000000
00100000
01000000
00010000
01000000
00010000
01000000
00100000
11000000
00010000
01000000
00100000
,
10010000
01000000
00100000
01000000
10000000
00100000
10010000
01000000
00100000
10000000
01000000
00100000
01010000
10000000
01000000
00010000
,
11000000
00100000
10010000
01000000
00100000
00010000
10100000
01000000
10000000
01000000
10000000
00010000
10100000
01000000
10000000
00010000
,
11000000
00100000
00010000
00100000
10000000
01000000
00110000
10000000
00100000
00010000
01000000
00100000
11000000
00010000
10000000
00100000
,
01010000
00100000
01000000
10000000
01100000
00010000
10100000
01000000
00100000
10000000
00010000
10000000
01000000
10000000
00010000
10000000
,
01100000
10000000
00010000
10000000
00100000
00010000
01100000
10000000
00010000
00100000
10000000
00010000
11000000
00100000
10000000
01000000
,
10100000
00010000
01100000
10000000
00010000
01000000
00110000
10000000
00100000
10000000
00100000
01000000
00110000
10000000
00100000
01000000
,
10010000
00100000
01000000
00010000
10100000
01000000
10010000
00100000
10000000
00010000
00100000
01000000
10100000
00010000
00100000
10000000
,
00110000
01000000
00010000
00100000
01000000
10000000
01000000
00100000
00010000
00100000
00010000
10000000
01000000
00100000
00010000
01000000
,
10000000
00100000
10000000
00100000
01010000
10000000
01000000
00100000
10010000
01000000
00100000
10000000
00110000
01000000
00100000
00010000
,
01100000
10000000
01010000
00100000
10000000
00010000
11000000
00100000
01000000
00100000
01000000
00010000
11000000
00100000
01000000
00010000
,
10100000
01000000
00010000
01000000
10100000
00010000
10000000
01000000
00110000
10000000
01100000
00010000
01000000
10000000
01000000
00100000
,
11000000
00010000
00100000
01000000
10010000
00100000
00010000
01000000
00110000
10000000
00100000
10000000
00100000
10000000
00100000
10000000
,
01000000
00010000
00100000
00010000
10100000
01000000
00100000
10000000
01010000
00100000
01000000
00010000
11000000
00100000
10000000
00010000
,
11000000
00010000
01100000
10000000
00100000
01000000
00010000
00100000
10010000
01000000
10000000
00100000
00010000
01000000
00110000
10000000
,
00010000
01000000
00100000
01000000
10010000
00100000
00010000
01000000
00110000
10000000
01010000
00100000
00010000
10000000
01000000
00010000
,
11000000
00100000
10000000
01000000
10100000
00010000
10000000
01000000
10000000
01000000
10100000
00010000
10000000
01000000
10000000
00010000
,
01000000
10000000
00010000
10000000
01100000
00010000
01000000
10000000
01010000
00100000
10000000
00010000
11000000
00100000
10000000
01000000
,
10100000
00010000
00100000
10000000
00110000
01000000
00110000
10000000
00100000
10000000
00100000
01000000
00110000
10000000
00100000
01000000
,
10100000
00010000
01000000
00010000
01100000
10000000
01010000
00100000
00010000
01000000
10100000
00010000
10000000
01000000
00100000
00010000
,
01100000
10000000
00010000
01000000
00010000
00100000
01000000
00010000
10000000
01000000
00100000
01000000
00010000
01000000
00100000
01000000
,
10000000
01000000
00100000
01000000
10010000
00100000
00010000
01000000
00110000
10000000
01000000
00010000
11000000
00100000
10000000
01000000
,
10100000
00010000
00100000
10000000
00110000
01000000
00110000
10000000
00100000
10000000
00100000
01000000
00110000
10000000
00100000
01000000
,
10010000
00100000
01000000
00100000
10010000
01000000
10010000
00100000
01000000
00010000
10100000
01000000
10000000
00010000
00100000
10000000
,
00110000
01000000
00010000
00100000
01000000
10000000
01000000
00100000
00010000
00100000
00010000
10000000
01000000
00100000
00010000
01000000
,
10000000
00100000
00010000
01000000
00110000
10000000
00010000
01000000
00110000
10000000
01000000
00100000
10010000
00100000
01000000
10000000
,
01010000
00100000
01000000
00100000
01010000
00100000
01010000
10000000
00010000
01000000
00010000
10000000
00110000
01000000
00010000
10000000
,
00110000
01000000
10000000
00100000
01000000
00010000
11000000
00100000
01010000
10000000
01000000
00100000
10010000
01000000
00100000
10000000
,
01010000
00100000
00010000
01000000
00110000
10000000
00110000
01000000
00100000
00010000
01000000
10000000
01010000
00100000
10000000
00010000
,
10100000
01000000
00100000
01000000
10000000
00100000
10010000
01000000
00010000
10000000
01000000
00010000
11000000
00100000
10000000
01000000
,
10100000
00010000
00100000
10000000
00010000
01000000
00110000
10000000
00100000
10000000
00100000
01000000
00110000
10000000
00100000
01000000
,
10010000
00000000
00000000
01000000
00000000
00000000
00010000
00000000
,
10000000
00000000
00000000
00100000
00000000
00000000
00010000
00000000
,
10010000
01000000
00100000
01000000
10000000
00100000
00010000
01000000
00100000
10000000
01000000
00010000
01000000
00100000
10000000
01000000
,
10100000
00010000
00100000
10000000
00010000
01000000
00010000
10000000
00100000
10000000
00100000
01000000
00100000
10000000
00100000
01000000
,
10010000
00100000
01000000
00100000
00010000
01000000
10000000
00100000
01000000
00010000
00100000
01000000
10000000
00010000
00100000
10000000
,
00110000
01000000
00010000
00100000
01000000
10000000
01000000
00100000
00010000
00100000
00010000
10000000
01000000
00100000
00010000
01000000
,
10010000
00100000
00010000
01000000
00100000
10000000
00010000
01000000
00100000
10000000
01000000
00100000
00010000
00100000
01000000
10000000
,
01010000
00100000
01000000
00100000
00010000
00100000
01000000
10000000
00100000
01000000
00010000
10000000
00100000
01000000
00010000
10000000
,
01100000
00010000
01000000
10000000
00010000
00100000
01000000
10000000
00010000
01000000
00010000
10000000
00100000
00010000
10000000
01000000
,
00110000
10000000
00100000
00010000
10000000
01000000
10000000
00010000
10000000
00100000
00010000
01000000
00010000
10000000
01000000
00100000
,
11000000
00010000
10000000
00010000
01000000
10000000
00100000
00010000
10000000
01000000
00010000
00100000
00010000
10000000
01000000
00010000
,
11000000
00100000
10000000
01000000
00100000
00010000
00100000
01000000
10000000
01000000
10000000
00010000
10000000
01000000
10000000
00010000
,
01100000
10000000
00010000
10000000
00100000
00010000
01000000
10000000
00010000
00100000
10000000
00010000
01000000
00100000
10000000
01000000
,
10100000
00010000
00100000
10000000
00010000
01000000
00010000
10000000
00100000
10000000
00100000
01000000
00010000
10000000
00100000
00010000
,
01100000
10000000
00100000
00010000
10000000
01000000
00100000
00010000
10000000
01000000
00010000
10000000
00100000
10000000
00010000
01000000
,
00110000
10000000
00010000
10000000
00100000
10000000
00010000
01000000
10000000
00010000
00100000
01000000
10000000
00010000
00100000
01000000
,
10010000
01000000
10000000
00100000
01000000
00010000
10000000
00100000
01000000
10000000
01000000
00100000
00010000
01000000
00100000
10000000
,
01100000
00000000
00000000
00010000
00000000
00000000
00100000
00000000
,
11000000
01000000
01010000
00100000
01100000
01000000
10010000
00010000
,
10100000
00100000
00110000
00010000
10100000
00100000
01100000
10010000
,
00000000
00000000
00110000
00100000
10100000
10000000
01100000
01000000
,
10010000
00010000
01010000
01000000
11000000
10000000
01100000
10010000
,
00000000
00000000
01010000
00100000
00110000
00010000
10010000
10000000
,
01100000
01000000
11000000
00100000
10100000
10000000
10010000
01100000
,
00000000
11000000
01100000
01100000
00110000
00110000
10010000
01100000
,
00000000
11000000
01100000
00110000
01100000
00110000
01100000
11000000
,
00000000
00000000
10100000
00100000
01100000
01000000
10010000
10000000
,
01010000
01000000
11000000
00100000
01010000
01000000
01100000
10010000
,
00000000
00000000
11000000
01000000
01010000
00010000
01100000
00100000
,
10010000
10000000
10100000
00100000
00110000
00010000
01100000
10010000
,
00000000
00000000
10100000
01000000
11000000
00100000
10010000
10000000
,
01100000
01000000
00110000
00010000
01010000
01000000
10010000
01100000
,
00000000
00110000
01100000
01100000
11000000
11000000
10010000
01100000
,
00000000
00110000
01100000
11000000
01100000
11000000
00110000
20020000
,
00000000
00000000
00000000
00000000
,
31030000
00100000
10000000
00010000
01000000
00100000
10000000
00010000
01000000
00100000
10000000
00010000
,
01100000
10000000
00100000
01000000
00010000
10000000
00100000
01000000
00010000
10000000
00100000
01000000
,
10010000
00100000
01000000
10000000
00010000
01000000
00110000
10000000
01000000
00010000
10000000
01000000
10100000
00010000
10000000
00100000
,
10010000
01000000
00110000
10000000
01000000
00100000
01010000
10000000
00010000
10000000
00010000
00100000
01010000
10000000
00010000
00100000
,
10010000
00100000
01000000
10000000
00100000
01000000
00110000
10000000
01000000
00100000
10000000
01000000
10010000
00100000
10000000
00010000
,
10100000
01000000
00100000
10000000
01100000
10000000
01010000
10000000
01000000
10000000
00010000
01000000
00100000
10000000
00010000
00100000
,
10010000
01000000
10000000
01000000
10000000
00100000
11000000
00010000
01000000
10000000
00100000
01000000
00110000
10000000
00010000
01000000
,
10010000
00100000
01010000
10000000
01000000
00010000
10100000
01000000
00100000
00010000
10000000
01000000
10100000
00010000
00100000
10000000
,
01100000
00010000
01000000
00010000
10000000
01000000
00100000
00010000
01100000
10000000
00110000
01000000
00100000
10000000
01010000
00100000
,
10000000
00100000
01000000
00010000
10000000
00100000
01000000
00010000
01000000
00010000
01000000
00100000
11000000
00010000
01000000
00100000
,
10010000
01000000
00100000
01000000
10000000
00100000
10010000
01000000
00100000
10000000
01000000
00100000
01010000
10000000
01000000
00010000
,
11000000
00100000
10010000
01000000
00100000
00010000
10100000
01000000
10000000
01000000
10000000
00010000
10100000
01000000
10000000
00010000
,
11000000
00100000
00010000
00100000
10000000
01000000
00110000
10000000
00100000
00010000
01000000
00100000
11000000
00010000
10000000
00100000
,
01010000
00100000
01000000
10000000
01100000
00010000
10100000
01000000
00100000
10000000
00010000
10000000
01000000
10000000
00010000
10000000
,
01100000
10000000
00010000
10000000
00100000
00010000
01100000
10000000
00010000
00100000
10000000
00010000
11000000
00100000
10000000
01000000
,
10100000
00010000
01100000
10000000
00010000
01000000
00110000
10000000
00100000
10000000
00100000
01000000
00110000
10000000
00100000
01000000
,
10010000
00100000
01000000
00010000
10100000
01000000
10010000
00100000
10000000
00010000
00100000
01000000
10100000
00010000
00100000
10000000
,
00110000
01000000
00010000
00100000
01000000
10000000
01000000
00100000
00010000
00100000
00010000
10000000
01000000
00100000
00010000
01000000
,
10000000
00100000
10000000
00100000
01010000
10000000
01000000
00100000
10010000
01000000
00100000
10000000
00110000
01000000
00100000
00010000
,
01100000
10000000
01010000
00100000
10000000
00010000
11000000
00100000
01000000
00100000
01000000
00010000
11000000
00100000
01000000
00010000
,
10100000
01000000
00010000
01000000
10100000
00010000
10000000
01000000
00110000
10000000
01100000
00010000
01000000
10000000
01000000
00100000
,
11000000
00010000
00100000
01000000
10010000
00100000
00010000
01000000
00110000
10000000
00100000
10000000
00100000
10000000
00100000
10000000
,
01000000
00010000
00100000
00010000
10100000
01000000
00100000
10000000
01010000
00100000
01000000
00010000
11000000
00100000
10000000
00010000
,
11000000
00010000
01100000
10000000
00100000
01000000
00010000
00100000
10010000
01000000
10000000
00100000
00010000
01000000
00110000
10000000
,
00010000
01000000
00100000
01000000
10010000
00100000
00010000
01000000
00110000
10000000
01010000
00100000
00010000
10000000
01000000
00010000
,
11000000
00100000
10000000
01000000
10100000
00010000
10000000
01000000
10000000
01000000
10100000
00010000
10000000
01000000
10000000
00010000
,
01000000
10000000
00010000
10000000
01100000
00010000
01000000
10000000
01010000
00100000
10000000
00010000
11000000
00100000
10000000
01000000
,
10100000
00010000
00100000
10000000
00110000
01000000
00110000
10000000
00100000
10000000
00100000
01000000
00110000
10000000
00100000
01000000
,
10100000
00010000
01000000
00010000
01100000
10000000
01010000
00100000
00010000
01000000
10100000
00010000
10000000
01000000
00100000
00010000
,
01100000
10000000
00010000
01000000
00010000
00100000
01000000
00010000
10000000
01000000
00100000
01000000
00010000
01000000
00100000
01000000
,
10000000
01000000
00100000
01000000
10010000
00100000
00010000
01000000
00110000
10000000
01000000
00010000
11000000
00100000
10000000
01000000
,
10100000
00010000
00100000
10000000
00110000
01000000
00110000
10000000
00100000
10000000
00100000
01000000
00110000
10000000
00100000
01000000
,
10010000
00100000
01000000
00100000
10010000
01000000
10010000
00100000
01000000
00010000
10100000
01000000
10000000
00010000
00100000
10000000
,
00110000
01000000
00010000
00100000
01000000
10000000
01000000
00100000
00010000
00100000
00010000
10000000
01000000
00100000
00010000
01000000
,
10000000
00100000
00010000
01000000
00110000
10000000
00010000
01000000
00110000
10000000
01000000
00100000
10010000
00100000
01000000
10000000
,
01010000
00100000
01000000
00100000
01010000
00100000
01010000
10000000
00010000
01000000
00010000
10000000
00110000
01000000
00010000
10000000
,
00110000
01000000
10000000
00100000
01000000
00010000
11000000
00100000
01010000
10000000
01000000
00100000
10010000
01000000
00100000
10000000
,
01010000
00100000
00010000
01000000
00110000
10000000
00110000
01000000
00100000
00010000
01000000
10000000
01010000
00100000
10000000
00010000
,
10100000
01000000
00100000
01000000
10000000
00100000
10010000
01000000
00010000
10000000
01000000
00010000
11000000
00100000
10000000
01000000
,
10100000
00010000
00100000
10000000
00010000
01000000
00110000
10000000
00100000
10000000
00100000
01000000
00110000
10000000
00100000
01000000
,
10010000
00000000
00000000
01000000
00000000
00000000
00010000
00000000
,
10000000
00000000
00000000
00000000
00000000
00000000
00100000
00000000
00100000
01000000
00100000
01000000
00110000
01000000
00100000
01000000
,
10010000
01000000
00100000
01000000
10000000
00100000
00010000
01000000
00100000
10000000
01000000
00010000
01000000
00100000
10000000
01000000
,
10100000
00010000
00100000
10000000
00010000
01000000
00010000
10000000
00100000
10000000
00100000
01000000
00100000
10000000
00100000
01000000
,
10010000
00100000
01000000
00100000
00010000
01000000
10000000
00100000
01000000
00010000
00100000
01000000
10000000
00010000
00100000
10000000
,
00110000
01000000
00010000
00100000
01000000
10000000
01000000
00100000
00010000
00100000
00010000
10000000
01000000
00100000
00010000
01000000
,
10010000
00100000
00010000
01000000
00100000
10000000
00010000
01000000
00100000
10000000
01000000
00100000
00010000
00100000
01000000
10000000
,
01010000
00100000
01000000
00100000
00010000
00100000
01000000
10000000
00100000
01000000
00010000
10000000
00100000
01000000
00010000
10000000
,
01100000
00010000
01000000
10000000
00010000
00100000
01000000
10000000
00010000
01000000
00010000
10000000
00100000
00010000
10000000
01000000
,
00110000
10000000
00100000
00010000
10000000
01000000
10000000
00010000
10000000
00100000
00010000
01000000
00010000
10000000
01000000
00100000
,
11000000
00010000
10000000
00010000
01000000
10000000
00100000
00010000
10000000
01000000
00010000
00100000
00010000
10000000
01000000
00010000
,
11000000
00100000
10000000
01000000
00100000
00010000
00100000
01000000
10000000
01000000
10000000
00010000
10000000
01000000
10000000
00010000
,
01100000
10000000
00010000
10000000
00100000
00010000
01000000
10000000
00010000
00100000
10000000
00010000
01000000
00100000
10000000
01000000
,
10100000
00010000
00100000
10000000
00010000
01000000
00010000
10000000
00100000
10000000
00100000
01000000
00010000
10000000
00100000
00010000
,
01100000
10000000
00100000
00010000
10000000
01000000
00100000
00010000
10000000
01000000
00010000
10000000
00100000
10000000
00010000
01000000
,
00110000
10000000
00010000
10000000
00100000
10000000
00010000
01000000
10000000
00010000
00100000
01000000
10000000
00010000
00100000
01000000
,
10010000
01000000
10000000
00100000
01000000
00010000
10000000
00100000
01000000
10000000
01000000
00100000
00010000
01000000
00100000
10000000
,
01100000
00000000
00000000
00010000
00000000
00000000
00100000
00000000
,
11000000
01000000
01010000
00100000
01100000
01000000
10010000
00010000
,
10100000
00100000
00110000
00010000
10100000
00100000
01100000
10010000
,
00000000
00000000
00110000
00100000
10100000
10000000
01100000
01000000
,
10010000
00010000
01010000
01000000
11000000
10000000
01100000
10010000
,
00000000
00000000
01010000
00100000
00110000
00010000
10010000
10000000
,
01100000
01000000
11000000
00100000
10100000
10000000
10010000
01100000
,
00000000
11000000
01100000
01100000
00110000
00110000
10010000
01100000
,
00000000
11000000
01100000
00110000
01100000
00110000
01100000
11000000
,
00000000
00000000
10100000
00100000
01100000
01000000
10010000
10000000
,
01010000
01000000
11000000
00100000
01010000
01000000
01100000
10010000
,
00000000
00000000
11000000
01000000
01010000
00010000
01100000
00100000
,
10010000
10000000
10100000
00100000
00110000
00010000
01100000
10010000
,
00000000
00000000
10100000
01000000
11000000
00100000
10010000
10000000
,
01100000
01000000
00110000
00010000
01010000
01000000
10010000
01100000
,
00000000
00110000
01100000
01100000
11000000
11000000
10010000
01100000
,
00000000
00110000
01100000
11000000
01100000
11000000
00110000
20020000
,
00000000
00000000
00000000
00000000
,
31130000
00000000
00000000
00000000
,
10010000
00000000
00000000
00000000
,
01000000
00000000
01000000
00000000
01000000
00000000
01000000
00000000
01000000
00100000
01000000
00000000
01000000
00000000
01000000
00000000
,
00100000
00000000
00100000
00000000
00100000
00000000
00100000
00000000
00100000
01000000
00100000
00000000
00100000
00000000
00100000
00000000
,
00010000
00000000
00010000
00000000
00010000
00000000
00010000
00000000
00010000
10000000
00010000
00000000
00010000
00000000
00010000
00000000
,
10000000
00000000
10000000
00000000
10000000
00000000
10000000
00000000
10000000
00010000
10000000
00000000
10000000
00000000
10000000
00000000
,
01000000
00000000
01000000
00000000
01000000
00000000
01000000
00000000
01000000
00100000
01000000
00000000
01000000
00000000
01000000
00000000
,
00100000
00000000
00100000
00000000
00100000
00000000
00100000
00000000
00100000
01000000
00100000
00000000
00100000
00000000
00100000
00000000
,
00010000
00000000
00010000
00000000
00010000
00000000
00010000
00000000
00010000
10000000
00010000
00000000
00010000
00000000
00010000
00000000
,
10000000
00000000
10000000
00000000
10000000
00000000
10000000
00000000
10000000
00010000
10000000
00000000
10000000
00000000
10000000
00000000
,
01100000
00000000
01000000
00000000
01000000
00000000
01100000
00000000
01000000
00100000
01000000
00000000
01100000
00000000
01000000
00000000
,
01100000
00000000
00100000
00000000
00100000
00000000
01100000
00000000
00100000
01000000
00100000
00000000
01100000
00000000
00100000
00000000
,
00110000
00000000
00010000
00000000
00010000
00000000
00110000
00000000
00010000
10000000
00010000
00000000
00110000
00000000
00010000
00000000
,
11000000
00000000
10000000
00000000
10000000
00000000
11000000
00000000
10000000
00010000
10000000
00000000
11000000
00000000
10000000
00000000
,
01100000
00000000
01000000
00000000
01000000
00000000
01100000
00000000
01000000
00100000
01000000
00000000
01100000
00000000
01000000
00000000
,
01100000
00000000
00100000
00000000
00100000
00000000
01100000
00000000
00100000
01000000
00100000
00000000
01100000
00000000
00100000
00000000
,
00110000
00000000
00010000
00000000
00010000
00000000
00110000
00000000
00010000
10000000
00010000
00000000
00110000
00000000
00010000
00000000
,
11000000
00000000
10000000
00000000
10000000
00000000
11000000
00000000
10000000
00010000
10000000
00000000
11000000
00000000
10000000
00000000
,
11000000
00000000
00000000
01000000
00000000
00000000
00000000
00000000
00000000
00100000
00000000
00000000
00000000
00010000
00000000
00000000
00000000
00100000
00000000
00000000
00000000
01000000
00000000
00000000
,
00000000
00000000
00000000
00000000
00000000
10000000
00000000
00000000
01000000
00000000
00000000
00000000
00000000
00000000
00000000
00010000
00000000
00000000
10000000
00000000
01000000
00000000
00100000
00000000
,
00010000
00100000
00000000
00000000
01000000
00000000
00100000
00000000
00000000
00010000
00000000
01000000
,
00000000
00000000
00100000
00000000
00000000
00000000
00010000
00000000
00000000
00000000
00100000
00000000
00000000
00000000
01000000
00000000
00000000
00000000
10000000
00000000
00000000
01000000
00000000
00000000
,
00100000
00000000
00000000
00000000
00000000
00000000
00010000
00000000
00000000
00000000
00000000
00000000
00000000
00000000
00000000
00000000
00000000
00000000
00000000
00000000
01000000
00000000
00000000
00000000
00000000
00000000
00000000
00000000
00000000
00000000
00000000
00000000
00000000
00000000
00000000
00000000
00100000
00000000
00000000
00100000
00000000
00000000
00100000
00000000
00000000
00100000
00000000
00000000
,
10000000
00000000
00000000
00000000
10000000
00000000
00000000
00000000
00010000
00000000
00000000
00000000
10000000
00000000
00000000
00000000
00100000
00000000
00000000
00100000
00000000
00000000
00100000
00000000
00000000
00100000
00000000
00000000
01000000
00000000
00000000
00000000
01000000
00000000
00000000
00000000
00010000
00000000
00000000
00000000
01000000
00000000
00000000
00000000
00010000
00000000
00000000
00010000
,
00000000
00000000
00000000
00000000
00000000
00000000
00000000
00000000
00010000
00000000
00000000
00000000
00000000
00000000
00000000
00000000
00000000
00000000
00000000
00000000
00010000
00000000
00000000
00000000
00000000
00000000
00000000
00000000
00000000
00000000
00000000
00000000
00100000
00000000
00000000
00000000
00000000
00000000
00000000
00000000
00000000
00000000
00000000
00000000
00000000
00000000
00000000
00000000
01000000
00000000
00000000
00000000
00000000
00000000
00000000
00000000
00000000
00000000
00000000
00000000
00000000
00000000
00000000
00000000
01000000
00000000
00000000
00000000
00000000
00000000
00000000
00000000
00000000
00000000
00000000
00000000
00000000
00000000
00000000
00000000
00100000
00000000
00000000
00000000
00000000
00000000
00000000
00000000
00000000
00000000
00000000
00000000
00000000
00000000
00000000
00000000
00010000
00000000
00000000
00000000
00000000
00000000
00000000
00000000
00000000
00000000
00000000
00000000
00010000
00000000
00000000
00000000
00000000
00000000
00000000
00000000
00000000
00000000
00000000
00000000
00010000
00000000
00000000
00000000
00000000
00000000
00000000
00000000
00000000
00000000
00000000
00000000
00010000
00000000
00000000
00000000
00000000
00000000
01000000
00000000
00000000
00000000
00000000
00000000
10000000
00000000
00000000
00000000
00000000
00000000
00000000
00000000
00000000
00000000
00000000
00000000
00000000
00000000
00000000
00000000
00100000
00000000
00000000
00000000
00000000
00000000
00000000
00000000
00000000
00000000
00000000
00000000
00000000
00000000
00000000
00000000
00100000
00000000
00000000
00000000
00000000
00000000
00000000
00000000
01000000
00000000
00000000
00000000
00000000
00000000
00000000
00000000
,
10000000
00000000
00000000
00100000
00000000
00000000
00010000
00000000
00000000
00000000
00000000
00000000
10000000
00000000
00000000
00000000
01000000
00000000
00000000
00000000
00100000
00000000
00000000
00000000
,
00010000
00000000
00000000
00000000
00000000
00000000
00100000
00000000
00000000
00000000
00000000
00000000
01000000
00000000
00000000
00000000
00000000
00000000
00100000
00000000
00000000
00000000
00000000
00000000
00000000
00000000
00000000
00000000
00000000
00000000
00000000
00000000
00010000
00000000
00000000
00000000
00000000
00000000
00000000
00000000
00100000
00000000
00000000
01000000
00000000
00000000
10000000
00000000
,
00000000
01000000
00000000
00000000
00010000
00000000
00000000
00000000
00000000
00000000
00000000
00000000
00000000
00000000
00000000
00000000
00000000
00000000
00000000
00000000
00000000
10000000
00000000
00000000
01000000
00000000
00000000
10000000
00000000
00000000
00100000
00000000
00000000
01000000
00000000
00000000
00100000
00000000
00000000
01000000
00000000
00000000
00010000
00000000
00000000
00100000
00000000
00000000
,
00010000
00000000
00000000
00000000
00000000
00000000
00000000
00000000
00010000
00000000
00000000
00000000
00000000
00000000
00000000
00000000
10000000
00000000
00100000
00000000
01000000
00000000
00010000
00000000
00000000
00000000
00000000
00000000
00000000
00000000
10000000
00000000
00000000
01000000
00000000
00000000
01000000
00000000
00000000
01000000
00000000
00000000
00000000
00010000
00000000
00000000
00000000
00100000
,
00000000
00000000
00000000
01000000
00000000
00000000
00000000
10000000
00000000
00000000
00000000
01000000
00000000
00000000
00100000
00000000
00000000
00010000
00000000
00000000
00100000
00000000
00000000
10000000
00000000
00000000
00000000
00000000
00000000
00000000
00000000
00000000
00000000
00000000
00000000
00000000
10000000
00000000
00000000
00000000
00000000
00000000
00000000
00000000
00000000
10000000
00000000
00000000
,
01000000
00000000
00000000
00100000
00000000
00000000
00010000
00000000
00000000
00100000
00000000
00000000
10000000
00000000
00000000
00000000
01000000
00000000
00000000
00000000
00000000
00000000
01000000
00000000
00000000
00000000
00000000
00010000
00000000
00000000
00000000
00000000
00000000
10000000
00000000
00000000
01000000
00000000
00000000
00100000
00000000
00000000
00010000
00000000
00000000
00100000
00000000
00000000
,
00000000
00000000
00000000
00000000
00000000
00000000
10000000
00000000
00000000
01000000
00000000
00000000
00100000
00000000
00000000
00000000
10000000
00000000
00000000
00000000
01000000
00000000
00000000
00000000
00010000
00000000
00000000
00100000
00000000
00000000
01000000
00000000
00000000
00000000
10000000
00000000
00000000
00000000
01000000
00000000
00000000
00000000
10000000
00000000
00000000
00010000
00000000
00000000
,
00100000
00000000
00000000
00000000
00000000
00000000
00000000
00000000
10000000
00000000
00000000
00000000
00000000
00000000
00000000
00000000
01000000
00000000
00000000
00000000
00000000
00000000
00000000
00000000
00100000
00000000
00000000
00000000
00000000
00000000
00000000
00000000
00010000
00000000
00000000
00000000
00000000
00000000
00000000
00000000
00100000
00000000
00000000
00000000
00000000
00000000
00000000
00000000
10000000
00000000
00000000
00000000
00000000
00000000
01000000
00000000
00000000
00000000
00000000
00000000
00100000
00000000
00000000
00000000
00000000
00000000
00010000
00000000
00000000
00000000
00000000
00000000
10000000
00000000
00000000
00000000
00000000
00000000
01000000
00000000
00000000
00000000
00000000
00000000
00100000
00000000
00000000
00000000
00000000
00000000
00010000
00000000
00000000
00000000
00000000
00000000
10000000
00000000
00000000
00000000
00000000
00000000
01000000
00000000
00000000
00000000
00000000
00000000
00100000
00000000
00000000
00000000
00000000
00000000
00010000
00000000
00000000
00000000
00000000
00000000
10000000
00000000
00000000
00000000
00000000
00000000
01000000
00000000
00000000
00000000
00000000
00000000
00100000
00000000
00000000
00000000
00000000
00000000
00010000
00000000
00000000
00000000
00000000
00000000
10000000
00000000
00000000
00000000
00000000
00000000
01000000
00000000
00000000
00000000
00000000
00000000
00100000
00000000
00000000
00000000
00000000
00000000
00010000
00000000
00000000
00000000
00000000
00000000
10000000
00000000
00000000
00000000
00000000
00000000
01000000
00000000
00000000
00000000
00000000
00000000
00100000
00000000
00000000
00000000
00000000
00000000
00010000
00000000
00000000
00000000
00000000
00000000
,
10000000
01000000
00100000
00010000
10000000
01000000
00100000
00010000
10000000
01000000
00100000
00010000
00100000
01000000
00100000
01000000
00010000
00100000
01000000
10000000
00010000
00100000
01000000
10000000
00010000
00100000
01000000
10000000
00010000
00100000
01000000
10000000
,
00010000
00100000
01000000
10000000
00010000
00100000
01000000
10000000
00010000
00100000
01000000
10000000
00010000
00100000
01000000
10000000
01000000
00100000
01000000
00100000
01000000
00100000
10000000
00010000
01000000
00100000
10000000
00010000
01000000
00100000
10000000
00010000
,
01000000
00100000
10000000
00010000
01000000
00100000
10000000
00010000
01000000
00100000
10000000
00010000
01000000
00100000
10000000
00010000
01000000
00100000
10000000
00010000
10000000
00010000
10000000
00010000
01000000
10000000
00100000
00010000
01000000
10000000
00100000
00010000
,
01000000
10000000
00100000
00010000
01000000
10000000
00100000
00010000
01000000
10000000
00100000
00010000
01000000
10000000
00100000
00010000
01000000
10000000
00100000
00010000
01000000
10000000
00100000
00010000
00000000
00000000
00000000
00000000
10000000
00000000
00000000
00000000
,
00000000
00000000
00000000
10000000
01000000
00100000
00010000
00100000
01000000
00100000
00010000
01000000
10000000
01000000
00010000
00100000
10000000
00100000
01000000
00010000
01000000
00100000
10000000
01000000
,
00100000
00010000
00100000
01000000
00010000
00100000
01000000
10000000
01000000
00100000
10000000
01000000
00100000
00010000
00100000
02000000
00000000
00000000
00000000
00000000
00000000
00000000
00000000
00000000
,
03000000
00000000
00000000
00000000
00000000
00000000
10000000
00100000
10000000
00100000
10000000
00100000
10000000
00100000
10000000
00100000
10000000
00100000
10000000
00000000
01000000
00010000
01000000
00010000
,
01000000
00010000
01000000
00010000
01000000
00010000
01000000
00010000
01000000
00000000
00100000
01000000
00100000
01000000
00100000
01000000
00100000
01000000
00100000
01000000
00100000
01000000
00100000
00000000
,
10000000
00010000
10000000
00010000
10000000
00010000
10000000
00010000
10000000
00010000
10000000
00010000
10000000
00000000
00000000
10000000
00100000
01000000
00010000
00100000
10000000
01000000
10000000
01000000
,
00100000
00010000
01000000
00100000
10000000
00010000
01000000
00100000
01000000
10000000
00010000
00100000
01000000
00100000
10000000
00010000
01000000
00100000
01000000
10000000
00100000
01000000
00010000
00100000
,
01000000
10000000
00100000
01000000
00010000
01000000
00200000
00000000
00000000
00000000
00000000
00000000
00000000
00000000
00000000
00000000
00000000
00000000
00300000
00000000
00000000
10000000
01000000
00100000
,
01000000
00010000
00100000
01000000
00100000
10000000
01000000
00100000
01000000
00010000
00100000
10000000
00100000
01000000
00010000
01000000
00100000
10000000
01000000
00100000
00010000
01000000
00100000
00010000
,
00100000
01000000
10000000
00100000
01000000
10000000
01000000
00100000
01000000
00010000
00100000
01000000
10000000
01000000
00100000
10000000
00010000
01000000
00100000
01000000
10000000
00100000
01000000
00010000
,
00100000
01000000
10000000
00100000
01000000
00100000
10010000
00000000
00000000
00000000
00000000
00000000
00000000
00000000
00000000
00000000
00000000
00000000
01100000
00000000
00000000
00000000
00000000
00000000
,
00000000
10100000
00000000
01010000
,
00000000
20020000
00000000
00000000
,
00000000
00000000
00000000
00000000
00000000
00000000
00000000
30030000
10000000
00100000
01000000
00000000
00100000
10000000
00010000
00000000
00100000
00010000
01000000
00000000
10000000
00100000
01000000
00000000
00100000
10000000
00010000
00000000
00100000
00010000
01000000
00000000
,
10000000
00100000
01000000
00000000
00100000
10000000
00010000
00000000
00100000
00010000
01000000
00000000
10000000
00010000
01000000
00000000
00100000
10000000
00010000
00000000
00100000
00010000
01000000
00000000
10000000
00100000
01000000
00000000
00100000
00000000
10010000
00000000
,
00100000
00010000
01000000
00000000
10000000
00100000
01000000
00000000
00100000
01000000
00010000
00000000
00100000
00010000
01000000
00000000
10000000
00100000
01000000
00000000
00100000
10000000
00010000
00000000
00100000
00010000
01000000
00000000
10000000
00100000
01000000
00000000
,
00100000
10000000
00010000
00000000
00100000
00010000
01000000
00000000
10000000
00100000
01000000
00000000
00100000
00000000
01000000
00000000
10000000
00000000
01000000
00000000
00010000
00000000
00000000
00000000
00100000
00000000
00010000
00000000
00100000
00000000
01000000
00000000
,
10000000
00000000
00000000
00000000
01000000
00100000
00100000
00100000
00100000
00100000
00100000
00100000
10000000
10000000
00010000
00010000
,
01000000
01000000
00100000
00100000
10000000
00010000
00010000
00010000
01000000
00010000
00010000
00010000
00100000
00100000
01000000
01000000
,
00100000
00100000
10000000
10000000
01000000
00100000
01000000
00100000
10000000
00010000
10000000
00010000
01000000
00100000
01000000
00100000
,
10000000
00010000
10000000
00010000
01000000
00100000
01000000
00100000
10000000
01000000
01000000
01000000
00100000
00010000
00010000
00010000
,
00100000
01000000
01000000
01000000
10010000
00000000
00000000
00000000
10010000
00000000
00000000
00000000
10010000
00000000
00000000
00000000
,
01000000
01000000
00100000
00100000
01000000
01000000
00010000
00010000
01000000
01000000
10000000
00000000
00100000
00000000
10010000
00000000
,
00000000
00000000
00000000
00000000
00100000
01000000
00100000
00010000
10000000
01000000
10000000
00100000
00010000
00100000
00010000
01000000
,
10000000
00000000
01000000
00000000
10000000
00000000
00010000
00000000
00100000
00000000
00100000
00000000
00100000
00000000
00100000
00000000
10000000
00100000
10000000
00000000
00010000
00000000
00010000
00000000
01000000
00000000
01000000
00000000
01000000
00000000
01000000
00000000
,
10000000
00000000
00000000
00000000
00000000
00000000
00100000
00000000
00000000
00000000
00000000
00000000
10000000
00000000
00000000
00000000
00000000
00000000
00000000
00000000
00000000
00000000
00000000
00000000
00010000
00000000
00000000
00000000
00000000
00000000
00000000
00000000
00000000
00000000
00000000
00000000
00010000
00000000
00000000
00000000
00000000
00000000
00000000
00000000
00000000
00000000
00000000
00000000
10000000
00000000
00000000
00000000
00000000
00000000
00000000
00000000
00000000
00000000
00000000
00000000
01000000
00000000
00000000
00000000
00000000
00000000
00000000
00000000
00000000
00000000
00000000
00000000
00100000
00000000
00000000
00000000
00010000
00000000
00000000
00000000
00100000
00000000
00000000
00000000
01000000
00000000
00000000
00000000
00000000
00000000
00000000
00000000
00000000
00000000
00000000
00000000
00100000
00000000
00000000
00000000
00000000
00000000
00000000
00000000
00000000
00000000
00000000
00000000
10000000
00000000
00000000
00000000
00000000
00000000
00000000
00000000
00000000
00000000
00000000
00000000
01000000
00000000
00000000
00000000
00100000
00000000
00000000
00000000
01000000
00000000
00000000
00000000
00010000
00000000
00000000
00000000
00000000
00000000
00000000
00000000
00000000
00000000
00000000
00000000
00100000
00000000
00000000
00000000
00000000
00000000
00000000
00000000
01000000
00000000
00000000
00000000
00000000
00000000
00000000
00000000
10000000
00000000
00000000
00000000
00000000
00000000
00000000
00000000
00010000
00000000
00000000
00000000
00000000
00000000
00000000
00000000
00100000
00000000
00000000
00000000
00000000
00000000
00000000
00000000
01000000
00000000
00000000
00000000
00000000
00000000
00000000
00000000
,
00100000
00010000
10000000
01000000
00100000
00010000
01000000
00100000
00010000
00100000
01000000
10000000
00100000
01000000
00010000
10000000
00100000
01000000
00010000
00100000
10000000
01000000
10000000
00100000
,
01000000
00000000
00010000
00000000
00100000
00000000
01000000
00000000
00010000
00000000
10000000
00000000
01000000
00000000
00000000
00000000
00000000
00000000
00100000
00000000
00000000
00000000
00000000
00000000
00100000
00000000
00000000
00000000
00000000
00000000
00100000
00000000
00000000
01000000
00000000
00000000
10000000
00000000
00000000
00010000
00000000
00000000
00100000
00000000
00000000
00010000
00000000
00000000
,
10000000
00000000
10000000
01000000
00100000
00000000
00010000
00000000
00100000
00000000
01000000
00000000
00200000
00000000
00000000
00000000
,
00000000
00000000
00000000
00000000
10300000
01000000
00100000
01000000
00010000
10000000
00100000
01000000
10000000
01000000
00100000
00010000
,
00100000
01000000
10000000
01000000
00100000
01000000
00010000
00100000
10000000
00100000
01000000
00010000
00100000
10000000
01000000
00100000
,
00010000
01000000
00100000
10000000
01000000
00100000
01000000
00010000
10000000
00100000
10000000
01000000
00010000
10000000
00100000
01000000
,
00010000
10000000
01000000
00010000
00100000
01000000
10000000
00100000
01000000
10000000
01000000
00010000
00100000
01000000
00100000
10000000
,
00010000
00100000
01000000
10000000
00100000
01000000
00100000
00010000
10000000
00100000
01000000
00010000
00100000
01000000
10000000
00100000
,
01000000
00100000
10000000
00010000
01000000
00100000
10000000
01000000
00100000
00010000
01000000
00100000
10000000
00010000
01000000
00100000
,
10000000
01000000
00010000
00100000
01000000
10000000
00100000
01000000
00010000
10000000
00100000
01000000
00100000
10000000
00010000
01000000
,
00100000
01000000
00100000
10000000
00010000
01000000
00100000
01000000
10000000
00010000
01000000
00100000
10000000
00000000
00000000
00000000
,
00000000
00000000
00000000
00000000
10100000
01000000
10100000
00010000
10100000
01000000
10010000
01000000
10100000
01000000
10100000
00010000
,
10100000
01000000
10010000
01000000
10100000
01000000
10100000
00010000
10100000
01000000
10010000
01000000
10010000
01000000
10100000
01000000
,
10010000
00000000
00000000
00000000
01010000
10000000
00110000
10000000
00110000
01000000
10010000
01000000
00110000
10000000
00110000
01000000
,
10010000
01000000
00110000
10000000
00110000
01000000
00110000
10000000
01010000
10000000
00110000
10000000
01010000
10000000
00110000
01000000
,
10010000
00000000
00000000
00000000
10010000
00100000
01010000
00100000
01010000
10000000
01100000
10000000
00110000
10000000
01010000
10000000
,
01010000
00100000
01010000
10000000
01010000
00100000
10010000
00100000
01010000
10000000
01010000
00100000
10010000
00100000
01010000
10000000
,
00110000
00000000
00000000
00000000
10100000
01000000
10010000
00100000
10010000
01000000
10010000
00100000
10010000
01000000
10010000
00100000
,
01010000
00100000
10010000
01000000
10010000
00100000
10010000
01000000
10100000
01000000
10010000
00100000
01010000
00100000
10010000
01000000
,
10010000
00000000
11000000
10100000
00000000
10010000
00000000
00000000
,
10010000
00000000
00000000
00000000
10100000
00000000
00000000
00000000
10100000
00000000
00000000
00000000
00000000
00000000
00000000
00000000
10100000
00000000
00000000
00000000
01000000
00100000
00000000
00000000
00000000
00000000
00000000
00000000
00000000
00000000
00000000
00000000
,
11000000
01100000
00110000
00000000
00110000
01100000
00000000
10010000
,
01100000
10010000
01100000
10010000
00000000
11000000
01100000
11000000
,
01010000
00000000
00100000
00000000
10000000
01000000
00100000
10000000
00010000
01000000
00100000
10000000
01000000
00100000
00010000
01000000
,
00100000
10000000
01000000
00100000
00010000
01000000
00100000
10000000
00010000
01000000
00100000
01000000
00010000
01000000
00100000
10000000
,
01000000
00100000
10000000
01000000
00100000
01000000
00010000
00100000
01000000
10000000
00010000
01000000
10000000
00100000
01000000
10000000
,
01000000
00100000
00010000
01000000
00100000
10000000
00010000
01000000
00100000
10000000
01000000
00010000
00100000
01000000
00010000
01000000
,
10000000
01000000
00100000
01000000
10010000
00100000
01010000
00100000
10100000
01000000
00110000
10000000
00110000
01000000
10100000
00010000
,
11000000
00100000
10010000
00100000
11000000
00010000
01100000
00010000
10100000
01000000
01010000
00100000
10010000
01000000
10100000
00010000
,
01100000
00000000
00000000
00000000
10010000
00100000
01010000
00100000
10100000
01000000
10100000
00010000
00110000
01000000
10010000
00100000
,
11000000
00010000
11000000
00100000
01010000
10000000
00110000
01000000
00110000
10000000
01100000
00100000
10010000
01000000
00110000
01000000
,
11000000
00000000
00000000
00000000
10010000
10000000
11000000
00010000
01100000
00010000
11000000
00010000
01010000
00100000
11000000
00100000
,
11000000
00010000
10100000
01000000
00110000
00100000
01010000
10000000
10100000
00010000
01100000
00100000
01010000
10000000
10100000
00010000
,
10100000
00000000
00000000
00000000
11000000
00100000
01010000
10000000
01100000
10000000
00110000
01000000
10010000
01000000
11000000
00010000
,
01010000
00100000
00110000
10000000
01010000
10000000
00110000
00010000
01100000
10000000
00110000
01000000
11000000
00010000
01100000
00100000
,
10010000
00000000
00000000
00000000
10000000
00100000
01000000
00010000
10000000
00100000
01000000
00010000
00100000
01000000
10000000
00010000
,
00100000
10000000
00100000
01000000
00010000
01000000
00010000
00100000
01000000
10000000
00010000
01000000
00100000
10000000
01000000
00100000
,
00010000
00100000
01000000
10000000
00100000
01000000
10000000
00100000
01000000
00010000
00100000
01000000
10000000
00100000
01000000
00010000
,
10000000
01000000
00100000
00010000
01000000
10000000
00100000
10000000
01000000
00100000
00010000
01000000
00100000
10000000
00100000
01000000
,
00010000
01000000
10000000
00100000
01000000
00010000
10000000
00100000
01000000
10000000
00100000
01000000
00010000
10000000
01000000
00100000
,
00010000
01000000
00010000
00100000
10000000
01000000
00100000
10000000
00100000
01000000
00010000
00100000
10000000
01000000
00100000
00010000
,
01000000
00100000
10000000
00010000
01000000
00100000
10000000
01000000
00100000
00010000
00100000
01000000
10000000
00100000
01000000
00010000
,
00100000
01000000
10000000
00100000
01000000
00010000
00100000
01000000
10000000
00100000
01000000
00010000
00100000
01000000
10000000
00100000
,
01000000
00010000
00100000
10000000
00100000
01000000
00010000
01000000
00100000
10000000
01000000
00100000
00010000
00100000
01000000
10000000
,
00100000
01000000
00010000
01000000
10000000
00100000
01000000
00010000
01000000
00100000
10000000
00100000
01000000
00010000
01000000
00100000
,
01000000
00100000
10000000
01000000
00010000
00100000
01000000
10000000
00010000
01000000
00100000
10000000
00100000
00010000
01000000
00100000
,
00010000
10000000
00100000
01000000
10000000
00100000
00010000
01000000
10000000
00100000
01000000
10000000
01000000
00100000
00010000
01000000
,
10000000
00100000
10000000
01000000
10000000
00010000
00100000
00010000
10000000
01000000
00010000
10000000
00100000
10000000
00010000
01000000
,
10000000
01000000
00010000
01000000
10000000
00100000
01000000
00010000
01000000
00100000
10000000
00100000
01000000
00010000
01000000
00100000
,
01000000
10000000
01000000
00010000
01000000
00100000
10000000
00100000
01000000
00010000
00100000
01000000
10000000
01000000
00100000
00010000
,
10000000
01000000
00010000
01000000
10000000
00100000
01000000
00010000
01000000
00100000
10000000
00100000
01000000
00010000
01000000
00100000
,
10000000
00100000
10000000
01000000
10100000
00010000
00100000
00010000
10000000
01000000
00110000
01000000
10000000
01000000
00100000
00010000
,
10100000
01000000
00010000
01000000
10010000
00100000
01000000
00010000
01000000
00100000
10010000
00100000
01000000
00010000
01000000
00100000
,
01010000
10000000
01000000
00010000
11000000
00100000
10000000
00100000
01000000
00010000
10100000
01000000
10000000
01000000
00100000
00010000
,
10100000
01000000
00010000
01000000
10010000
00100000
01000000
00010000
01000000
00100000
10010000
00100000
01000000
00010000
01000000
00100000
,
10010000
00100000
10000000
01000000
10100000
00010000
00100000
00010000
10000000
01000000
00110000
01000000
10000000
01000000
00100000
00010000
,
10100000
01000000
00010000
01000000
10010000
00100000
01000000
00010000
01000000
00100000
10010000
00100000
01000000
00010000
01000000
00100000
,
01010000
10000000
01000000
00010000
11000000
00100000
01000000
00100000
01000000
00010000
10100000
01000000
00010000
01000000
00100000
00010000
,
10000000
01000000
00010000
01000000
10000000
00100000
01000000
00010000
01000000
00100000
10000000
00100000
01000000
00010000
01000000
00100000
,
10000000
00100000
10000000
01000000
10100000
00010000
00100000
00010000
10000000
01000000
00110000
01000000
10000000
01000000
00100000
00010000
,
10100000
01000000
00010000
01000000
10010000
00100000
01000000
00010000
01000000
00100000
10010000
00100000
01000000
00010000
01000000
00100000
,
01010000
10000000
01000000
00010000
11000000
00100000
10000000
00100000
01000000
00010000
10100000
01000000
10000000
01000000
00100000
00010000
,
10100000
01000000
00010000
01000000
10010000
00100000
01000000
00010000
01000000
00100000
10010000
00100000
01000000
00010000
01000000
00100000
,
11000000
00100000
10000000
01000000
10100000
00010000
00100000
00010000
10000000
01000000
00110000
01000000
10000000
01000000
00100000
00010000
,
10100000
01000000
00010000
01000000
10010000
00100000
01000000
00010000
01000000
00100000
10010000
00100000
01000000
00010000
01000000
00100000
,
10010000
00100000
10000000
01000000
10100000
00010000
00100000
00010000
10000000
01000000
00110000
01000000
10000000
01000000
00100000
00010000
,
01000000
00100000
10000000
00010000
01000000
10000000
00100000
01000000
00010000
00100000
10000000
00100000
01000000
00010000
00100000
01000000
,
10000000
00100000
10000000
01000000
10000000
00010000
00100000
00010000
10100000
01000000
00010000
01000000
10100000
01000000
00100000
00010000
,
10100000
01000000
00010000
01000000
10010000
00100000
01000000
00010000
11000000
00100000
10010000
00100000
01000000
00010000
01000000
00100000
,
01010000
10000000
01000000
00010000
11000000
00100000
10000000
00100000
11000000
00010000
10100000
01000000
10000000
01000000
10100000
00010000
,
00100000
01000000
00010000
01000000
10010000
00100000
01000000
00010000
01000000
00100000
10000000
00100000
01000000
00010000
01000000
00100000
,
10000000
00100000
10000000
01000000
10000000
00010000
00100000
00010000
10100000
01000000
00010000
01000000
10100000
01000000
00100000
00010000
,
10100000
01000000
00010000
01000000
10010000
00100000
01000000
00010000
11000000
00100000
10010000
00100000
01000000
00010000
01000000
00100000
,
10010000
00100000
10000000
01000000
10100000
00010000
00100000
00010000
10100000
01000000
00110000
01000000
10000000
01000000
10100000
00010000
,
01000000
00100000
10000000
00010000
01100000
10000000
00100000
01000000
00010000
00100000
10000000
00100000
10000000
00010000
00100000
01000000
,
10010000
00100000
10000000
01000000
10000000
00010000
00100000
00010000
10100000
01000000
00010000
01000000
10100000
01000000
00100000
00010000
,
10100000
01000000
00010000
01000000
10010000
00100000
01000000
00010000
11000000
00100000
10010000
00100000
01000000
00010000
11000000
00100000
,
01000000
10000000
01000000
00010000
11000000
00100000
10000000
00100000
11000000
00010000
10100000
01000000
10000000
01000000
10100000
00010000
,
00100000
01000000
00010000
01000000
10010000
00100000
01000000
00010000
11000000
00100000
10010000
00100000
01000000
00010000
01000000
00100000
,
10010000
00100000
10000000
01000000
10100000
00010000
00100000
00010000
10000000
01000000
00110000
01000000
10000000
01000000
00100000
00010000
,
10100000
01000000
00010000
01000000
10010000
00100000
01000000
00010000
01000000
00100000
11000000
00100000
01000000
00010000
01000000
00100000
,
10010000
01000000
00100000
00010000
10100000
00000000
00000000
00000000
00000000
00000000
01010000
00000000
00000000
00000000
00000000
00000000
,
01100000
00000000
00000000
00000000
10100000
01000000
10000000
01000000
00100000
10000000
01010000
00100000
01000000
00010000
00100000
01000000
,
10010000
00000000
00000000
00000000
00110000
01000000
10000000
00100000
00010000
01000000
00100000
10000000
01000000
00010000
01000000
00100000
,
10000000
01000000
10000000
00010000
01100000
10000000
00010000
01000000
00010000
10000000
00100000
10000000
00100000
01000000
00100000
10000000
,
00100000
01000000
10000000
00100000
01010000
00100000
00010000
01000000
10000000
00100000
01000000
00010000
00100000
01000000
10000000
00010000
,
00100000
10000000
00100000
01000000
10010000
00100000
01000000
10000000
01000000
00100000
00010000
00100000
00010000
10000000
01000000
00100000
,
00010000
01000000
10000000
00100000
10010000
01000000
00100000
10000000
00010000
01000000
00100000
10000000
01000000
00100000
00010000
00100000
,
01000000
10000000
01000000
00100000
11000000
00100000
00010000
00100000
01000000
10000000
00100000
01000000
00010000
10000000
00100000
01000000
,
00010000
10000000
01000000
00010000
01100000
10000000
00010000
00100000
01000000
10000000
00010000
01000000
00010000
10000000
00100000
00010000
,
10000000
01000000
00010000
10000000
01100000
00010000
10000000
01000000
10000000
00010000
10000000
00100000
00010000
01000000
00010000
10000000
,
01000000
00100000
01000000
00010000
11000000
00010000
01000000
10000000
00100000
00010000
10000000
01000000
00010000
00100000
00010000
10000000
,
01000000
00010000
01000000
00100000
10010000
01000000
00100000
00010000
00100000
01000000
10000000
01000000
10000000
00010000
10000000
01000000
,
10000000
00010000
01000000
10000000
00110000
10000000
00100000
00010000
01000000
10000000
00010000
00100000
10000000
00010000
01000000
00100000
,
10000000
01000000
10000000
00010000
01100000
10000000
00010000
01000000
00010000
10000000
00100000
10000000
00100000
01000000
00010000
10000000
,
00100000
00010000
01000000
10000000
01100000
00010000
10000000
01000000
00100000
00010000
10000000
01000000
00010000
10000000
00100000
10000000
,
00010000
01000000
00010000
10000000
00110000
10000000
00100000
10000000
00010000
01000000
10000000
00010000
00100000
01000000
10000000
00010000
,
00100000
01000000
10000000
01000000
10010000
00100000
01000000
00010000
10000000
00100000
01000000
10000000
01000000
00100000
00010000
01000000
,
00100000
10000000
00100000
10000000
01100000
10000000
01000000
00010000
01000000
10000000
00100000
01000000
00010000
01000000
00100000
10000000
,
00100000
01000000
00100000
10000000
00110000
10000000
00100000
01000000
00100000
10000000
00100000
10000000
00100000
01000000
00010000
01000000
,
00010000
10000000
00010000
01000000
00110000
01000000
00100000
10000000
00010000
01000000
00100000
10000000
00010000
01000000
00100000
10000000
,
00100000
01000000
00100000
10000000
00110000
01000000
00100000
10000000
00100000
01000000
00100000
10000000
00010000
01000000
00100000
10000000
,
00010000
01000000
00100000
10000000
01100000
00000000
00000000
00000000
00000000
00000000
00010000
00000000
00000000
00000000
00000000
00000000
,
00100000
00000000
00000000
00000000
10010000
01000000
00100000
01000000
00010000
00100000
10010000
01000000
00100000
00010000
01000000
00100000
,
11000000
00010000
01000000
10000000
01010000
00100000
00010000
01000000
00100000
10000000
00110000
01000000
00010000
01000000
00010000
10000000
,
00110000
01000000
00010000
10000000
01100000
00010000
10000000
00010000
00100000
10000000
01100000
00010000
10000000
00100000
00010000
10000000
,
01010000
00100000
00010000
01000000
00110000
10000000
00100000
00010000
10000000
01000000
10000000
00010000
11000000
00100000
01000000
00100000
,
11000000
00100000
01000000
00100000
01010000
10000000
01000000
10000000
01000000
00010000
11000000
00100000
10000000
01000000
00010000
10000000
,
00110000
01000000
00100000
10000000
01100000
00010000
10000000
01000000
10000000
00100000
00010000
10000000
01010000
00100000
01000000
10000000
,
01010000
00100000
00010000
01000000
10010000
00100000
10000000
00100000
01000000
10000000
01010000
00100000
10000000
01000000
00100000
10000000
,
00110000
01000000
00100000
00010000
01100000
10000000
01000000
00100000
10000000
00010000
11000000
00100000
01000000
00100000
01000000
00010000
,
11000000
00100000
01000000
00010000
10100000
01000000
00010000
01000000
10000000
00010000
10100000
01000000
00010000
10000000
01000000
00010000
,
01100000
10000000
01000000
00100000
11000000
00010000
10000000
01000000
00010000
00100000
10010000
01000000
10000000
01000000
10000000
00100000
,
10010000
01000000
10000000
00100000
11000000
00010000
00100000
00010000
10000000
01000000
00110000
10000000
00010000
00100000
01000000
00010000
,
11000000
00100000
10000000
00010000
10100000
01000000
00010000
00100000
00010000
10000000
01000000
00010000
11000000
00100000
10000000
00100000
,
01010000
00100000
10000000
00100000
01010000
00100000
10000000
00100000
01000000
10000000
01010000
00100000
10000000
01000000
00100000
10000000
,
00110000
01000000
00100000
00010000
01100000
10000000
01000000
00100000
10000000
00010000
10000000
00100000
11000000
00100000
01000000
00010000
,
11000000
00100000
01000000
00010000
10100000
01000000
00010000
01000000
10000000
00010000
10100000
01000000
00010000
10000000
01000000
00010000
,
01100000
10000000
01000000
00100000
11000000
00010000
10000000
01000000
00010000
00100000
10010000
01000000
10000000
01000000
10010000
00100000
,
00010000
01000000
10000000
00010000
01100000
10000000
00010000
10000000
00010000
10000000
00010000
10000000
01010000
10000000
00010000
10000000
,
00010000
10000000
00010000
10000000
01010000
10000000
00010000
10000000
00010000
10000000
00010000
10000000
01010000
10000000
00010000
10000000
,
00010000
10000000
00010000
10000000
01100000
00000000
01100000
00000000
01100000
00000000
00000000
00000000
01100000
00000000
01100000
00000000
,
01100000
00000000
00000000
00000000
10000000
01000000
00100000
00010000
10000000
01000000
00100000
00010000
10000000
01000000
00100000
00010000
,
10000000
01000000
00100000
00010000
10000000
01000000
00100000
00010000
10000000
01000000
00100000
00010000
10000000
01000000
00100000
00010000
,
10000000
01000000
00100000
00010000
10000000
20020000
00000000
00000000
00000000
00000000
00000000
00000000
00000000
00000000
00000000
00000000
,
00000000
00000000
00000000
00000000
,
00000000
00000000
00000000
00000000
,
00000000
00000000
00000000
00000000
,
00000000
00000000
00000000
00000000
,
00000000
00000000
00000000
00000000
00000000
00000000
00000000
00000000
00000000
00000000
00000000
00000000
00000000
00000000
00000000
31130000
,
00000000
01100000
00000000
00000000
00000000
00000000
00000000
00000000
00000000
00000000
00000000
00000000
00000000
00000000
00000000
00000000
;

//---------------dance-single - Copied from EZ Versi----------------
#NOTES:
     dance-single:
     Copied from EZ Versi:
     Easy:
     15:
     1.000,1.000,1.000,0.023,1.000,5218.000,887.000,11.000,0.000,3.000:
1000
0100
0001
1000
0100
0001
0010
0100
,
0001
0010
1000
0001
0010
1000
0100
0010
,
0001
1000
0010
0001
1000
0010
0001
1000
,
0001
1000
0010
0001
1000
0010
0001
1000
,
0100
0010
0001
0100
0010
0001
0100
0010
,
0001
0010
0100
0001
0010
0100
0001
0100
,
1000
0010
0100
1000
0010
0100
1000
0001
,
0100
0010
1000
0100
0010
1000
0100
0010
,
0001
0010
0010
0001
0010
0010
0001
0010
,
0100
0010
0010
0100
0010
0010
0100
0010
,
0001
0010
0010
0001
0010
0010
0001
0010
,
0001
0010
0010
0001
0010
0010
0001
0010
,
0010
0100
0100
0010
0100
0100
0010
0100
,
0001
0100
0100
0001
0100
0100
0001
0100
,
0001
0100
0100
0001
0100
0100
0001
0100
,
0010
1000
1000
0010
0001
0001
0010
1000
,
1001
0100
0100
1001
0100
0100
1001
0100
,
1001
0010
0010
0101
0010
0010
0101
0010
,
1001
0100
0100
1001
0100
0100
1001
0100
,
1010
0001
0001
1010
0001
0001
1010
0100
,
0011
1000
1000
0011
1000
1000
0011
0001
,
0110
1000
1000
0110
1000
1000
0101
0010
,
1010
0001
0001
1010
0001
0001
1010
1000
,
0101
0010
0010
0101
0010
0010
1010
0100
,
0101
0010
0010
0101
1000
1000
0110
0010
,
1001
0010
0010
0101
0100
0100
1010
1000
,
0101
0100
0100
1001
0100
0100
0011
0010
,
1001
0100
0100
0011
0100
0100
0101
1000
,
0101
0010
0010
1100
0010
0010
1001
0100
,
0101
1000
1000
0011
1000
1000
0101
0001
,
1001
1000
1000
0101
0100
0100
0011
1000
,
0101
1000
1000
0110
0001
0001
1001
0100
,
1001
0001
1000
0001
1000
0001
1000
0001
1000
0001
1000
0001
1000
0001
1000
0001
,
1100
0011
0110
1010
,
1001
0100
0010
0100
0001
0010
1001
0100
0010
0001
0100
0010
1100
0001
0100
1000
,
0101
0010
0001
0100
0010
1000
0011
0100
0001
0100
0001
1000
0011
0100
0001
1000
,
0110
0001
1000
0001
0010
1000
0110
0001
1000
0010
0001
1000
0101
0010
0001
0100
,
0011
1000
0010
0001
1000
0100
1000
0001
1100
0010
0100
0010
1100
0010
0100
0010
,
0101
1000
0100
1000
0100
0001
1100
0010
1000
0100
0001
1000
0011
0100
0010
1000
,
0110
0001
1000
0100
1000
0010
0001
1000
0101
0010
0100
1000
0101
0010
0001
0100
,
1001
0010
1000
0010
0100
1000
0101
0010
1000
0100
0010
1000
0011
0100
0010
0001
,
0110
1000
0100
0010
1000
0001
1100
0010
0100
0010
0100
0001
1100
0010
0100
0001
,
1010
0100
0001
0100
1000
0001
1010
0100
0001
1000
0100
0001
0110
1000
0100
0010
,
1100
0001
1000
0100
0001
0010
1001
0100
1000
0100
1000
0010
1001
0100
1000
0010
,
1100
0001
0010
0001
1000
0100
0011
1000
0001
0010
0100
0001
1100
0010
1000
0001
,
1010
0100
0001
0010
0001
1000
0100
0001
1100
0010
1000
0010
0101
0010
1000
0010
,
0101
0010
1000
0010
0100
1000
0101
0010
1000
0100
0010
1000
0011
0100
0010
0001
,
0110
1000
0100
0010
1000
0001
1000
0010
1100
0010
0100
0001
1100
0010
0100
0001
,
1010
0100
0001
0100
1000
0001
1010
0100
0001
1000
0100
0001
0110
1000
0100
0010
,
1100
0001
1000
0100
0001
0010
1001
0100
1000
0100
1001
0010
0001
0100
1000
0001
,
0110
0000
0000
0000
,
1001
0010
0100
1000
0001
0100
0011
1000
0100
0001
1000
0100
1010
0001
1000
0010
,
1001
0100
0011
1000
0100
0010
0101
1000
0001
1000
0001
0010
0101
1000
0001
0010
,
1001
0010
0100
1000
0010
0100
0011
1000
0100
0010
1000
0100
1001
0010
1000
0001
,
1010
0100
0010
1000
0110
1000
0101
1000
0100
1000
0001
0100
0010
1000
0001
0010
,
1001
0100
1000
0100
1000
0010
1100
0001
0100
1000
0010
0100
0011
1000
0001
0100
,
1001
0010
0101
1000
0100
0001
1010
0100
0010
0001
1000
0100
1010
0001
0010
1000
,
0110
0001
0100
0001
1000
0100
0010
0001
0110
1000
0011
0100
0010
1000
0101
0010
,
1000
0010
0100
0001
1000
0010
0100
0001
0100
0001
0100
0010
1100
0001
0100
0010
,
1001
0100
0010
0100
1000
0010
1001
0100
0010
1000
0100
0010
0101
1000
0100
0001
,
1100
0010
1001
0100
0010
0001
1010
0100
1000
0100
1000
0001
1010
0100
1000
0001
,
1100
0010
0001
0010
1000
0100
0011
1000
0010
0001
0100
0010
1100
0001
1000
0010
,
0101
0010
0100
1000
0110
0001
1010
0100
0010
1000
0001
1000
0100
1000
0001
1000
,
0110
1000
0001
1000
0010
0001
0110
1000
0001
0010
1000
0001
1100
0010
1000
0100
,
1010
0001
0110
1000
0001
0100
0011
1000
0010
1000
0010
0100
0011
1000
0010
0100
,
1001
0010
0100
0001
1010
0100
1001
0010
1000
0001
0010
0100
1010
0001
0010
1000
,
0011
0100
0001
0010
0100
1000
0100
0010
0001
0010
0001
1000
0100
0010
0001
0100
,
1000
0010
1000
0010
0101
1000
0100
0010
1001
0100
0010
1000
0011
0100
0010
0001
,
0110
1000
0101
0010
1000
0001
1100
0010
0100
0010
0100
0001
1100
0010
0100
0001
,
1010
0100
0001
0100
1010
0001
1000
0100
0011
1000
0110
0001
0100
1000
0100
0010
,
1100
0001
0010
0100
1001
0010
0001
0100
0011
1000
0010
1000
0010
1000
0010
1000
,
0100
0001
0010
0001
1010
0100
0010
1000
0101
0010
0100
0001
1100
0010
1000
0001
,
1100
0001
0110
1000
0010
0100
0001
0010
1001
0100
1000
0010
0001
0100
0011
1000
,
0001
0100
0010
0100
1001
0010
0001
0100
0011
1000
0101
0010
0001
1000
0100
0001
,
1100
0010
1000
0100
1010
0001
1000
0100
1000
0100
1010
0001
1000
0100
1000
0001
,
0100
1000
0001
1000
0110
0001
0100
1000
0101
0010
1000
0001
1100
0010
1000
0100
,
1010
0001
0010
1000
0011
0100
0011
1000
0010
1000
0010
0100
0011
1000
0010
0100
,
1010
0001
0100
0001
0110
1000
0101
0010
0001
0100
1010
0001
1000
0100
0010
0001
,
0110
1000
0001
0100
0001
0010
0100
0001
1000
0100
0010
0100
0001
0100
0010
0100
,
1000
0100
0010
0100
1001
0010
0001
0100
0011
1000
0100
0001
1100
0010
1000
0100
,
1010
0001
0010
1000
0011
0100
0011
1000
0010
1000
0010
0100
0011
1000
0010
0100
,
1001
0010
0100
0010
1001
0100
1001
0010
0100
0001
1010
0100
1000
0001
0010
1000
,
0011
0100
0001
0010
0100
1000
0100
0010
0001
0010
0001
1000
0100
0010
0001
0100
,
1000
0010
0001
0100
0011
1000
0001
0100
0011
1000
0100
0010
1001
0010
0100
1000
,
0101
0010
0100
0010
0101
0010
0101
1000
0001
0100
0001
1000
0011
0100
0001
1000
,
0011
0100
1000
0010
0100
0001
1100
0010
0101
1000
0100
0010
1001
0100
0010
1000
,
0101
0010
0001
0100
0011
1000
0011
0100
0010
0001
0100
1000
0101
0010
1000
0001
,
1010
0100
0010
0100
1000
0010
1001
0100
0001
1000
0100
0001
1100
0010
1000
0100
,
1010
0001
0010
1000
0001
0100
0011
1000
0010
1000
0010
0100
0011
1000
0010
0100
,
1001
0000
0000
0100
0000
0000
0001
0000
,
1000
0000
0000
0010
0000
0000
0001
0000
,
1001
0100
0010
0100
1000
0010
0001
0100
0010
1000
0100
0001
0100
0010
1000
0100
,
1010
0001
0010
1000
0001
0100
0001
1000
0010
1000
0010
0100
0010
1000
0010
0100
,
1001
0010
0100
0010
0001
0100
1000
0010
0100
0001
0010
0100
1000
0001
0010
1000
,
0011
0100
0001
0010
0100
1000
0100
0010
0001
0010
0001
1000
0100
0010
0001
0100
,
1001
0010
0001
0100
0010
1000
0001
0100
0010
1000
0100
0010
0001
0010
0100
1000
,
0101
0010
0100
0010
0001
0010
0100
1000
0010
0100
0001
1000
0010
0100
0001
1000
,
0110
0001
0100
1000
0001
0010
0100
1000
0001
0100
0001
1000
0010
0001
1000
0100
,
0011
1000
0010
0001
1000
0100
1000
0001
1000
0010
0001
0100
0001
1000
0100
0010
,
1100
0001
1000
0001
0100
1000
0010
0001
1000
0100
0001
0010
0001
1000
0100
0001
,
1100
0010
1000
0100
0010
0001
0010
0100
1000
0100
1000
0001
1000
0100
1000
0001
,
0110
1000
0001
1000
0010
0001
0100
1000
0001
0010
1000
0001
0100
0010
1000
0100
,
1010
0001
0010
1000
0001
0100
0001
1000
0010
1000
0010
0100
0001
1000
0010
0001
,
0110
1000
0010
0001
1000
0100
0010
0001
1000
0100
0001
1000
0010
1000
0001
0100
,
0011
1000
0001
1000
0010
1000
0001
0100
1000
0001
0010
0100
1000
0001
0010
0100
,
1001
0100
1000
0010
0100
0001
1000
0010
0100
1000
0100
0010
0001
0100
0010
1000
,
0110
0000
0000
0001
0000
0000
0010
0000
,
1100
0100
0101
0010
0110
0100
1001
0001
,
1010
0010
0011
0001
1010
0010
0110
1001
,
0000
0000
0011
0010
1010
1000
0110
0100
,
1001
0001
0101
0100
1100
1000
0110
1001
,
0000
0000
0101
0010
0011
0001
1001
1000
,
0110
0100
1100
0010
1010
1000
1001
0110
,
0000
1100
0110
0110
0011
0011
1001
0110
,
0000
1100
0110
0011
0110
0011
0110
1100
,
0000
0000
1010
0010
0110
0100
1001
1000
,
0101
0100
1100
0010
0101
0100
0110
1001
,
0000
0000
1100
0100
0101
0001
0110
0010
,
1001
1000
1010
0010
0011
0001
0110
1001
,
0000
0000
1010
0100
1100
0010
1001
1000
,
0110
0100
0011
0001
0101
0100
1001
0110
,
0000
0011
0110
0110
1100
1100
1001
0110
,
0000
0011
0110
1100
0110
1100
0011
2002
,
0000
0000
0000
0000
,
3103
0010
1000
0001
0100
0010
1000
0001
0100
0010
1000
0001
,
0110
1000
0010
0100
0001
1000
0010
0100
0001
1000
0010
0100
,
1001
0010
0100
1000
0001
0100
0011
1000
0100
0001
1000
0100
1010
0001
1000
0010
,
1001
0100
0011
1000
0100
0010
0101
1000
0001
1000
0001
0010
0101
1000
0001
0010
,
1001
0010
0100
1000
0010
0100
0011
1000
0100
0010
1000
0100
1001
0010
1000
0001
,
1010
0100
0010
1000
0110
1000
0101
1000
0100
1000
0001
0100
0010
1000
0001
0010
,
1001
0100
1000
0100
1000
0010
1100
0001
0100
1000
0010
0100
0011
1000
0001
0100
,
1001
0010
0101
1000
0100
0001
1010
0100
0010
0001
1000
0100
1010
0001
0010
1000
,
0110
0001
0100
0001
1000
0100
0010
0001
0110
1000
0011
0100
0010
1000
0101
0010
,
1000
0010
0100
0001
1000
0010
0100
0001
0100
0001
0100
0010
1100
0001
0100
0010
,
1001
0100
0010
0100
1000
0010
1001
0100
0010
1000
0100
0010
0101
1000
0100
0001
,
1100
0010
1001
0100
0010
0001
1010
0100
1000
0100
1000
0001
1010
0100
1000
0001
,
1100
0010
0001
0010
1000
0100
0011
1000
0010
0001
0100
0010
1100
0001
1000
0010
,
0101
0010
0100
1000
0110
0001
1010
0100
0010
1000
0001
1000
0100
1000
0001
1000
,
0110
1000
0001
1000
0010
0001
0110
1000
0001
0010
1000
0001
1100
0010
1000
0100
,
1010
0001
0110
1000
0001
0100
0011
1000
0010
1000
0010
0100
0011
1000
0010
0100
,
1001
0010
0100
0001
1010
0100
1001
0010
1000
0001
0010
0100
1010
0001
0010
1000
,
0011
0100
0001
0010
0100
1000
0100
0010
0001
0010
0001
1000
0100
0010
0001
0100
,
1000
0010
1000
0010
0101
1000
0100
0010
1001
0100
0010
1000
0011
0100
0010
0001
,
0110
1000
0101
0010
1000
0001
1100
0010
0100
0010
0100
0001
1100
0010
0100
0001
,
1010
0100
0001
0100
1010
0001
1000
0100
0011
1000
0110
0001
0100
1000
0100
0010
,
1100
0001
0010
0100
1001
0010
0001
0100
0011
1000
0010
1000
0010
1000
0010
1000
,
0100
0001
0010
0001
1010
0100
0010
1000
0101
0010
0100
0001
1100
0010
1000
0001
,
1100
0001
0110
1000
0010
0100
0001
0010
1001
0100
1000
0010
0001
0100
0011
1000
,
0001
0100
0010
0100
1001
0010
0001
0100
0011
1000
0101
0010
0001
1000
0100
0001
,
1100
0010
1000
0100
1010
0001
1000
0100
1000
0100
1010
0001
1000
0100
1000
0001
,
0100
1000
0001
1000
0110
0001
0100
1000
0101
0010
1000
0001
1100
0010
1000
0100
,
1010
0001
0010
1000
0011
0100
0011
1000
0010
1000
0010
0100
0011
1000
0010
0100
,
1010
0001
0100
0001
0110
1000
0101
0010
0001
0100
1010
0001
1000
0100
0010
0001
,
0110
1000
0001
0100
0001
0010
0100
0001
1000
0100
0010
0100
0001
0100
0010
0100
,
1000
0100
0010
0100
1001
0010
0001
0100
0011
1000
0100
0001
1100
0010
1000
0100
,
1010
0001
0010
1000
0011
0100
0011
1000
0010
1000
0010
0100
0011
1000
0010
0100
,
1001
0010
0100
0010
1001
0100
1001
0010
0100
0001
1010
0100
1000
0001
0010
1000
,
0011
0100
0001
0010
0100
1000
0100
0010
0001
0010
0001
1000
0100
0010
0001
0100
,
1000
0010
0001
0100
0011
1000
0001
0100
0011
1000
0100
0010
1001
0010
0100
1000
,
0101
0010
0100
0010
0101
0010
0101
1000
0001
0100
0001
1000
0011
0100
0001
1000
,
0011
0100
1000
0010
0100
0001
1100
0010
0101
1000
0100
0010
1001
0100
0010
1000
,
0101
0010
0001
0100
0011
1000
0011
0100
0010
0001
0100
1000
0101
0010
1000
0001
,
1010
0100
0010
0100
1000
0010
1001
0100
0001
1000
0100
0001
1100
0010
1000
0100
,
1010
0001
0010
1000
0001
0100
0011
1000
0010
1000
0010
0100
0011
1000
0010
0100
,
1001
0000
0000
0100
0000
0000
0001
0000
,
1000
0000
0000
0000
0000
0000
0010
0000
0010
0100
0010
0100
0011
0100
0010
0100
,
1001
0100
0010
0100
1000
0010
0001
0100
0010
1000
0100
0001
0100
0010
1000
0100
,
1010
0001
0010
1000
0001
0100
0001
1000
0010
1000
0010
0100
0010
1000
0010
0100
,
1001
0010
0100
0010
0001
0100
1000
0010
0100
0001
0010
0100
1000
0001
0010
1000
,
0011
0100
0001
0010
0100
1000
0100
0010
0001
0010
0001
1000
0100
0010
0001
0100
,
1001
0010
0001
0100
0010
1000
0001
0100
0010
1000
0100
0010
0001
0010
0100
1000
,
0101
0010
0100
0010
0001
0010
0100
1000
0010
0100
0001
1000
0010
0100
0001
1000
,
0110
0001
0100
1000
0001
0010
0100
1000
0001
0100
0001
1000
0010
0001
1000
0100
,
0011
1000
0010
0001
1000
0100
1000
0001
1000
0010
0001
0100
0001
1000
0100
0010
,
1100
0001
1000
0001
0100
1000
0010
0001
1000
0100
0001
0010
0001
1000
0100
0001
,
1100
0010
1000
0100
0010
0001
0010
0100
1000
0100
1000
0001
1000
0100
1000
0001
,
0110
1000
0001
1000
0010
0001
0100
1000
0001
0010
1000
0001
0100
0010
1000
0100
,
1010
0001
0010
1000
0001
0100
0001
1000
0010
1000
0010
0100
0001
1000
0010
0001
,
0110
1000
0010
0001
1000
0100
0010
0001
1000
0100
0001
1000
0010
1000
0001
0100
,
0011
1000
0001
1000
0010
1000
0001
0100
1000
0001
0010
0100
1000
0001
0010
0100
,
1001
0100
1000
0010
0100
0001
1000
0010
0100
1000
0100
0010
0001
0100
0010
1000
,
0110
0000
0000
0001
0000
0000
0010
0000
,
1100
0100
0101
0010
0110
0100
1001
0001
,
1010
0010
0011
0001
1010
0010
0110
1001
,
0000
0000
0011
0010
1010
1000
0110
0100
,
1001
0001
0101
0100
1100
1000
0110
1001
,
0000
0000
0101
0010
0011
0001
1001
1000
,
0110
0100
1100
0010
1010
1000
1001
0110
,
0000
1100
0110
0110
0011
0011
1001
0110
,
0000
1100
0110
0011
0110
0011
0110
1100
,
0000
0000
1010
0010
0110
0100
1001
1000
,
0101
0100
1100
0010
0101
0100
0110
1001
,
0000
0000
1100
0100
0101
0001
0110
0010
,
1001
1000
1010
0010
0011
0001
0110
1001
,
0000
0000
1010
0100
1100
0010
1001
1000
,
0110
0100
0011
0001
0101
0100
1001
0110
,
0000
0011
0110
0110
1100
1100
1001
0110
,
0000
0011
0110
1100
0110
1100
0011
2002
,
0000
0000
0000
0000
,
3113
0000
0000
0000
,
1001
0000
0000
0000
,
0100
0000
0100
0000
0100
0000
0100
0000
0100
0010
0100
0000
0100
0000
0100
0000
,
0010
0000
0010
0000
0010
0000
0010
0000
0010
0100
0010
0000
0010
0000
0010
0000
,
0001
0000
0001
0000
0001
0000
0001
0000
0001
1000
0001
0000
0001
0000
0001
0000
,
1000
0000
1000
0000
1000
0000
1000
0000
1000
0001
1000
0000
1000
0000
1000
0000
,
0100
0000
0100
0000
0100
0000
0100
0000
0100
0010
0100
0000
0100
0000
0100
0000
,
0010
0000
0010
0000
0010
0000
0010
0000
0010
0100
0010
0000
0010
0000
0010
0000
,
0001
0000
0001
0000
0001
0000
0001
0000
0001
1000
0001
0000
0001
0000
0001
0000
,
1000
0000
1000
0000
1000
0000
1000
0000
1000
0001
1000
0000
1000
0000
1000
0000
,
0110
0000
0100
0000
0100
0000
0110
0000
0100
0010
0100
0000
0110
0000
0100
0000
,
0110
0000
0010
0000
0010
0000
0110
0000
0010
0100
0010
0000
0110
0000
0010
0000
,
0011
0000
0001
0000
0001
0000
0011
0000
0001
1000
0001
0000
0011
0000
0001
0000
,
1100
0000
1000
0000
1000
0000
1100
0000
1000
0001
1000
0000
1100
0000
1000
0000
,
0110
0000
0100
0000
0100
0000
0110
0000
0100
0010
0100
0000
0110
0000
0100
0000
,
0110
0000
0010
0000
0010
0000
0110
0000
0010
0100
0010
0000
0110
0000
0010
0000
,
0011
0000
0001
0000
0001
0000
0011
0000
0001
1000
0001
0000
0011
0000
0001
0000
,
1100
0000
1000
0000
1000
0000
1100
0000
1000
0001
1000
0000
1100
0000
1000
0000
,
1100
0000
0000
0100
0000
0000
0000
0000
0000
0010
0000
0000
0000
0001
0000
0000
0000
0010
0000
0000
0000
0100
0000
0000
,
0000
0000
0000
0000
0000
1000
0000
0000
0100
0000
0000
0000
0000
0000
0000
0001
0000
0000
1000
0000
0100
0000
0010
0000
,
0001
0010
0000
0000
0100
0000
0010
0000
0000
0001
0000
0100
,
0000
0000
0010
0000
0000
0000
0001
0000
0000
0000
0010
0000
0000
0000
0100
0000
0000
0000
1000
0000
0000
0100
0000
0000
,
0010
0000
0000
0000
0000
0000
0001
0000
0000
0000
0000
0000
0000
0000
0000
0000
0000
0000
0000
0000
0100
0000
0000
0000
0000
0000
0000
0000
0000
0000
0000
0000
0000
0000
0000
0000
0010
0000
0000
0010
0000
0000
0010
0000
0000
0010
0000
0000
,
1000
0000
0000
0000
1000
0000
0000
0000
0001
0000
0000
0000
1000
0000
0000
0000
0010
0000
0000
0010
0000
0000
0010
0000
0000
0010
0000
0000
0100
0000
0000
0000
0100
0000
0000
0000
0001
0000
0000
0000
0100
0000
0000
0000
0001
0000
0000
0001
,
0000
0000
0000
0000
0000
0000
0000
0000
0001
0000
0000
0000
0000
0000
0000
0000
0000
0000
0000
0000
0001
0000
0000
0000
0000
0000
0000
0000
0000
0000
0000
0000
0010
0000
0000
0000
0000
0000
0000
0000
0000
0000
0000
0000
0000
0000
0000
0000
0100
0000
0000
0000
0000
0000
0000
0000
0000
0000
0000
0000
0000
0000
0000
0000
0100
0000
0000
0000
0000
0000
0000
0000
0000
0000
0000
0000
0000
0000
0000
0000
0010
0000
0000
0000
0000
0000
0000
0000
0000
0000
0000
0000
0000
0000
0000
0000
0001
0000
0000
0000
0000
0000
0000
0000
0000
0000
0000
0000
0001
0000
0000
0000
0000
0000
0000
0000
0000
0000
0000
0000
0001
0000
0000
0000
0000
0000
0000
0000
0000
0000
0000
0000
0001
0000
0000
0000
0000
0000
0100
0000
0000
0000
0000
0000
1000
0000
0000
0000
0000
0000
0000
0000
0000
0000
0000
0000
0000
0000
0000
0000
0010
0000
0000
0000
0000
0000
0000
0000
0000
0000
0000
0000
0000
0000
0000
0000
0010
0000
0000
0000
0000
0000
0000
0000
0100
0000
0000
0000
0000
0000
0000
0000
,
1000
0000
0000
0010
0000
0000
0001
0000
0000
0000
0000
0000
1000
0000
0000
0000
0100
0000
0000
0000
0010
0000
0000
0000
,
0001
0000
0000
0000
0000
0000
0010
0000
0000
0000
0000
0000
0100
0000
0000
0000
0000
0000
0010
0000
0000
0000
0000
0000
0000
0000
0000
0000
0000
0000
0000
0000
0001
0000
0000
0000
0000
0000
0000
0000
0010
0000
0000
0100
0000
0000
1000
0000
,
0000
0100
0000
0000
0001
0000
0000
0000
0000
0000
0000
0000
0000
0000
0000
0000
0000
0000
0000
0000
0000
1000
0000
0000
0100
0000
0000
1000
0000
0000
0010
0000
0000
0100
0000
0000
0010
0000
0000
0100
0000
0000
0001
0000
0000
0010
0000
0000
,
0001
0000
0000
0000
0000
0000
0000
0000
0001
0000
0000
0000
0000
0000
0000
0000
1000
0000
0010
0000
0100
0000
0001
0000
0000
0000
0000
0000
0000
0000
1000
0000
0000
0100
0000
0000
0100
0000
0000
0100
0000
0000
0000
0001
0000
0000
0000
0010
,
0000
0000
0000
0100
0000
0000
0000
1000
0000
0000
0000
0100
0000
0000
0010
0000
0000
0001
0000
0000
0010
0000
0000
1000
0000
0000
0000
0000
0000
0000
0000
0000
0000
0000
0000
0000
1000
0000
0000
0000
0000
0000
0000
0000
0000
1000
0000
0000
,
0100
0000
0000
0010
0000
0000
0001
0000
0000
0010
0000
0000
1000
0000
0000
0000
0100
0000
0000
0000
0000
0000
0100
0000
0000
0000
0000
0001
0000
0000
0000
0000
0000
1000
0000
0000
0100
0000
0000
0010
0000
0000
0001
0000
0000
0010
0000
0000
,
0000
0000
0000
0000
0000
0000
1000
0000
0000
0100
0000
0000
0010
0000
0000
0000
1000
0000
0000
0000
0100
0000
0000
0000
0001
0000
0000
0010
0000
0000
0100
0000
0000
0000
1000
0000
0000
0000
0100
0000
0000
0000
1000
0000
0000
0001
0000
0000
,
0010
0000
0000
0000
0000
0000
0000
0000
1000
0000
0000
0000
0000
0000
0000
0000
0100
0000
0000
0000
0000
0000
0000
0000
0010
0000
0000
0000
0000
0000
0000
0000
0001
0000
0000
0000
0000
0000
0000
0000
0010
0000
0000
0000
0000
0000
0000
0000
1000
0000
0000
0000
0000
0000
0100
0000
0000
0000
0000
0000
0010
0000
0000
0000
0000
0000
0001
0000
0000
0000
0000
0000
1000
0000
0000
0000
0000
0000
0100
0000
0000
0000
0000
0000
0010
0000
0000
0000
0000
0000
0001
0000
0000
0000
0000
0000
1000
0000
0000
0000
0000
0000
0100
0000
0000
0000
0000
0000
0010
0000
0000
0000
0000
0000
0001
0000
0000
0000
0000
0000
1000
0000
0000
0000
0000
0000
0100
0000
0000
0000
0000
0000
0010
0000
0000
0000
0000
0000
0001
0000
0000
0000
0000
0000
1000
0000
0000
0000
0000
0000
0100
0000
0000
0000
0000
0000
0010
0000
0000
0000
0000
0000
0001
0000
0000
0000
0000
0000
1000
0000
0000
0000
0000
0000
0100
0000
0000
0000
0000
0000
0010
0000
0000
0000
0000
0000
0001
0000
0000
0000
0000
0000
,
1000
0100
0010
0001
1000
0100
0010
0001
1000
0100
0010
0001
0010
0100
0010
0100
0001
0010
0100
1000
0001
0010
0100
1000
0001
0010
0100
1000
0001
0010
0100
1000
,
0001
0010
0100
1000
0001
0010
0100
1000
0001
0010
0100
1000
0001
0010
0100
1000
0100
0010
0100
0010
0100
0010
1000
0001
0100
0010
1000
0001
0100
0010
1000
0001
,
0100
0010
1000
0001
0100
0010
1000
0001
0100
0010
1000
0001
0100
0010
1000
0001
0100
0010
1000
0001
1000
0001
1000
0001
0100
1000
0010
0001
0100
1000
0010
0001
,
0100
1000
0010
0001
0100
1000
0010
0001
0100
1000
0010
0001
0100
1000
0010
0001
0100
1000
0010
0001
0100
1000
0010
0001
0000
0000
0000
0000
1000
0000
0000
0000
,
0000
0000
0000
1000
0100
0010
0001
0010
0100
0010
0001
0100
1000
0100
0001
0010
1000
0010
0100
0001
0100
0010
1000
0100
,
0010
0001
0010
0100
0001
0010
0100
1000
0100
0010
1000
0100
0010
0001
0010
0200
0000
0000
0000
0000
0000
0000
0000
0000
,
0300
0000
0000
0000
0000
0000
1000
0010
1000
0010
1000
0010
1000
0010
1000
0010
1000
0010
1000
0000
0100
0001
0100
0001
,
0100
0001
0100
0001
0100
0001
0100
0001
0100
0000
0010
0100
0010
0100
0010
0100
0010
0100
0010
0100
0010
0100
0010
0000
,
1000
0001
1000
0001
1000
0001
1000
0001
1000
0001
1000
0001
1000
0000
0000
1000
0010
0100
0001
0010
1000
0100
1000
0100
,
0010
0001
0100
0010
1000
0001
0100
0010
0100
1000
0001
0010
0100
0010
1000
0001
0100
0010
0100
1000
0010
0100
0001
0010
,
0100
1000
0010
0100
0001
0100
0020
0000
0000
0000
0000
0000
0000
0000
0000
0000
0000
0000
0030
0000
0000
1000
0100
0010
,
0100
0001
0010
0100
0010
1000
0100
0010
0100
0001
0010
1000
0010
0100
0001
0100
0010
1000
0100
0010
0001
0100
0010
0001
,
0010
0100
1000
0010
0100
1000
0100
0010
0100
0001
0010
0100
1000
0100
0010
1000
0001
0100
0010
0100
1000
0010
0100
0001
,
0010
0100
1000
0010
0100
0010
1001
0000
0000
0000
0000
0000
0000
0000
0000
0000
0000
0000
0110
0000
0000
0000
0000
0000
,
0000
1010
0000
0101
,
0000
2002
0000
0000
,
0000
0000
0000
0000
0000
0000
0000
3003
1000
0010
0100
0000
0010
1000
0001
0000
0010
0001
0100
0000
1000
0010
0100
0000
0010
1000
0001
0000
0010
0001
0100
0000
,
1000
0010
0100
0000
0010
1000
0001
0000
0010
0001
0100
0000
1000
0001
0100
0000
0010
1000
0001
0000
0010
0001
0100
0000
1000
0010
0100
0000
0010
0000
1001
0000
,
0010
0001
0100
0000
1000
0010
0100
0000
0010
0100
0001
0000
0010
0001
0100
0000
1000
0010
0100
0000
0010
1000
0001
0000
0010
0001
0100
0000
1000
0010
0100
0000
,
0010
1000
0001
0000
0010
0001
0100
0000
1000
0010
0100
0000
0010
0000
0100
0000
1000
0000
0100
0000
0001
0000
0000
0000
0010
0000
0001
0000
0010
0000
0100
0000
,
1000
0000
0000
0000
0100
0010
0010
0010
0010
0010
0010
0010
1000
1000
0001
0001
,
0100
0100
0010
0010
1000
0001
0001
0001
0100
0001
0001
0001
0010
0010
0100
0100
,
0010
0010
1000
1000
0100
0010
0100
0010
1000
0001
1000
0001
0100
0010
0100
0010
,
1000
0001
1000
0001
0100
0010
0100
0010
1000
0100
0100
0100
0010
0001
0001
0001
,
0010
0100
0100
0100
1001
0000
0000
0000
1001
0000
0000
0000
1001
0000
0000
0000
,
0100
0100
0010
0010
0100
0100
0001
0001
0100
0100
1000
0000
0010
0000
1001
0000
,
0000
0000
0000
0000
0010
0100
0010
0001
1000
0100
1000
0010
0001
0010
0001
0100
,
1000
0000
0100
0000
1000
0000
0001
0000
0010
0000
0010
0000
0010
0000
0010
0000
1000
0010
1000
0000
0001
0000
0001
0000
0100
0000
0100
0000
0100
0000
0100
0000
,
1000
0000
0000
0000
0000
0000
0010
0000
0000
0000
0000
0000
1000
0000
0000
0000
0000
0000
0000
0000
0000
0000
0000
0000
0001
0000
0000
0000
0000
0000
0000
0000
0000
0000
0000
0000
0001
0000
0000
0000
0000
0000
0000
0000
0000
0000
0000
0000
1000
0000
0000
0000
0000
0000
0000
0000
0000
0000
0000
0000
0100
0000
0000
0000
0000
0000
0000
0000
0000
0000
0000
0000
0010
0000
0000
0000
0001
0000
0000
0000
0010
0000
0000
0000
0100
0000
0000
0000
0000
0000
0000
0000
0000
0000
0000
0000
0010
0000
0000
0000
0000
0000
0000
0000
0000
0000
0000
0000
1000
0000
0000
0000
0000
0000
0000
0000
0000
0000
0000
0000
0100
0000
0000
0000
0010
0000
0000
0000
0100
0000
0000
0000
0001
0000
0000
0000
0000
0000
0000
0000
0000
0000
0000
0000
0010
0000
0000
0000
0000
0000
0000
0000
0100
0000
0000
0000
0000
0000
0000
0000
1000
0000
0000
0000
0000
0000
0000
0000
0001
0000
0000
0000
0000
0000
0000
0000
0010
0000
0000
0000
0000
0000
0000
0000
0100
0000
0000
0000
0000
0000
0000
0000
,
0010
0001
1000
0100
0010
0001
0100
0010
0001
0010
0100
1000
0010
0100
0001
1000
0010
0100
0001
0010
1000
0100
1000
0010
,
0100
0000
0001
0000
0010
0000
0100
0000
0001
0000
1000
0000
0100
0000
0000
0000
0000
0000
0010
0000
0000
0000
0000
0000
0010
0000
0000
0000
0000
0000
0010
0000
0000
0100
0000
0000
1000
0000
0000
0001
0000
0000
0010
0000
0000
0001
0000
0000
,
1000
0000
1000
0100
0010
0000
0001
0000
0010
0000
0100
0000
0020
0000
0000
0000
,
0000
0000
0000
0000
1030
0100
0010
0100
0001
1000
0010
0100
1000
0100
0010
0001
,
0010
0100
1000
0100
0010
0100
0001
0010
1000
0010
0100
0001
0010
1000
0100
0010
,
0001
0100
0010
1000
0100
0010
0100
0001
1000
0010
1000
0100
0001
1000
0010
0100
,
0001
1000
0100
0001
0010
0100
1000
0010
0100
1000
0100
0001
0010
0100
0010
1000
,
0001
0010
0100
1000
0010
0100
0010
0001
1000
0010
0100
0001
0010
0100
1000
0010
,
0100
0010
1000
0001
0100
0010
1000
0100
0010
0001
0100
0010
1000
0001
0100
0010
,
1000
0100
0001
0010
0100
1000
0010
0100
0001
1000
0010
0100
0010
1000
0001
0100
,
0010
0100
0010
1000
0001
0100
0010
0100
1000
0001
0100
0010
1000
0000
0000
0000
,
0000
0000
0000
0000
1010
0100
1010
0001
1010
0100
1001
0100
1010
0100
1010
0001
,
1010
0100
1001
0100
1010
0100
1010
0001
1010
0100
1001
0100
1001
0100
1010
0100
,
1001
0000
0000
0000
0101
1000
0011
1000
0011
0100
1001
0100
0011
1000
0011
0100
,
1001
0100
0011
1000
0011
0100
0011
1000
0101
1000
0011
1000
0101
1000
0011
0100
,
1001
0000
0000
0000
1001
0010
0101
0010
0101
1000
0110
1000
0011
1000
0101
1000
,
0101
0010
0101
1000
0101
0010
1001
0010
0101
1000
0101
0010
1001
0010
0101
1000
,
0011
0000
0000
0000
1010
0100
1001
0010
1001
0100
1001
0010
1001
0100
1001
0010
,
0101
0010
1001
0100
1001
0010
1001
0100
1010
0100
1001
0010
0101
0010
1001
0100
,
1001
0000
1100
1010
0000
1001
0000
0000
,
1001
0000
0000
0000
1010
0000
0000
0000
1010
0000
0000
0000
0000
0000
0000
0000
1010
0000
0000
0000
0100
0010
0000
0000
0000
0000
0000
0000
0000
0000
0000
0000
,
1100
0110
0011
0000
0011
0110
0000
1001
,
0110
1001
0110
1001
0000
1100
0110
1100
,
0101
0000
0010
0000
1000
0100
0010
1000
0001
0100
0010
1000
0100
0010
0001
0100
,
0010
1000
0100
0010
0001
0100
0010
1000
0001
0100
0010
0100
0001
0100
0010
1000
,
0100
0010
1000
0100
0010
0100
0001
0010
0100
1000
0001
0100
1000
0010
0100
1000
,
0100
0010
0001
0100
0010
1000
0001
0100
0010
1000
0100
0001
0010
0100
0001
0100
,
1000
0100
0010
0100
1001
0010
0101
0010
1010
0100
0011
1000
0011
0100
1010
0001
,
1100
0010
1001
0010
1100
0001
0110
0001
1010
0100
0101
0010
1001
0100
1010
0001
,
0110
0000
0000
0000
1001
0010
0101
0010
1010
0100
1010
0001
0011
0100
1001
0010
,
1100
0001
1100
0010
0101
1000
0011
0100
0011
1000
0110
0010
1001
0100
0011
0100
,
1100
0000
0000
0000
1001
1000
1100
0001
0110
0001
1100
0001
0101
0010
1100
0010
,
1100
0001
1010
0100
0011
0010
0101
1000
1010
0001
0110
0010
0101
1000
1010
0001
,
1010
0000
0000
0000
1100
0010
0101
1000
0110
1000
0011
0100
1001
0100
1100
0001
,
0101
0010
0011
1000
0101
1000
0011
0001
0110
1000
0011
0100
1100
0001
0110
0010
,
1001
0000
0000
0000
1000
0010
0100
0001
1000
0010
0100
0001
0010
0100
1000
0001
,
0010
1000
0010
0100
0001
0100
0001
0010
0100
1000
0001
0100
0010
1000
0100
0010
,
0001
0010
0100
1000
0010
0100
1000
0010
0100
0001
0010
0100
1000
0010
0100
0001
,
1000
0100
0010
0001
0100
1000
0010
1000
0100
0010
0001
0100
0010
1000
0010
0100
,
0001
0100
1000
0010
0100
0001
1000
0010
0100
1000
0010
0100
0001
1000
0100
0010
,
0001
0100
0001
0010
1000
0100
0010
1000
0010
0100
0001
0010
1000
0100
0010
0001
,
0100
0010
1000
0001
0100
0010
1000
0100
0010
0001
0010
0100
1000
0010
0100
0001
,
0010
0100
1000
0010
0100
0001
0010
0100
1000
0010
0100
0001
0010
0100
1000
0010
,
0100
0001
0010
1000
0010
0100
0001
0100
0010
1000
0100
0010
0001
0010
0100
1000
,
0010
0100
0001
0100
1000
0010
0100
0001
0100
0010
1000
0010
0100
0001
0100
0010
,
0100
0010
1000
0100
0001
0010
0100
1000
0001
0100
0010
1000
0010
0001
0100
0010
,
0001
1000
0010
0100
1000
0010
0001
0100
1000
0010
0100
1000
0100
0010
0001
0100
,
1000
0010
1000
0100
1000
0001
0010
0001
1000
0100
0001
1000
0010
1000
0001
0100
,
1000
0100
0001
0100
1000
0010
0100
0001
0100
0010
1000
0010
0100
0001
0100
0010
,
0100
1000
0100
0001
0100
0010
1000
0010
0100
0001
0010
0100
1000
0100
0010
0001
,
1000
0100
0001
0100
1000
0010
0100
0001
0100
0010
1000
0010
0100
0001
0100
0010
,
1000
0010
1000
0100
1010
0001
0010
0001
1000
0100
0011
0100
1000
0100
0010
0001
,
1010
0100
0001
0100
1001
0010
0100
0001
0100
0010
1001
0010
0100
0001
0100
0010
,
0101
1000
0100
0001
1100
0010
1000
0010
0100
0001
1010
0100
1000
0100
0010
0001
,
1010
0100
0001
0100
1001
0010
0100
0001
0100
0010
1001
0010
0100
0001
0100
0010
,
1001
0010
1000
0100
1010
0001
0010
0001
1000
0100
0011
0100
1000
0100
0010
0001
,
1010
0100
0001
0100
1001
0010
0100
0001
0100
0010
1001
0010
0100
0001
0100
0010
,
0101
1000
0100
0001
1100
0010
0100
0010
0100
0001
1010
0100
0001
0100
0010
0001
,
1000
0100
0001
0100
1000
0010
0100
0001
0100
0010
1000
0010
0100
0001
0100
0010
,
1000
0010
1000
0100
1010
0001
0010
0001
1000
0100
0011
0100
1000
0100
0010
0001
,
1010
0100
0001
0100
1001
0010
0100
0001
0100
0010
1001
0010
0100
0001
0100
0010
,
0101
1000
0100
0001
1100
0010
1000
0010
0100
0001
1010
0100
1000
0100
0010
0001
,
1010
0100
0001
0100
1001
0010
0100
0001
0100
0010
1001
0010
0100
0001
0100
0010
,
1100
0010
1000
0100
1010
0001
0010
0001
1000
0100
0011
0100
1000
0100
0010
0001
,
1010
0100
0001
0100
1001
0010
0100
0001
0100
0010
1001
0010
0100
0001
0100
0010
,
1001
0010
1000
0100
1010
0001
0010
0001
1000
0100
0011
0100
1000
0100
0010
0001
,
0100
0010
1000
0001
0100
1000
0010
0100
0001
0010
1000
0010
0100
0001
0010
0100
,
1000
0010
1000
0100
1000
0001
0010
0001
1010
0100
0001
0100
1010
0100
0010
0001
,
1010
0100
0001
0100
1001
0010
0100
0001
1100
0010
1001
0010
0100
0001
0100
0010
,
0101
1000
0100
0001
1100
0010
1000
0010
1100
0001
1010
0100
1000
0100
1010
0001
,
0010
0100
0001
0100
1001
0010
0100
0001
0100
0010
1000
0010
0100
0001
0100
0010
,
1000
0010
1000
0100
1000
0001
0010
0001
1010
0100
0001
0100
1010
0100
0010
0001
,
1010
0100
0001
0100
1001
0010
0100
0001
1100
0010
1001
0010
0100
0001
0100
0010
,
1001
0010
1000
0100
1010
0001
0010
0001
1010
0100
0011
0100
1000
0100
1010
0001
,
0100
0010
1000
0001
0110
1000
0010
0100
0001
0010
1000
0010
1000
0001
0010
0100
,
1001
0010
1000
0100
1000
0001
0010
0001
1010
0100
0001
0100
1010
0100
0010
0001
,
1010
0100
0001
0100
1001
0010
0100
0001
1100
0010
1001
0010
0100
0001
1100
0010
,
0100
1000
0100
0001
1100
0010
1000
0010
1100
0001
1010
0100
1000
0100
1010
0001
,
0010
0100
0001
0100
1001
0010
0100
0001
1100
0010
1001
0010
0100
0001
0100
0010
,
1001
0010
1000
0100
1010
0001
0010
0001
1000
0100
0011
0100
1000
0100
0010
0001
,
1010
0100
0001
0100
1001
0010
0100
0001
0100
0010
1100
0010
0100
0001
0100
0010
,
1001
0100
0010
0001
1010
0000
0000
0000
0000
0000
0101
0000
0000
0000
0000
0000
,
0110
0000
0000
0000
1010
0100
1000
0100
0010
1000
0101
0010
0100
0001
0010
0100
,
1001
0000
0000
0000
0011
0100
1000
0010
0001
0100
0010
1000
0100
0001
0100
0010
,
1000
0100
1000
0001
0110
1000
0001
0100
0001
1000
0010
1000
0010
0100
0010
1000
,
0010
0100
1000
0010
0101
0010
0001
0100
1000
0010
0100
0001
0010
0100
1000
0001
,
0010
1000
0010
0100
1001
0010
0100
1000
0100
0010
0001
0010
0001
1000
0100
0010
,
0001
0100
1000
0010
1001
0100
0010
1000
0001
0100
0010
1000
0100
0010
0001
0010
,
0100
1000
0100
0010
1100
0010
0001
0010
0100
1000
0010
0100
0001
1000
0010
0100
,
0001
1000
0100
0001
0110
1000
0001
0010
0100
1000
0001
0100
0001
1000
0010
0001
,
1000
0100
0001
1000
0110
0001
1000
0100
1000
0001
1000
0010
0001
0100
0001
1000
,
0100
0010
0100
0001
1100
0001
0100
1000
0010
0001
1000
0100
0001
0010
0001
1000
,
0100
0001
0100
0010
1001
0100
0010
0001
0010
0100
1000
0100
1000
0001
1000
0100
,
1000
0001
0100
1000
0011
1000
0010
0001
0100
1000
0001
0010
1000
0001
0100
0010
,
1000
0100
1000
0001
0110
1000
0001
0100
0001
1000
0010
1000
0010
0100
0001
1000
,
0010
0001
0100
1000
0110
0001
1000
0100
0010
0001
1000
0100
0001
1000
0010
1000
,
0001
0100
0001
1000
0011
1000
0010
1000
0001
0100
1000
0001
0010
0100
1000
0001
,
0010
0100
1000
0100
1001
0010
0100
0001
1000
0010
0100
1000
0100
0010
0001
0100
,
0010
1000
0010
1000
0110
1000
0100
0001
0100
1000
0010
0100
0001
0100
0010
1000
,
0010
0100
0010
1000
0011
1000
0010
0100
0010
1000
0010
1000
0010
0100
0001
0100
,
0001
1000
0001
0100
0011
0100
0010
1000
0001
0100
0010
1000
0001
0100
0010
1000
,
0010
0100
0010
1000
0011
0100
0010
1000
0010
0100
0010
1000
0001
0100
0010
1000
,
0001
0100
0010
1000
0110
0000
0000
0000
0000
0000
0001
0000
0000
0000
0000
0000
,
0010
0000
0000
0000
1001
0100
0010
0100
0001
0010
1001
0100
0010
0001
0100
0010
,
1100
0001
0100
1000
0101
0010
0001
0100
0010
1000
0011
0100
0001
0100
0001
1000
,
0011
0100
0001
1000
0110
0001
1000
0001
0010
1000
0110
0001
1000
0010
0001
1000
,
0101
0010
0001
0100
0011
1000
0010
0001
1000
0100
1000
0001
1100
0010
0100
0010
,
1100
0010
0100
0010
0101
1000
0100
1000
0100
0001
1100
0010
1000
0100
0001
1000
,
0011
0100
0010
1000
0110
0001
1000
0100
1000
0010
0001
1000
0101
0010
0100
1000
,
0101
0010
0001
0100
1001
0010
1000
0010
0100
1000
0101
0010
1000
0100
0010
1000
,
0011
0100
0010
0001
0110
1000
0100
0010
1000
0001
1100
0010
0100
0010
0100
0001
,
1100
0010
0100
0001
1010
0100
0001
0100
1000
0001
1010
0100
0001
1000
0100
0001
,
0110
1000
0100
0010
1100
0001
1000
0100
0001
0010
1001
0100
1000
0100
1000
0010
,
1001
0100
1000
0010
1100
0001
0010
0001
1000
0100
0011
1000
0001
0010
0100
0001
,
1100
0010
1000
0001
1010
0100
0001
0010
0001
1000
0100
0001
1100
0010
1000
0010
,
0101
0010
1000
0010
0101
0010
1000
0010
0100
1000
0101
0010
1000
0100
0010
1000
,
0011
0100
0010
0001
0110
1000
0100
0010
1000
0001
1000
0010
1100
0010
0100
0001
,
1100
0010
0100
0001
1010
0100
0001
0100
1000
0001
1010
0100
0001
1000
0100
0001
,
0110
1000
0100
0010
1100
0001
1000
0100
0001
0010
1001
0100
1000
0100
1001
0010
,
0001
0100
1000
0001
0110
1000
0001
1000
0001
1000
0001
1000
0101
1000
0001
1000
,
0001
1000
0001
1000
0101
1000
0001
1000
0001
1000
0001
1000
0101
1000
0001
1000
,
0001
1000
0001
1000
0110
0000
0110
0000
0110
0000
0000
0000
0110
0000
0110
0000
,
0110
0000
0000
0000
1000
0100
0010
0001
1000
0100
0010
0001
1000
0100
0010
0001
,
1000
0100
0010
0001
1000
0100
0010
0001
1000
0100
0010
0001
1000
0100
0010
0001
,
1000
0100
0010
0001
1000
2002
0000
0000
0000
0000
0000
0000
0000
0000
0000
0000
,
0000
0000
0000
0000
,
0000
0000
0000
0000
,
0000
0000
0000
0000
,
0000
0000
0000
0000
,
0000
0000
0000
0000
0000
0000
0000
0000
0000
0000
0000
0000
0000
0000
0000
3113
,
0000
0110
0000
0000
0000
0000
0000
0000
0000
0000
0000
0000
0000
0000
0000
0000
;

//---------------dance-single - Copied from EZ Versi----------------
#NOTES:
     dance-single:
     Copied from EZ Versi:
     Beginner:
     15:
     1.000,1.000,1.000,0.023,1.000,5218.000,887.000,11.000,0.000,3.000:
1000
0100
0001
1000
0100
0001
0010
0100
,
0001
0010
1000
0001
0010
1000
0100
0010
,
0001
1000
0010
0001
1000
0010
0001
1000
,
0001
1000
0010
0001
1000
0010
0001
1000
,
0100
0010
0001
0100
0010
0001
0100
0010
,
0001
0010
0100
0001
0010
0100
0001
0100
,
1000
0010
0100
1000
0010
0100
1000
0001
,
0100
0010
1000
0100
0010
1000
0100
0010
,
0001
0010
0010
0001
0010
0010
0001
0010
,
0100
0010
0010
0100
0010
0010
0100
0010
,
0001
0010
0010
0001
0010
0010
0001
0010
,
0001
0010
0010
0001
0010
0010
0001
0010
,
0010
0100
0100
0010
0100
0100
0010
0100
,
0001
0100
0100
0001
0100
0100
0001
0100
,
0001
0100
0100
0001
0100
0100
0001
0100
,
0010
1000
1000
0010
0001
0001
0010
1000
,
1001
0100
0100
1001
0100
0100
1001
0100
,
1001
0010
0010
0101
0010
0010
0101
0010
,
1001
0100
0100
1001
0100
0100
1001
0100
,
1010
0001
0001
1010
0001
0001
1010
0100
,
0011
1000
1000
0011
1000
1000
0011
0001
,
0110
1000
1000
0110
1000
1000
0101
0010
,
1010
0001
0001
1010
0001
0001
1010
1000
,
0101
0010
0010
0101
0010
0010
1010
0100
,
0101
0010
0010
0101
1000
1000
0110
0010
,
1001
0010
0010
0101
0100
0100
1010
1000
,
0101
0100
0100
1001
0100
0100
0011
0010
,
1001
0100
0100
0011
0100
0100
0101
1000
,
0101
0010
0010
1100
0010
0010
1001
0100
,
0101
1000
1000
0011
1000
1000
0101
0001
,
1001
1000
1000
0101
0100
0100
0011
1000
,
0101
1000
1000
0110
0001
0001
1001
0100
,
1001
0001
1000
0001
1000
0001
1000
0001
1000
0001
1000
0001
1000
0001
1000
0001
,
1100
0011
0110
1010
,
1001
0100
0010
0100
0001
0010
1001
0100
0010
0001
0100
0010
1100
0001
0100
1000
,
0101
0010
0001
0100
0010
1000
0011
0100
0001
0100
0001
1000
0011
0100
0001
1000
,
0110
0001
1000
0001
0010
1000
0110
0001
1000
0010
0001
1000
0101
0010
0001
0100
,
0011
1000
0010
0001
1000
0100
1000
0001
1100
0010
0100
0010
1100
0010
0100
0010
,
0101
1000
0100
1000
0100
0001
1100
0010
1000
0100
0001
1000
0011
0100
0010
1000
,
0110
0001
1000
0100
1000
0010
0001
1000
0101
0010
0100
1000
0101
0010
0001
0100
,
1001
0010
1000
0010
0100
1000
0101
0010
1000
0100
0010
1000
0011
0100
0010
0001
,
0110
1000
0100
0010
1000
0001
1100
0010
0100
0010
0100
0001
1100
0010
0100
0001
,
1010
0100
0001
0100
1000
0001
1010
0100
0001
1000
0100
0001
0110
1000
0100
0010
,
1100
0001
1000
0100
0001
0010
1001
0100
1000
0100
1000
0010
1001
0100
1000
0010
,
1100
0001
0010
0001
1000
0100
0011
1000
0001
0010
0100
0001
1100
0010
1000
0001
,
1010
0100
0001
0010
0001
1000
0100
0001
1100
0010
1000
0010
0101
0010
1000
0010
,
0101
0010
1000
0010
0100
1000
0101
0010
1000
0100
0010
1000
0011
0100
0010
0001
,
0110
1000
0100
0010
1000
0001
1000
0010
1100
0010
0100
0001
1100
0010
0100
0001
,
1010
0100
0001
0100
1000
0001
1010
0100
0001
1000
0100
0001
0110
1000
0100
0010
,
1100
0001
1000
0100
0001
0010
1001
0100
1000
0100
1001
0010
0001
0100
1000
0001
,
0110
0000
0000
0000
,
1001
0010
0100
1000
0001
0100
0011
1000
0100
0001
1000
0100
1010
0001
1000
0010
,
1001
0100
0011
1000
0100
0010
0101
1000
0001
1000
0001
0010
0101
1000
0001
0010
,
1001
0010
0100
1000
0010
0100
0011
1000
0100
0010
1000
0100
1001
0010
1000
0001
,
1010
0100
0010
1000
0110
1000
0101
1000
0100
1000
0001
0100
0010
1000
0001
0010
,
1001
0100
1000
0100
1000
0010
1100
0001
0100
1000
0010
0100
0011
1000
0001
0100
,
1001
0010
0101
1000
0100
0001
1010
0100
0010
0001
1000
0100
1010
0001
0010
1000
,
0110
0001
0100
0001
1000
0100
0010
0001
0110
1000
0011
0100
0010
1000
0101
0010
,
1000
0010
0100
0001
1000
0010
0100
0001
0100
0001
0100
0010
1100
0001
0100
0010
,
1001
0100
0010
0100
1000
0010
1001
0100
0010
1000
0100
0010
0101
1000
0100
0001
,
1100
0010
1001
0100
0010
0001
1010
0100
1000
0100
1000
0001
1010
0100
1000
0001
,
1100
0010
0001
0010
1000
0100
0011
1000
0010
0001
0100
0010
1100
0001
1000
0010
,
0101
0010
0100
1000
0110
0001
1010
0100
0010
1000
0001
1000
0100
1000
0001
1000
,
0110
1000
0001
1000
0010
0001
0110
1000
0001
0010
1000
0001
1100
0010
1000
0100
,
1010
0001
0110
1000
0001
0100
0011
1000
0010
1000
0010
0100
0011
1000
0010
0100
,
1001
0010
0100
0001
1010
0100
1001
0010
1000
0001
0010
0100
1010
0001
0010
1000
,
0011
0100
0001
0010
0100
1000
0100
0010
0001
0010
0001
1000
0100
0010
0001
0100
,
1000
0010
1000
0010
0101
1000
0100
0010
1001
0100
0010
1000
0011
0100
0010
0001
,
0110
1000
0101
0010
1000
0001
1100
0010
0100
0010
0100
0001
1100
0010
0100
0001
,
1010
0100
0001
0100
1010
0001
1000
0100
0011
1000
0110
0001
0100
1000
0100
0010
,
1100
0001
0010
0100
1001
0010
0001
0100
0011
1000
0010
1000
0010
1000
0010
1000
,
0100
0001
0010
0001
1010
0100
0010
1000
0101
0010
0100
0001
1100
0010
1000
0001
,
1100
0001
0110
1000
0010
0100
0001
0010
1001
0100
1000
0010
0001
0100
0011
1000
,
0001
0100
0010
0100
1001
0010
0001
0100
0011
1000
0101
0010
0001
1000
0100
0001
,
1100
0010
1000
0100
1010
0001
1000
0100
1000
0100
1010
0001
1000
0100
1000
0001
,
0100
1000
0001
1000
0110
0001
0100
1000
0101
0010
1000
0001
1100
0010
1000
0100
,
1010
0001
0010
1000
0011
0100
0011
1000
0010
1000
0010
0100
0011
1000
0010
0100
,
1010
0001
0100
0001
0110
1000
0101
0010
0001
0100
1010
0001
1000
0100
0010
0001
,
0110
1000
0001
0100
0001
0010
0100
0001
1000
0100
0010
0100
0001
0100
0010
0100
,
1000
0100
0010
0100
1001
0010
0001
0100
0011
1000
0100
0001
1100
0010
1000
0100
,
1010
0001
0010
1000
0011
0100
0011
1000
0010
1000
0010
0100
0011
1000
0010
0100
,
1001
0010
0100
0010
1001
0100
1001
0010
0100
0001
1010
0100
1000
0001
0010
1000
,
0011
0100
0001
0010
0100
1000
0100
0010
0001
0010
0001
1000
0100
0010
0001
0100
,
1000
0010
0001
0100
0011
1000
0001
0100
0011
1000
0100
0010
1001
0010
0100
1000
,
0101
0010
0100
0010
0101
0010
0101
1000
0001
0100
0001
1000
0011
0100
0001
1000
,
0011
0100
1000
0010
0100
0001
1100
0010
0101
1000
0100
0010
1001
0100
0010
1000
,
0101
0010
0001
0100
0011
1000
0011
0100
0010
0001
0100
1000
0101
0010
1000
0001
,
1010
0100
0010
0100
1000
0010
1001
0100
0001
1000
0100
0001
1100
0010
1000
0100
,
1010
0001
0010
1000
0001
0100
0011
1000
0010
1000
0010
0100
0011
1000
0010
0100
,
1001
0000
0000
0100
0000
0000
0001
0000
,
1000
0000
0000
0010
0000
0000
0001
0000
,
1001
0100
0010
0100
1000
0010
0001
0100
0010
1000
0100
0001
0100
0010
1000
0100
,
1010
0001
0010
1000
0001
0100
0001
1000
0010
1000
0010
0100
0010
1000
0010
0100
,
1001
0010
0100
0010
0001
0100
1000
0010
0100
0001
0010
0100
1000
0001
0010
1000
,
0011
0100
0001
0010
0100
1000
0100
0010
0001
0010
0001
1000
0100
0010
0001
0100
,
1001
0010
0001
0100
0010
1000
0001
0100
0010
1000
0100
0010
0001
0010
0100
1000
,
0101
0010
0100
0010
0001
0010
0100
1000
0010
0100
0001
1000
0010
0100
0001
1000
,
0110
0001
0100
1000
0001
0010
0100
1000
0001
0100
0001
1000
0010
0001
1000
0100
,
0011
1000
0010
0001
1000
0100
1000
0001
1000
0010
0001
0100
0001
1000
0100
0010
,
1100
0001
1000
0001
0100
1000
0010
0001
1000
0100
0001
0010
0001
1000
0100
0001
,
1100
0010
1000
0100
0010
0001
0010
0100
1000
0100
1000
0001
1000
0100
1000
0001
,
0110
1000
0001
1000
0010
0001
0100
1000
0001
0010
1000
0001
0100
0010
1000
0100
,
1010
0001
0010
1000
0001
0100
0001
1000
0010
1000
0010
0100
0001
1000
0010
0001
,
0110
1000
0010
0001
1000
0100
0010
0001
1000
0100
0001
1000
0010
1000
0001
0100
,
0011
1000
0001
1000
0010
1000
0001
0100
1000
0001
0010
0100
1000
0001
0010
0100
,
1001
0100
1000
0010
0100
0001
1000
0010
0100
1000
0100
0010
0001
0100
0010
1000
,
0110
0000
0000
0001
0000
0000
0010
0000
,
1100
0100
0101
0010
0110
0100
1001
0001
,
1010
0010
0011
0001
1010
0010
0110
1001
,
0000
0000
0011
0010
1010
1000
0110
0100
,
1001
0001
0101
0100
1100
1000
0110
1001
,
0000
0000
0101
0010
0011
0001
1001
1000
,
0110
0100
1100
0010
1010
1000
1001
0110
,
0000
1100
0110
0110
0011
0011
1001
0110
,
0000
1100
0110
0011
0110
0011
0110
1100
,
0000
0000
1010
0010
0110
0100
1001
1000
,
0101
0100
1100
0010
0101
0100
0110
1001
,
0000
0000
1100
0100
0101
0001
0110
0010
,
1001
1000
1010
0010
0011
0001
0110
1001
,
0000
0000
1010
0100
1100
0010
1001
1000
,
0110
0100
0011
0001
0101
0100
1001
0110
,
0000
0011
0110
0110
1100
1100
1001
0110
,
0000
0011
0110
1100
0110
1100
0011
2002
,
0000
0000
0000
0000
,
3103
0010
1000
0001
0100
0010
1000
0001
0100
0010
1000
0001
,
0110
1000
0010
0100
0001
1000
0010
0100
0001
1000
0010
0100
,
1001
0010
0100
1000
0001
0100
0011
1000
0100
0001
1000
0100
1010
0001
1000
0010
,
1001
0100
0011
1000
0100
0010
0101
1000
0001
1000
0001
0010
0101
1000
0001
0010
,
1001
0010
0100
1000
0010
0100
0011
1000
0100
0010
1000
0100
1001
0010
1000
0001
,
1010
0100
0010
1000
0110
1000
0101
1000
0100
1000
0001
0100
0010
1000
0001
0010
,
1001
0100
1000
0100
1000
0010
1100
0001
0100
1000
0010
0100
0011
1000
0001
0100
,
1001
0010
0101
1000
0100
0001
1010
0100
0010
0001
1000
0100
1010
0001
0010
1000
,
0110
0001
0100
0001
1000
0100
0010
0001
0110
1000
0011
0100
0010
1000
0101
0010
,
1000
0010
0100
0001
1000
0010
0100
0001
0100
0001
0100
0010
1100
0001
0100
0010
,
1001
0100
0010
0100
1000
0010
1001
0100
0010
1000
0100
0010
0101
1000
0100
0001
,
1100
0010
1001
0100
0010
0001
1010
0100
1000
0100
1000
0001
1010
0100
1000
0001
,
1100
0010
0001
0010
1000
0100
0011
1000
0010
0001
0100
0010
1100
0001
1000
0010
,
0101
0010
0100
1000
0110
0001
1010
0100
0010
1000
0001
1000
0100
1000
0001
1000
,
0110
1000
0001
1000
0010
0001
0110
1000
0001
0010
1000
0001
1100
0010
1000
0100
,
1010
0001
0110
1000
0001
0100
0011
1000
0010
1000
0010
0100
0011
1000
0010
0100
,
1001
0010
0100
0001
1010
0100
1001
0010
1000
0001
0010
0100
1010
0001
0010
1000
,
0011
0100
0001
0010
0100
1000
0100
0010
0001
0010
0001
1000
0100
0010
0001
0100
,
1000
0010
1000
0010
0101
1000
0100
0010
1001
0100
0010
1000
0011
0100
0010
0001
,
0110
1000
0101
0010
1000
0001
1100
0010
0100
0010
0100
0001
1100
0010
0100
0001
,
1010
0100
0001
0100
1010
0001
1000
0100
0011
1000
0110
0001
0100
1000
0100
0010
,
1100
0001
0010
0100
1001
0010
0001
0100
0011
1000
0010
1000
0010
1000
0010
1000
,
0100
0001
0010
0001
1010
0100
0010
1000
0101
0010
0100
0001
1100
0010
1000
0001
,
1100
0001
0110
1000
0010
0100
0001
0010
1001
0100
1000
0010
0001
0100
0011
1000
,
0001
0100
0010
0100
1001
0010
0001
0100
0011
1000
0101
0010
0001
1000
0100
0001
,
1100
0010
1000
0100
1010
0001
1000
0100
1000
0100
1010
0001
1000
0100
1000
0001
,
0100
1000
0001
1000
0110
0001
0100
1000
0101
0010
1000
0001
1100
0010
1000
0100
,
1010
0001
0010
1000
0011
0100
0011
1000
0010
1000
0010
0100
0011
1000
0010
0100
,
1010
0001
0100
0001
0110
1000
0101
0010
0001
0100
1010
0001
1000
0100
0010
0001
,
0110
1000
0001
0100
0001
0010
0100
0001
1000
0100
0010
0100
0001
0100
0010
0100
,
1000
0100
0010
0100
1001
0010
0001
0100
0011
1000
0100
0001
1100
0010
1000
0100
,
1010
0001
0010
1000
0011
0100
0011
1000
0010
1000
0010
0100
0011
1000
0010
0100
,
1001
0010
0100
0010
1001
0100
1001
0010
0100
0001
1010
0100
1000
0001
0010
1000
,
0011
0100
0001
0010
0100
1000
0100
0010
0001
0010
0001
1000
0100
0010
0001
0100
,
1000
0010
0001
0100
0011
1000
0001
0100
0011
1000
0100
0010
1001
0010
0100
1000
,
0101
0010
0100
0010
0101
0010
0101
1000
0001
0100
0001
1000
0011
0100
0001
1000
,
0011
0100
1000
0010
0100
0001
1100
0010
0101
1000
0100
0010
1001
0100
0010
1000
,
0101
0010
0001
0100
0011
1000
0011
0100
0010
0001
0100
1000
0101
0010
1000
0001
,
1010
0100
0010
0100
1000
0010
1001
0100
0001
1000
0100
0001
1100
0010
1000
0100
,
1010
0001
0010
1000
0001
0100
0011
1000
0010
1000
0010
0100
0011
1000
0010
0100
,
1001
0000
0000
0100
0000
0000
0001
0000
,
1000
0000
0000
0000
0000
0000
0010
0000
0010
0100
0010
0100
0011
0100
0010
0100
,
1001
0100
0010
0100
1000
0010
0001
0100
0010
1000
0100
0001
0100
0010
1000
0100
,
1010
0001
0010
1000
0001
0100
0001
1000
0010
1000
0010
0100
0010
1000
0010
0100
,
1001
0010
0100
0010
0001
0100
1000
0010
0100
0001
0010
0100
1000
0001
0010
1000
,
0011
0100
0001
0010
0100
1000
0100
0010
0001
0010
0001
1000
0100
0010
0001
0100
,
1001
0010
0001
0100
0010
1000
0001
0100
0010
1000
0100
0010
0001
0010
0100
1000
,
0101
0010
0100
0010
0001
0010
0100
1000
0010
0100
0001
1000
0010
0100
0001
1000
,
0110
0001
0100
1000
0001
0010
0100
1000
0001
0100
0001
1000
0010
0001
1000
0100
,
0011
1000
0010
0001
1000
0100
1000
0001
1000
0010
0001
0100
0001
1000
0100
0010
,
1100
0001
1000
0001
0100
1000
0010
0001
1000
0100
0001
0010
0001
1000
0100
0001
,
1100
0010
1000
0100
0010
0001
0010
0100
1000
0100
1000
0001
1000
0100
1000
0001
,
0110
1000
0001
1000
0010
0001
0100
1000
0001
0010
1000
0001
0100
0010
1000
0100
,
1010
0001
0010
1000
0001
0100
0001
1000
0010
1000
0010
0100
0001
1000
0010
0001
,
0110
1000
0010
0001
1000
0100
0010
0001
1000
0100
0001
1000
0010
1000
0001
0100
,
0011
1000
0001
1000
0010
1000
0001
0100
1000
0001
0010
0100
1000
0001
0010
0100
,
1001
0100
1000
0010
0100
0001
1000
0010
0100
1000
0100
0010
0001
0100
0010
1000
,
0110
0000
0000
0001
0000
0000
0010
0000
,
1100
0100
0101
0010
0110
0100
1001
0001
,
1010
0010
0011
0001
1010
0010
0110
1001
,
0000
0000
0011
0010
1010
1000
0110
0100
,
1001
0001
0101
0100
1100
1000
0110
1001
,
0000
0000
0101
0010
0011
0001
1001
1000
,
0110
0100
1100
0010
1010
1000
1001
0110
,
0000
1100
0110
0110
0011
0011
1001
0110
,
0000
1100
0110
0011
0110
0011
0110
1100
,
0000
0000
1010
0010
0110
0100
1001
1000
,
0101
0100
1100
0010
0101
0100
0110
1001
,
0000
0000
1100
0100
0101
0001
0110
0010
,
1001
1000
1010
0010
0011
0001
0110
1001
,
0000
0000
1010
0100
1100
0010
1001
1000
,
0110
0100
0011
0001
0101
0100
1001
0110
,
0000
0011
0110
0110
1100
1100
1001
0110
,
0000
0011
0110
1100
0110
1100
0011
2002
,
0000
0000
0000
0000
,
3113
0000
0000
0000
,
1001
0000
0000
0000
,
0100
0000
0100
0000
0100
0000
0100
0000
0100
0010
0100
0000
0100
0000
0100
0000
,
0010
0000
0010
0000
0010
0000
0010
0000
0010
0100
0010
0000
0010
0000
0010
0000
,
0001
0000
0001
0000
0001
0000
0001
0000
0001
1000
0001
0000
0001
0000
0001
0000
,
1000
0000
1000
0000
1000
0000
1000
0000
1000
0001
1000
0000
1000
0000
1000
0000
,
0100
0000
0100
0000
0100
0000
0100
0000
0100
0010
0100
0000
0100
0000
0100
0000
,
0010
0000
0010
0000
0010
0000
0010
0000
0010
0100
0010
0000
0010
0000
0010
0000
,
0001
0000
0001
0000
0001
0000
0001
0000
0001
1000
0001
0000
0001
0000
0001
0000
,
1000
0000
1000
0000
1000
0000
1000
0000
1000
0001
1000
0000
1000
0000
1000
0000
,
0110
0000
0100
0000
0100
0000
0110
0000
0100
0010
0100
0000
0110
0000
0100
0000
,
0110
0000
0010
0000
0010
0000
0110
0000
0010
0100
0010
0000
0110
0000
0010
0000
,
0011
0000
0001
0000
0001
0000
0011
0000
0001
1000
0001
0000
0011
0000
0001
0000
,
1100
0000
1000
0000
1000
0000
1100
0000
1000
0001
1000
0000
1100
0000
1000
0000
,
0110
0000
0100
0000
0100
0000
0110
0000
0100
0010
0100
0000
0110
0000
0100
0000
,
0110
0000
0010
0000
0010
0000
0110
0000
0010
0100
0010
0000
0110
0000
0010
0000
,
0011
0000
0001
0000
0001
0000
0011
0000
0001
1000
0001
0000
0011
0000
0001
0000
,
1100
0000
1000
0000
1000
0000
1100
0000
1000
0001
1000
0000
1100
0000
1000
0000
,
1100
0000
0000
0100
0000
0000
0000
0000
0000
0010
0000
0000
0000
0001
0000
0000
0000
0010
0000
0000
0000
0100
0000
0000
,
0000
0000
0000
0000
0000
1000
0000
0000
0100
0000
0000
0000
0000
0000
0000
0001
0000
0000
1000
0000
0100
0000
0010
0000
,
0001
0010
0000
0000
0100
0000
0010
0000
0000
0001
0000
0100
,
0000
0000
0010
0000
0000
0000
0001
0000
0000
0000
0010
0000
0000
0000
0100
0000
0000
0000
1000
0000
0000
0100
0000
0000
,
0010
0000
0000
0000
0000
0000
0001
0000
0000
0000
0000
0000
0000
0000
0000
0000
0000
0000
0000
0000
0100
0000
0000
0000
0000
0000
0000
0000
0000
0000
0000
0000
0000
0000
0000
0000
0010
0000
0000
0010
0000
0000
0010
0000
0000
0010
0000
0000
,
1000
0000
0000
0000
1000
0000
0000
0000
0001
0000
0000
0000
1000
0000
0000
0000
0010
0000
0000
0010
0000
0000
0010
0000
0000
0010
0000
0000
0100
0000
0000
0000
0100
0000
0000
0000
0001
0000
0000
0000
0100
0000
0000
0000
0001
0000
0000
0001
,
0000
0000
0000
0000
0000
0000
0000
0000
0001
0000
0000
0000
0000
0000
0000
0000
0000
0000
0000
0000
0001
0000
0000
0000
0000
0000
0000
0000
0000
0000
0000
0000
0010
0000
0000
0000
0000
0000
0000
0000
0000
0000
0000
0000
0000
0000
0000
0000
0100
0000
0000
0000
0000
0000
0000
0000
0000
0000
0000
0000
0000
0000
0000
0000
0100
0000
0000
0000
0000
0000
0000
0000
0000
0000
0000
0000
0000
0000
0000
0000
0010
0000
0000
0000
0000
0000
0000
0000
0000
0000
0000
0000
0000
0000
0000
0000
0001
0000
0000
0000
0000
0000
0000
0000
0000
0000
0000
0000
0001
0000
0000
0000
0000
0000
0000
0000
0000
0000
0000
0000
0001
0000
0000
0000
0000
0000
0000
0000
0000
0000
0000
0000
0001
0000
0000
0000
0000
0000
0100
0000
0000
0000
0000
0000
1000
0000
0000
0000
0000
0000
0000
0000
0000
0000
0000
0000
0000
0000
0000
0000
0010
0000
0000
0000
0000
0000
0000
0000
0000
0000
0000
0000
0000
0000
0000
0000
0010
0000
0000
0000
0000
0000
0000
0000
0100
0000
0000
0000
0000
0000
0000
0000
,
1000
0000
0000
0010
0000
0000
0001
0000
0000
0000
0000
0000
1000
0000
0000
0000
0100
0000
0000
0000
0010
0000
0000
0000
,
0001
0000
0000
0000
0000
0000
0010
0000
0000
0000
0000
0000
0100
0000
0000
0000
0000
0000
0010
0000
0000
0000
0000
0000
0000
0000
0000
0000
0000
0000
0000
0000
0001
0000
0000
0000
0000
0000
0000
0000
0010
0000
0000
0100
0000
0000
1000
0000
,
0000
0100
0000
0000
0001
0000
0000
0000
0000
0000
0000
0000
0000
0000
0000
0000
0000
0000
0000
0000
0000
1000
0000
0000
0100
0000
0000
1000
0000
0000
0010
0000
0000
0100
0000
0000
0010
0000
0000
0100
0000
0000
0001
0000
0000
0010
0000
0000
,
0001
0000
0000
0000
0000
0000
0000
0000
0001
0000
0000
0000
0000
0000
0000
0000
1000
0000
0010
0000
0100
0000
0001
0000
0000
0000
0000
0000
0000
0000
1000
0000
0000
0100
0000
0000
0100
0000
0000
0100
0000
0000
0000
0001
0000
0000
0000
0010
,
0000
0000
0000
0100
0000
0000
0000
1000
0000
0000
0000
0100
0000
0000
0010
0000
0000
0001
0000
0000
0010
0000
0000
1000
0000
0000
0000
0000
0000
0000
0000
0000
0000
0000
0000
0000
1000
0000
0000
0000
0000
0000
0000
0000
0000
1000
0000
0000
,
0100
0000
0000
0010
0000
0000
0001
0000
0000
0010
0000
0000
1000
0000
0000
0000
0100
0000
0000
0000
0000
0000
0100
0000
0000
0000
0000
0001
0000
0000
0000
0000
0000
1000
0000
0000
0100
0000
0000
0010
0000
0000
0001
0000
0000
0010
0000
0000
,
0000
0000
0000
0000
0000
0000
1000
0000
0000
0100
0000
0000
0010
0000
0000
0000
1000
0000
0000
0000
0100
0000
0000
0000
0001
0000
0000
0010
0000
0000
0100
0000
0000
0000
1000
0000
0000
0000
0100
0000
0000
0000
1000
0000
0000
0001
0000
0000
,
0010
0000
0000
0000
0000
0000
0000
0000
1000
0000
0000
0000
0000
0000
0000
0000
0100
0000
0000
0000
0000
0000
0000
0000
0010
0000
0000
0000
0000
0000
0000
0000
0001
0000
0000
0000
0000
0000
0000
0000
0010
0000
0000
0000
0000
0000
0000
0000
1000
0000
0000
0000
0000
0000
0100
0000
0000
0000
0000
0000
0010
0000
0000
0000
0000
0000
0001
0000
0000
0000
0000
0000
1000
0000
0000
0000
0000
0000
0100
0000
0000
0000
0000
0000
0010
0000
0000
0000
0000
0000
0001
0000
0000
0000
0000
0000
1000
0000
0000
0000
0000
0000
0100
0000
0000
0000
0000
0000
0010
0000
0000
0000
0000
0000
0001
0000
0000
0000
0000
0000
1000
0000
0000
0000
0000
0000
0100
0000
0000
0000
0000
0000
0010
0000
0000
0000
0000
0000
0001
0000
0000
0000
0000
0000
1000
0000
0000
0000
0000
0000
0100
0000
0000
0000
0000
0000
0010
0000
0000
0000
0000
0000
0001
0000
0000
0000
0000
0000
1000
0000
0000
0000
0000
0000
0100
0000
0000
0000
0000
0000
0010
0000
0000
0000
0000
0000
0001
0000
0000
0000
0000
0000
,
1000
0100
0010
0001
1000
0100
0010
0001
1000
0100
0010
0001
0010
0100
0010
0100
0001
0010
0100
1000
0001
0010
0100
1000
0001
0010
0100
1000
0001
0010
0100
1000
,
0001
0010
0100
1000
0001
0010
0100
1000
0001
0010
0100
1000
0001
0010
0100
1000
0100
0010
0100
0010
0100
0010
1000
0001
0100
0010
1000
0001
0100
0010
1000
0001
,
0100
0010
1000
0001
0100
0010
1000
0001
0100
0010
1000
0001
0100
0010
1000
0001
0100
0010
1000
0001
1000
0001
1000
0001
0100
1000
0010
0001
0100
1000
0010
0001
,
0100
1000
0010
0001
0100
1000
0010
0001
0100
1000
0010
0001
0100
1000
0010
0001
0100
1000
0010
0001
0100
1000
0010
0001
0000
0000
0000
0000
1000
0000
0000
0000
,
0000
0000
0000
1000
0100
0010
0001
0010
0100
0010
0001
0100
1000
0100
0001
0010
1000
0010
0100
0001
0100
0010
1000
0100
,
0010
0001
0010
0100
0001
0010
0100
1000
0100
0010
1000
0100
0010
0001
0010
0200
0000
0000
0000
0000
0000
0000
0000
0000
,
0300
0000
0000
0000
0000
0000
1000
0010
1000
0010
1000
0010
1000
0010
1000
0010
1000
0010
1000
0000
0100
0001
0100
0001
,
0100
0001
0100
0001
0100
0001
0100
0001
0100
0000
0010
0100
0010
0100
0010
0100
0010
0100
0010
0100
0010
0100
0010
0000
,
1000
0001
1000
0001
1000
0001
1000
0001
1000
0001
1000
0001
1000
0000
0000
1000
0010
0100
0001
0010
1000
0100
1000
0100
,
0010
0001
0100
0010
1000
0001
0100
0010
0100
1000
0001
0010
0100
0010
1000
0001
0100
0010
0100
1000
0010
0100
0001
0010
,
0100
1000
0010
0100
0001
0100
0020
0000
0000
0000
0000
0000
0000
0000
0000
0000
0000
0000
0030
0000
0000
1000
0100
0010
,
0100
0001
0010
0100
0010
1000
0100
0010
0100
0001
0010
1000
0010
0100
0001
0100
0010
1000
0100
0010
0001
0100
0010
0001
,
0010
0100
1000
0010
0100
1000
0100
0010
0100
0001
0010
0100
1000
0100
0010
1000
0001
0100
0010
0100
1000
0010
0100
0001
,
0010
0100
1000
0010
0100
0010
1001
0000
0000
0000
0000
0000
0000
0000
0000
0000
0000
0000
0110
0000
0000
0000
0000
0000
,
0000
1010
0000
0101
,
0000
2002
0000
0000
,
0000
0000
0000
0000
0000
0000
0000
3003
1000
0010
0100
0000
0010
1000
0001
0000
0010
0001
0100
0000
1000
0010
0100
0000
0010
1000
0001
0000
0010
0001
0100
0000
,
1000
0010
0100
0000
0010
1000
0001
0000
0010
0001
0100
0000
1000
0001
0100
0000
0010
1000
0001
0000
0010
0001
0100
0000
1000
0010
0100
0000
0010
0000
1001
0000
,
0010
0001
0100
0000
1000
0010
0100
0000
0010
0100
0001
0000
0010
0001
0100
0000
1000
0010
0100
0000
0010
1000
0001
0000
0010
0001
0100
0000
1000
0010
0100
0000
,
0010
1000
0001
0000
0010
0001
0100
0000
1000
0010
0100
0000
0010
0000
0100
0000
1000
0000
0100
0000
0001
0000
0000
0000
0010
0000
0001
0000
0010
0000
0100
0000
,
1000
0000
0000
0000
0100
0010
0010
0010
0010
0010
0010
0010
1000
1000
0001
0001
,
0100
0100
0010
0010
1000
0001
0001
0001
0100
0001
0001
0001
0010
0010
0100
0100
,
0010
0010
1000
1000
0100
0010
0100
0010
1000
0001
1000
0001
0100
0010
0100
0010
,
1000
0001
1000
0001
0100
0010
0100
0010
1000
0100
0100
0100
0010
0001
0001
0001
,
0010
0100
0100
0100
1001
0000
0000
0000
1001
0000
0000
0000
1001
0000
0000
0000
,
0100
0100
0010
0010
0100
0100
0001
0001
0100
0100
1000
0000
0010
0000
1001
0000
,
0000
0000
0000
0000
0010
0100
0010
0001
1000
0100
1000
0010
0001
0010
0001
0100
,
1000
0000
0100
0000
1000
0000
0001
0000
0010
0000
0010
0000
0010
0000
0010
0000
1000
0010
1000
0000
0001
0000
0001
0000
0100
0000
0100
0000
0100
0000
0100
0000
,
1000
0000
0000
0000
0000
0000
0010
0000
0000
0000
0000
0000
1000
0000
0000
0000
0000
0000
0000
0000
0000
0000
0000
0000
0001
0000
0000
0000
0000
0000
0000
0000
0000
0000
0000
0000
0001
0000
0000
0000
0000
0000
0000
0000
0000
0000
0000
0000
1000
0000
0000
0000
0000
0000
0000
0000
0000
0000
0000
0000
0100
0000
0000
0000
0000
0000
0000
0000
0000
0000
0000
0000
0010
0000
0000
0000
0001
0000
0000
0000
0010
0000
0000
0000
0100
0000
0000
0000
0000
0000
0000
0000
0000
0000
0000
0000
0010
0000
0000
0000
0000
0000
0000
0000
0000
0000
0000
0000
1000
0000
0000
0000
0000
0000
0000
0000
0000
0000
0000
0000
0100
0000
0000
0000
0010
0000
0000
0000
0100
0000
0000
0000
0001
0000
0000
0000
0000
0000
0000
0000
0000
0000
0000
0000
0010
0000
0000
0000
0000
0000
0000
0000
0100
0000
0000
0000
0000
0000
0000
0000
1000
0000
0000
0000
0000
0000
0000
0000
0001
0000
0000
0000
0000
0000
0000
0000
0010
0000
0000
0000
0000
0000
0000
0000
0100
0000
0000
0000
0000
0000
0000
0000
,
0010
0001
1000
0100
0010
0001
0100
0010
0001
0010
0100
1000
0010
0100
0001
1000
0010
0100
0001
0010
1000
0100
1000
0010
,
0100
0000
0001
0000
0010
0000
0100
0000
0001
0000
1000
0000
0100
0000
0000
0000
0000
0000
0010
0000
0000
0000
0000
0000
0010
0000
0000
0000
0000
0000
0010
0000
0000
0100
0000
0000
1000
0000
0000
0001
0000
0000
0010
0000
0000
0001
0000
0000
,
1000
0000
1000
0100
0010
0000
0001
0000
0010
0000
0100
0000
0020
0000
0000
0000
,
0000
0000
0000
0000
1030
0100
0010
0100
0001
1000
0010
0100
1000
0100
0010
0001
,
0010
0100
1000
0100
0010
0100
0001
0010
1000
0010
0100
0001
0010
1000
0100
0010
,
0001
0100
0010
1000
0100
0010
0100
0001
1000
0010
1000
0100
0001
1000
0010
0100
,
0001
1000
0100
0001
0010
0100
1000
0010
0100
1000
0100
0001
0010
0100
0010
1000
,
0001
0010
0100
1000
0010
0100
0010
0001
1000
0010
0100
0001
0010
0100
1000
0010
,
0100
0010
1000
0001
0100
0010
1000
0100
0010
0001
0100
0010
1000
0001
0100
0010
,
1000
0100
0001
0010
0100
1000
0010
0100
0001
1000
0010
0100
0010
1000
0001
0100
,
0010
0100
0010
1000
0001
0100
0010
0100
1000
0001
0100
0010
1000
0000
0000
0000
,
0000
0000
0000
0000
1010
0100
1010
0001
1010
0100
1001
0100
1010
0100
1010
0001
,
1010
0100
1001
0100
1010
0100
1010
0001
1010
0100
1001
0100
1001
0100
1010
0100
,
1001
0000
0000
0000
0101
1000
0011
1000
0011
0100
1001
0100
0011
1000
0011
0100
,
1001
0100
0011
1000
0011
0100
0011
1000
0101
1000
0011
1000
0101
1000
0011
0100
,
1001
0000
0000
0000
1001
0010
0101
0010
0101
1000
0110
1000
0011
1000
0101
1000
,
0101
0010
0101
1000
0101
0010
1001
0010
0101
1000
0101
0010
1001
0010
0101
1000
,
0011
0000
0000
0000
1010
0100
1001
0010
1001
0100
1001
0010
1001
0100
1001
0010
,
0101
0010
1001
0100
1001
0010
1001
0100
1010
0100
1001
0010
0101
0010
1001
0100
,
1001
0000
1100
1010
0000
1001
0000
0000
,
1001
0000
0000
0000
1010
0000
0000
0000
1010
0000
0000
0000
0000
0000
0000
0000
1010
0000
0000
0000
0100
0010
0000
0000
0000
0000
0000
0000
0000
0000
0000
0000
,
1100
0110
0011
0000
0011
0110
0000
1001
,
0110
1001
0110
1001
0000
1100
0110
1100
,
0101
0000
0010
0000
1000
0100
0010
1000
0001
0100
0010
1000
0100
0010
0001
0100
,
0010
1000
0100
0010
0001
0100
0010
1000
0001
0100
0010
0100
0001
0100
0010
1000
,
0100
0010
1000
0100
0010
0100
0001
0010
0100
1000
0001
0100
1000
0010
0100
1000
,
0100
0010
0001
0100
0010
1000
0001
0100
0010
1000
0100
0001
0010
0100
0001
0100
,
1000
0100
0010
0100
1001
0010
0101
0010
1010
0100
0011
1000
0011
0100
1010
0001
,
1100
0010
1001
0010
1100
0001
0110
0001
1010
0100
0101
0010
1001
0100
1010
0001
,
0110
0000
0000
0000
1001
0010
0101
0010
1010
0100
1010
0001
0011
0100
1001
0010
,
1100
0001
1100
0010
0101
1000
0011
0100
0011
1000
0110
0010
1001
0100
0011
0100
,
1100
0000
0000
0000
1001
1000
1100
0001
0110
0001
1100
0001
0101
0010
1100
0010
,
1100
0001
1010
0100
0011
0010
0101
1000
1010
0001
0110
0010
0101
1000
1010
0001
,
1010
0000
0000
0000
1100
0010
0101
1000
0110
1000
0011
0100
1001
0100
1100
0001
,
0101
0010
0011
1000
0101
1000
0011
0001
0110
1000
0011
0100
1100
0001
0110
0010
,
1001
0000
0000
0000
1000
0010
0100
0001
1000
0010
0100
0001
0010
0100
1000
0001
,
0010
1000
0010
0100
0001
0100
0001
0010
0100
1000
0001
0100
0010
1000
0100
0010
,
0001
0010
0100
1000
0010
0100
1000
0010
0100
0001
0010
0100
1000
0010
0100
0001
,
1000
0100
0010
0001
0100
1000
0010
1000
0100
0010
0001
0100
0010
1000
0010
0100
,
0001
0100
1000
0010
0100
0001
1000
0010
0100
1000
0010
0100
0001
1000
0100
0010
,
0001
0100
0001
0010
1000
0100
0010
1000
0010
0100
0001
0010
1000
0100
0010
0001
,
0100
0010
1000
0001
0100
0010
1000
0100
0010
0001
0010
0100
1000
0010
0100
0001
,
0010
0100
1000
0010
0100
0001
0010
0100
1000
0010
0100
0001
0010
0100
1000
0010
,
0100
0001
0010
1000
0010
0100
0001
0100
0010
1000
0100
0010
0001
0010
0100
1000
,
0010
0100
0001
0100
1000
0010
0100
0001
0100
0010
1000
0010
0100
0001
0100
0010
,
0100
0010
1000
0100
0001
0010
0100
1000
0001
0100
0010
1000
0010
0001
0100
0010
,
0001
1000
0010
0100
1000
0010
0001
0100
1000
0010
0100
1000
0100
0010
0001
0100
,
1000
0010
1000
0100
1000
0001
0010
0001
1000
0100
0001
1000
0010
1000
0001
0100
,
1000
0100
0001
0100
1000
0010
0100
0001
0100
0010
1000
0010
0100
0001
0100
0010
,
0100
1000
0100
0001
0100
0010
1000
0010
0100
0001
0010
0100
1000
0100
0010
0001
,
1000
0100
0001
0100
1000
0010
0100
0001
0100
0010
1000
0010
0100
0001
0100
0010
,
1000
0010
1000
0100
1010
0001
0010
0001
1000
0100
0011
0100
1000
0100
0010
0001
,
1010
0100
0001
0100
1001
0010
0100
0001
0100
0010
1001
0010
0100
0001
0100
0010
,
0101
1000
0100
0001
1100
0010
1000
0010
0100
0001
1010
0100
1000
0100
0010
0001
,
1010
0100
0001
0100
1001
0010
0100
0001
0100
0010
1001
0010
0100
0001
0100
0010
,
1001
0010
1000
0100
1010
0001
0010
0001
1000
0100
0011
0100
1000
0100
0010
0001
,
1010
0100
0001
0100
1001
0010
0100
0001
0100
0010
1001
0010
0100
0001
0100
0010
,
0101
1000
0100
0001
1100
0010
0100
0010
0100
0001
1010
0100
0001
0100
0010
0001
,
1000
0100
0001
0100
1000
0010
0100
0001
0100
0010
1000
0010
0100
0001
0100
0010
,
1000
0010
1000
0100
1010
0001
0010
0001
1000
0100
0011
0100
1000
0100
0010
0001
,
1010
0100
0001
0100
1001
0010
0100
0001
0100
0010
1001
0010
0100
0001
0100
0010
,
0101
1000
0100
0001
1100
0010
1000
0010
0100
0001
1010
0100
1000
0100
0010
0001
,
1010
0100
0001
0100
1001
0010
0100
0001
0100
0010
1001
0010
0100
0001
0100
0010
,
1100
0010
1000
0100
1010
0001
0010
0001
1000
0100
0011
0100
1000
0100
0010
0001
,
1010
0100
0001
0100
1001
0010
0100
0001
0100
0010
1001
0010
0100
0001
0100
0010
,
1001
0010
1000
0100
1010
0001
0010
0001
1000
0100
0011
0100
1000
0100
0010
0001
,
0100
0010
1000
0001
0100
1000
0010
0100
0001
0010
1000
0010
0100
0001
0010
0100
,
1000
0010
1000
0100
1000
0001
0010
0001
1010
0100
0001
0100
1010
0100
0010
0001
,
1010
0100
0001
0100
1001
0010
0100
0001
1100
0010
1001
0010
0100
0001
0100
0010
,
0101
1000
0100
0001
1100
0010
1000
0010
1100
0001
1010
0100
1000
0100
1010
0001
,
0010
0100
0001
0100
1001
0010
0100
0001
0100
0010
1000
0010
0100
0001
0100
0010
,
1000
0010
1000
0100
1000
0001
0010
0001
1010
0100
0001
0100
1010
0100
0010
0001
,
1010
0100
0001
0100
1001
0010
0100
0001
1100
0010
1001
0010
0100
0001
0100
0010
,
1001
0010
1000
0100
1010
0001
0010
0001
1010
0100
0011
0100
1000
0100
1010
0001
,
0100
0010
1000
0001
0110
1000
0010
0100
0001
0010
1000
0010
1000
0001
0010
0100
,
1001
0010
1000
0100
1000
0001
0010
0001
1010
0100
0001
0100
1010
0100
0010
0001
,
1010
0100
0001
0100
1001
0010
0100
0001
1100
0010
1001
0010
0100
0001
1100
0010
,
0100
1000
0100
0001
1100
0010
1000
0010
1100
0001
1010
0100
1000
0100
1010
0001
,
0010
0100
0001
0100
1001
0010
0100
0001
1100
0010
1001
0010
0100
0001
0100
0010
,
1001
0010
1000
0100
1010
0001
0010
0001
1000
0100
0011
0100
1000
0100
0010
0001
,
1010
0100
0001
0100
1001
0010
0100
0001
0100
0010
1100
0010
0100
0001
0100
0010
,
1001
0100
0010
0001
1010
0000
0000
0000
0000
0000
0101
0000
0000
0000
0000
0000
,
0110
0000
0000
0000
1010
0100
1000
0100
0010
1000
0101
0010
0100
0001
0010
0100
,
1001
0000
0000
0000
0011
0100
1000
0010
0001
0100
0010
1000
0100
0001
0100
0010
,
1000
0100
1000
0001
0110
1000
0001
0100
0001
1000
0010
1000
0010
0100
0010
1000
,
0010
0100
1000
0010
0101
0010
0001
0100
1000
0010
0100
0001
0010
0100
1000
0001
,
0010
1000
0010
0100
1001
0010
0100
1000
0100
0010
0001
0010
0001
1000
0100
0010
,
0001
0100
1000
0010
1001
0100
0010
1000
0001
0100
0010
1000
0100
0010
0001
0010
,
0100
1000
0100
0010
1100
0010
0001
0010
0100
1000
0010
0100
0001
1000
0010
0100
,
0001
1000
0100
0001
0110
1000
0001
0010
0100
1000
0001
0100
0001
1000
0010
0001
,
1000
0100
0001
1000
0110
0001
1000
0100
1000
0001
1000
0010
0001
0100
0001
1000
,
0100
0010
0100
0001
1100
0001
0100
1000
0010
0001
1000
0100
0001
0010
0001
1000
,
0100
0001
0100
0010
1001
0100
0010
0001
0010
0100
1000
0100
1000
0001
1000
0100
,
1000
0001
0100
1000
0011
1000
0010
0001
0100
1000
0001
0010
1000
0001
0100
0010
,
1000
0100
1000
0001
0110
1000
0001
0100
0001
1000
0010
1000
0010
0100
0001
1000
,
0010
0001
0100
1000
0110
0001
1000
0100
0010
0001
1000
0100
0001
1000
0010
1000
,
0001
0100
0001
1000
0011
1000
0010
1000
0001
0100
1000
0001
0010
0100
1000
0001
,
0010
0100
1000
0100
1001
0010
0100
0001
1000
0010
0100
1000
0100
0010
0001
0100
,
0010
1000
0010
1000
0110
1000
0100
0001
0100
1000
0010
0100
0001
0100
0010
1000
,
0010
0100
0010
1000
0011
1000
0010
0100
0010
1000
0010
1000
0010
0100
0001
0100
,
0001
1000
0001
0100
0011
0100
0010
1000
0001
0100
0010
1000
0001
0100
0010
1000
,
0010
0100
0010
1000
0011
0100
0010
1000
0010
0100
0010
1000
0001
0100
0010
1000
,
0001
0100
0010
1000
0110
0000
0000
0000
0000
0000
0001
0000
0000
0000
0000
0000
,
0010
0000
0000
0000
1001
0100
0010
0100
0001
0010
1001
0100
0010
0001
0100
0010
,
1100
0001
0100
1000
0101
0010
0001
0100
0010
1000
0011
0100
0001
0100
0001
1000
,
0011
0100
0001
1000
0110
0001
1000
0001
0010
1000
0110
0001
1000
0010
0001
1000
,
0101
0010
0001
0100
0011
1000
0010
0001
1000
0100
1000
0001
1100
0010
0100
0010
,
1100
0010
0100
0010
0101
1000
0100
1000
0100
0001
1100
0010
1000
0100
0001
1000
,
0011
0100
0010
1000
0110
0001
1000
0100
1000
0010
0001
1000
0101
0010
0100
1000
,
0101
0010
0001
0100
1001
0010
1000
0010
0100
1000
0101
0010
1000
0100
0010
1000
,
0011
0100
0010
0001
0110
1000
0100
0010
1000
0001
1100
0010
0100
0010
0100
0001
,
1100
0010
0100
0001
1010
0100
0001
0100
1000
0001
1010
0100
0001
1000
0100
0001
,
0110
1000
0100
0010
1100
0001
1000
0100
0001
0010
1001
0100
1000
0100
1000
0010
,
1001
0100
1000
0010
1100
0001
0010
0001
1000
0100
0011
1000
0001
0010
0100
0001
,
1100
0010
1000
0001
1010
0100
0001
0010
0001
1000
0100
0001
1100
0010
1000
0010
,
0101
0010
1000
0010
0101
0010
1000
0010
0100
1000
0101
0010
1000
0100
0010
1000
,
0011
0100
0010
0001
0110
1000
0100
0010
1000
0001
1000
0010
1100
0010
0100
0001
,
1100
0010
0100
0001
1010
0100
0001
0100
1000
0001
1010
0100
0001
1000
0100
0001
,
0110
1000
0100
0010
1100
0001
1000
0100
0001
0010
1001
0100
1000
0100
1001
0010
,
0001
0100
1000
0001
0110
1000
0001
1000
0001
1000
0001
1000
0101
1000
0001
1000
,
0001
1000
0001
1000
0101
1000
0001
1000
0001
1000
0001
1000
0101
1000
0001
1000
,
0001
1000
0001
1000
0110
0000
0110
0000
0110
0000
0000
0000
0110
0000
0110
0000
,
0110
0000
0000
0000
1000
0100
0010
0001
1000
0100
0010
0001
1000
0100
0010
0001
,
1000
0100
0010
0001
1000
0100
0010
0001
1000
0100
0010
0001
1000
0100
0010
0001
,
1000
0100
0010
0001
1000
2002
0000
0000
0000
0000
0000
0000
0000
0000
0000
0000
,
0000
0000
0000
0000
,
0000
0000
0000
0000
,
0000
0000
0000
0000
,
0000
0000
0000
0000
,
0000
0000
0000
0000
0000
0000
0000
0000
0000
0000
0000
0000
0000
0000
0000
3113
,
0000
0110
0000
0000
0000
0000
0000
0000
0000
0000
0000
0000
0000
0000
0000
0000
;
