#TITLE:We Luv Lama;
#SUBTITLE:;
#ARTIST:DJ Sharpnel;
#TITLETRANSLIT:;
#SUBTITLETRANSLIT:;
#ARTISTTRANSLIT:;
#CREDIT:;
#BANNER:we luv bn.png;
#BACKGROUND:we luv bg.png;
#LYRICSPATH:;
#CDTITLE:;
#MUSIC:We Luv Lama.ogg;
#OFFSET:0.540;
#SAMPLESTART:133.898;
#SAMPLELENGTH:18.284;
#SELECTABLE:YES;
#BPMS:0.000=210.000;
#STOPS:;
#BGCHANGES:;
// cache tags:
#FIRSTBEAT:4.000;
#LASTBEAT:1140.000;
#SONGFILENAME:Songs/SHARPNELSTREAMZ v2/We Luv Lama/We Luv Lama.sm;
#HASMUSIC:1;
#HASBANNER:1;
#MUSICLENGTH:326.347;
// end cache tags

//---------------dance-single - 17 (Zaia)----------------
#NOTES:
     dance-single:
     17 (Zaia):
     Medium:
     17:
     1.000,1.000,0.113,0.463,1.000,3144.000,37.000,151.000,0.000,2.000:
0000
0000
0000
0000
,
1000
0000
0001
0100
0001
0000
1000
0001
,
0010
0001
1000
0000
0100
0000
0010
0100
,
1000
0000
0001
1000
0001
0000
0000
0000
0100
0000
0000
0000
0001
0000
1000
0000
,
0100
0000
0000
0000
0010
0000
0000
0000
0100
0000
1000
0001
0100
0000
0001
0000
,
1001
0000
1000
0001
0100
0000
0010
1000
,
0100
0010
0001
0000
1000
0000
0001
0010
,
0100
0000
1000
0001
0100
0000
0010
0000
,
1000
0000
0000
0001
0000
0000
0100
0000
0110
0000
0000
0000
0110
0000
0000
0000
,
0010
1000
0010
0000
0100
0000
0001
0100
0001
0100
0001
0000
1000
0000
0100
0010
,
0100
0010
0100
0000
0010
0000
0001
1000
0001
1000
0001
0000
0100
0000
0010
1000
,
0010
1000
0010
0000
0100
0000
0001
0100
0001
0100
0001
0000
1000
0000
0100
0010
,
0100
0010
0100
0000
0010
0000
0001
1000
0001
1000
0001
0000
0100
0000
0001
0010
,
0001
0010
0001
0000
1000
0000
0100
1000
0100
1000
0100
0000
1000
0000
0001
0100
,
0001
0100
0001
0000
1000
0000
0100
0010
0100
0010
0100
0000
1000
0000
0010
0100
,
0010
0100
0010
0000
0100
0000
0001
1000
0001
1000
0001
0000
1000
0000
0001
0010
,
0001
0000
0000
1000
0000
0000
0001
0000
0100
0000
0020
0000
2030
0000
3002
0000
,
1003
0010
1000
0010
1000
0001
1000
0001
1000
0100
1000
0001
1000
0100
0010
0001
,
1000
0010
1000
0010
1000
0001
1000
0001
1000
0100
1000
0001
1000
0100
0010
0001
,
1000
0010
1000
0010
1000
0001
1000
0001
1000
0100
1000
0001
1000
0100
0010
0001
,
1000
0010
1000
0010
1000
0001
1000
0001
1000
0100
1000
0001
1000
0100
0010
0001
,
1000
0100
1000
0100
1000
0001
1000
0001
1000
0010
1000
0001
1000
0010
0100
0001
,
1000
0100
1000
0100
1000
0001
1000
0001
1000
0010
1000
0001
1000
0010
0100
0001
,
1000
0100
1000
0100
1000
0001
1000
0001
1000
0010
1000
0001
1000
0010
0100
0001
,
1000
0100
1000
0100
1000
0001
1000
0001
1000
0010
1000
0001
1000
0010
0100
0001
,
1000
0001
0100
0001
0100
0001
1000
0001
1000
0001
0010
0001
1000
0001
0010
0100
,
1000
0001
0100
0001
0100
0001
1000
0001
1000
0001
0010
0001
1000
0001
0010
0100
,
1000
0001
0100
0001
0100
0001
1000
0001
1000
0001
0010
0001
1000
0001
0010
0100
,
1000
0001
0100
0001
0100
0001
1000
0001
1000
0001
0010
0001
1000
0001
0010
0100
,
1000
0001
0010
0001
0010
0001
1000
0001
1000
0001
0100
0001
1000
0001
0100
0010
,
1000
0001
0010
0001
0010
0001
1000
0001
1000
0001
0100
0001
1000
0001
0100
0010
,
1000
0001
0010
0100
1000
0001
1000
0100
0010
0001
1000
0100
1000
0001
0010
0100
,
1000
0000
0000
1000
0000
0000
1000
0000
1001
0000
0002
0000
0203
0000
0320
0000
,
1030
0001
0010
0010
1000
0001
0010
0010
,
1000
0001
0010
0010
1000
0001
0010
0010
,
1000
0001
0010
0010
1000
0001
0010
0010
,
1000
0001
0010
0010
1000
0001
0010
0001
,
0100
0100
1000
0001
0100
0100
1000
0001
,
0100
0100
1000
0001
0100
0100
1000
0001
,
0100
0100
1000
0001
0100
0100
1000
0001
,
0100
0000
0010
0100
0001
0000
0010
0001
0100
0000
0010
1000
0100
0000
0010
0001
,
1000
0010
0010
0001
1000
0100
0100
0001
,
1000
0010
0010
0001
1000
0100
0100
0001
,
1000
0010
0010
0001
1000
0100
0100
0001
,
1000
0001
0010
0001
1000
0001
0010
0001
,
1000
0001
0100
0100
1000
0001
0010
0010
,
1000
0001
0100
0100
1000
0001
0010
0010
,
1000
0001
0100
0100
1000
0001
0010
0001
,
1001
0000
1000
0010
0101
0100
0001
0100
,
0010
1000
0010
1000
0001
0100
0001
0100
0001
1000
0010
0100
0001
1000
0010
0100
,
0001
1000
0001
1000
0100
0010
0100
0010
0001
1000
0100
0010
0001
1000
0100
0010
,
0001
1000
0010
1000
0010
0100
0001
0100
0001
1000
0010
0100
0001
1000
0010
0100
,
0001
1000
0001
1000
0100
0010
0100
0010
0001
1000
0100
0010
0001
1000
0100
0010
,
0001
1000
0010
1000
0010
0100
0001
0100
0001
1000
0010
0100
0001
1000
0010
0100
,
0001
1000
0001
1000
0100
0010
0100
0010
0001
1000
0100
0010
0001
1000
0100
0010
,
0001
1000
0010
1000
0010
0100
0001
0100
0001
1000
0010
0100
0001
1000
0010
0100
,
0001
1000
0001
1000
0100
0010
0100
0010
0001
1000
0100
0010
0001
1000
0100
0010
,
0001
0010
0001
0010
0100
1000
0100
1000
0001
0100
0010
1000
0001
0100
0010
1000
,
0001
0100
0001
0100
0010
1000
0010
1000
0001
0010
0100
1000
0001
0010
0100
1000
,
0001
1000
0001
1000
0010
0100
0010
0100
0001
1000
0100
0010
0001
1000
0100
0010
,
0001
1000
0001
1000
0100
0010
0100
0010
0001
1000
0010
0100
0001
1000
0010
1000
,
0001
0010
0001
0010
0100
1000
0100
1000
0001
0100
0010
1000
0001
0100
0010
1000
,
0001
0100
0001
0100
0010
1000
0010
1000
0001
0010
0100
1000
0001
0010
0100
1000
,
0001
1000
0001
1000
0010
0100
0010
0100
0001
1000
0100
0010
0001
1000
0100
0010
,
0001
1000
0001
1000
0100
0010
0100
0010
0001
1000
0010
0100
0001
1000
0010
0100
,
0001
0000
0000
0000
,
2000
3000
0000
0000
0000
0000
0000
0000
0000
0000
0000
0000
0000
0000
0000
0000
,
0002
0003
0000
0000
0020
0030
0000
0000
0002
0003
0000
0000
1000
0010
1000
0001
,
2000
3000
0000
0000
0000
0000
0000
0000
0000
0000
0000
0000
0200
0300
0200
0300
,
0200
0300
0000
0000
0000
0000
0000
0000
1000
0010
1000
0001
1000
0010
1000
0001
,
2000
3000
0000
0000
0000
0000
0000
0000
0000
0000
0000
0000
0000
0000
0000
0000
,
0002
0003
0000
0000
0002
0003
0000
0000
0020
0030
0000
0000
0001
0010
0001
1000
,
0002
0003
0000
0000
0000
0000
0000
0000
0000
0000
0000
0000
2000
3000
0020
0030
,
2000
3000
0000
0000
0000
0000
0000
0000
0001
0010
0001
1000
0001
0010
0001
1000
,
0002
0003
0000
0000
0000
0000
0000
0000
0000
0000
0000
0000
0000
0000
0000
0000
,
0200
0300
0000
0000
0020
0030
0000
0000
2000
3000
0000
0000
0001
0010
0001
1000
,
0002
0003
0000
0000
0000
0000
0000
0000
0000
0000
0000
0000
0100
0000
0100
0000
,
0002
0003
0000
0000
0000
0000
0000
0000
1000
0010
1000
0001
1000
0010
1000
0001
,
2000
3000
0000
0000
0000
0000
0000
0000
0000
0000
0000
0000
0000
0000
0000
0000
,
0200
0300
0000
0000
0020
0030
0000
0000
2000
3000
0000
0000
0001
0010
0001
1000
,
0002
0003
0000
0000
0000
0000
0000
0000
0000
0000
0000
0000
0002
0003
2000
3000
,
0002
0003
0000
0000
0000
0000
0000
0000
1000
0010
1000
0001
1000
0010
1000
0001
,
2000
0000
0000
0000
,
0002
0003
0000
0000
0002
0003
0000
0000
0020
0030
0000
0000
3001
0010
0001
1000
,
0002
0000
0000
0000
0000
0000
0000
0000
0000
0000
0000
0000
2003
3000
0020
0030
,
2000
0000
0000
0000
0000
0000
0000
0000
3001
0010
0001
1000
0001
0010
0001
1000
,
0002
0003
0000
0000
0000
0000
0000
0000
0000
0000
0000
0000
0000
0000
0000
0000
,
2000
3000
0000
0000
2000
3000
0000
0000
0020
0030
0000
0000
1000
0010
1000
0001
,
2000
0000
0000
0000
0000
0000
0000
0000
0000
0000
0000
0000
3002
0003
0200
0300
,
0002
0000
0000
0000
0000
0000
0000
0000
1003
0010
1000
0001
1000
0010
1000
0001
,
2000
0000
0000
0000
,
0200
0300
0000
0000
0200
0300
0000
0000
0002
0003
0000
0000
3001
0010
0001
1000
,
0002
0000
0000
0000
0000
0000
0000
0000
0000
0000
0000
0000
0203
0300
0020
0030
,
0200
0000
0000
0000
0000
0000
0000
0000
0301
0010
0001
1000
0001
0010
0001
1000
,
0002
0000
0000
0000
,
0200
0300
0000
0000
0200
0300
0000
0000
2000
3000
0000
0000
1003
0010
1000
0001
,
2000
0000
0000
0000
0000
0000
0000
0000
0000
0000
0000
0000
3002
0003
2000
3000
,
0002
0000
0000
0000
0000
0000
0000
0000
1003
0010
1000
0001
1000
0010
1000
0001
,
2000
0000
0000
0000
,
0000
0000
0000
0000
,
3200
0000
2300
0000
,
3020
0000
0230
0000
,
0302
0000
0000
0000
,
0000
0000
0000
0000
,
2003
0000
0000
0000
,
0000
0000
3200
0320
,
0032
0000
0000
0000
,
0203
0000
0302
0000
,
2003
0000
0000
0000
,
3200
0000
0000
0000
,
0320
0000
0000
0000
,
0032
0003
0000
0000
0002
0003
0000
0000
0020
0030
0000
0000
0001
0010
0001
1000
,
0002
0003
0000
0000
0000
0000
0000
0000
0000
0000
0000
0000
2000
3000
2000
3000
,
0002
0003
0000
0000
0000
0000
0000
0000
1000
0010
1000
0001
1000
0010
1000
0001
,
2000
3000
0000
0000
0000
0000
0000
0000
0000
0000
0000
0000
0002
0003
2000
3000
,
0002
0003
0000
0000
0000
0000
0000
0000
0002
0003
0000
0000
0000
0000
0000
0000
,
0002
0003
0000
0000
0000
0000
0000
0000
0000
0000
0000
0000
0000
0000
0000
0000
,
0000
0000
0000
0000
,
1000
0001
0010
0100
1000
0001
1000
0100
1000
0001
0010
0001
1000
0001
0010
0100
,
0010
0001
1000
0001
1000
0100
0010
0100
1000
0001
0010
0100
1000
0001
1000
0001
,
0100
0010
1000
0010
0100
0001
1000
0010
1000
0001
0010
0100
0010
0001
1000
0001
,
0100
0001
1000
0010
0100
0001
1000
0001
1000
0100
1000
0001
0010
0100
1000
0001
,
0100
0010
1000
0001
1000
0010
0100
0001
1000
0001
0100
0010
1000
0001
0100
0010
,
0100
0010
1000
0001
1000
0010
0100
0001
0100
0010
1000
0001
0100
0001
0100
0010
,
1000
0100
0010
0100
1000
0001
1000
0100
0010
0001
0010
0001
1000
0100
1000
0001
,
0010
0100
1000
0100
0010
0001
1000
0001
0100
0001
1000
0010
1000
0001
0010
0001
,
1000
0010
0100
0001
0100
0010
1000
0001
1000
0010
0100
0001
0100
0010
1000
0001
,
0100
0001
0010
0100
1000
0100
0010
0001
1000
0010
0100
0001
1000
0010
0100
0010
,
1000
0100
0010
0100
1000
0001
0010
0001
1000
0100
0010
0100
1000
0001
1000
0001
,
0100
0001
0100
0010
1000
0010
0100
0001
1000
0010
1000
0001
0100
0001
1000
0010
,
1000
0001
0010
0001
0010
0100
1000
0001
1000
0010
0100
0010
0100
0001
1000
0100
,
1000
0001
0010
0001
0010
0100
1000
0001
0100
0010
1000
0010
1000
0001
0100
0010
,
0100
0001
1000
0001
1000
0100
0010
0001
1000
0100
0010
0100
0010
0001
1000
0001
,
0100
0010
1000
0001
1000
0100
0010
0001
1000
0010
0100
0001
1000
0100
0010
0001
,
1000
0001
0100
0010
1000
0001
1000
0010
1000
0001
0100
0001
1000
0001
0100
0010
,
0100
0001
1000
0001
1000
0010
0100
0010
1000
0001
0100
0010
1000
0001
1000
0001
,
0010
0100
1000
0100
0010
0001
1000
0100
1000
0001
0100
0010
0100
0001
1000
0001
,
0010
0001
1000
0100
0010
0001
1000
0001
1000
0010
1000
0001
0100
0010
1000
0001
,
0010
0100
1000
0001
1000
0100
0010
0001
1000
0001
0010
0100
1000
0001
0010
0100
,
0010
0100
1000
0001
1000
0100
0010
0001
0010
0100
1000
0001
0010
0001
0010
0100
,
1000
0010
0100
0010
1000
0001
1000
0010
0100
0001
0100
0001
1000
0010
1000
0001
,
0100
0010
1000
0010
0100
0001
1000
0001
0010
0001
1000
0100
1000
0001
0100
0001
,
1000
0100
0010
0001
0010
0100
1000
0001
1000
0100
0010
0001
0010
0100
1000
0001
,
0010
0001
0100
0010
1000
0010
0100
0001
1000
0100
0010
0001
1000
0100
0010
0100
,
1000
0010
0100
0010
1000
0001
0100
0001
1000
0010
0100
0010
1000
0001
1000
0001
,
0010
0001
0010
0100
1000
0100
0010
0001
1000
0100
1000
0001
0010
0001
1000
0100
,
1000
0001
0100
0001
0100
0010
1000
0001
1000
0100
0010
0100
0010
0001
1000
0010
,
1000
0001
0100
0001
0100
0010
1000
0001
0010
0100
1000
0100
1000
0001
0010
0100
,
0010
0001
1000
0001
1000
0010
0100
0001
1000
0010
0100
0010
0100
0001
1000
0001
,
0010
0100
1000
0001
0100
0010
0100
0001
1000
0100
0010
0100
1000
0001
0100
0010
,
0100
0001
0010
0100
1000
0001
1000
0100
1000
0001
0010
0001
1000
0001
0010
0100
,
0010
0001
1000
0001
1000
0100
0010
0100
1000
0001
0010
0100
1000
0001
1000
0001
,
0100
0010
1000
0010
0100
0001
1000
0010
1000
0001
0010
0100
0010
0001
1000
0001
,
0100
0001
1000
0010
0100
0001
1000
0001
1000
0100
1000
0001
0010
0100
1000
0001
,
0100
0010
1000
0001
1000
0010
0100
0001
1000
0001
0100
0010
1000
0001
0100
0010
,
0100
0010
1000
0001
1000
0010
0100
0001
0100
0010
1000
0001
0100
0001
0100
0010
,
1000
0100
0010
0100
1000
0001
1000
0100
0010
0001
0010
0001
1000
0100
1000
0001
,
0010
0100
1000
0100
0010
0001
1000
0001
0100
0001
1000
0010
1000
0001
0010
0001
,
1000
0010
0100
0001
0100
0010
1000
0001
1000
0010
0100
0001
0100
0010
1000
0001
,
0100
0001
0010
0100
1000
0100
0010
0001
1000
0010
0100
0001
1000
0010
0100
0010
,
1000
0100
0010
0100
1000
0001
0010
0001
1000
0100
0010
0100
1000
0001
1000
0001
,
0100
0001
0100
0010
1000
0010
0100
0001
1000
0010
1000
0001
0100
0001
1000
0010
,
1000
0001
0010
0001
0010
0100
1000
0001
1000
0010
0100
0010
0100
0001
1000
0100
,
1000
0001
0010
0001
0010
0100
1000
0001
0100
0010
1000
0010
1000
0001
0100
0010
,
0100
0001
1000
0001
1000
0100
0010
0001
1000
0100
0010
0100
0010
0001
1000
0001
,
0100
0010
1000
0001
1000
0100
0010
0001
1000
0010
0100
0001
1000
0100
0010
0001
,
1000
0001
0100
0010
1000
0001
1000
0010
1000
0001
0100
0001
1000
0001
0100
0010
,
0100
0001
1000
0001
1000
0010
0100
0010
1000
0001
0100
0010
1000
0001
1000
0001
,
0010
0100
1000
0100
0010
0001
1000
0100
1000
0001
0100
0010
0100
0001
1000
0001
,
0010
0001
1000
0100
0010
0001
1000
0001
1000
0010
1000
0001
0100
0010
1000
0001
,
0010
0100
1000
0001
1000
0100
0010
0001
1000
0001
0010
0100
1000
0001
0010
0100
,
0010
0100
1000
0001
1000
0100
0010
0001
0010
0100
1000
0001
0010
0001
0010
0100
,
1000
0010
0100
0010
1000
0001
1000
0010
0100
0001
0100
0001
1000
0010
1000
0001
,
0100
0010
1000
0010
0100
0001
1000
0001
0010
0001
1000
0100
1000
0001
0100
0001
,
1000
0010
0100
0001
1000
0010
0100
0001
1000
0100
0010
0001
1000
0100
0010
0001
,
1000
0010
0100
0001
1000
0010
0100
0001
1000
0100
0010
0001
1000
0100
0010
0001
,
1000
0010
0100
0001
0100
0010
1000
0001
1000
0100
0010
0001
1000
0001
0010
0100
,
1000
0001
0100
0010
1000
0010
0100
0001
1000
0100
1000
0001
0010
0100
1000
0001
,
0020
0030
0000
0000
0000
0000
0000
0000
0000
0000
0000
0000
0200
0300
0000
0000
0000
0000
0000
0000
0000
0000
0000
0000
2000
3000
0000
0000
0000
0000
0000
0000
0002
0003
0000
0000
0000
0000
0000
0000
0000
0000
0000
0000
0200
0300
0000
0000
0000
0000
0000
0000
0000
0000
0000
0000
0020
0030
0000
0000
0000
0000
0000
0000
,
0200
0300
0000
0000
0000
0000
0000
0000
0000
0000
0000
0000
0002
0003
0000
0000
0000
0000
0000
0000
0000
0000
0000
0000
0020
0030
0000
0000
0000
0000
0000
0000
0200
0300
0000
0000
0000
0000
0000
0000
0000
0000
0000
0000
0020
0030
0000
0000
0000
0000
0000
0000
0000
0000
0000
0000
0002
0003
0000
0000
0000
0000
0000
0000
,
2000
0000
0000
0000
3000
0000
0000
0000
0000
0000
0000
0000
0000
0000
0000
0000
0000
0000
0000
0000
0000
0000
0000
0000
0000
0000
0000
0000
0000
0000
0000
0000
0000
0000
0000
0000
0020
0000
0000
0000
0030
0000
0000
0000
0000
0000
0000
0000
0000
0000
0000
0000
0000
0000
0000
0000
0000
0000
0000
0000
0000
0000
0000
0000
0000
0000
0000
0000
0000
0000
0000
0000
0200
0000
0000
0000
0000
0000
0300
0000
0000
0000
0000
0000
0000
0000
0000
0000
0000
0000
0000
0000
0000
0000
0000
0000
0002
0000
0000
0000
0000
0000
0003
0000
0000
0000
0000
0000
0000
0000
0000
0000
0000
0000
0000
0000
0000
0000
0000
0000
0000
0000
0000
0000
0000
0000
0000
0000
0000
0000
0000
0000
2000
0000
0000
0000
0000
0000
0000
0000
3000
0000
0000
0000
0000
0000
0000
0000
0000
0000
0000
0000
0000
0000
0000
0000
0000
0000
0000
0000
0000
0000
0000
0000
0000
0000
0000
0000
0200
0000
0000
0000
0000
0000
0000
0000
0300
0000
0000
0000
0000
0000
0000
0000
0000
0000
0000
0000
0000
0000
0000
0000
,
0020
0000
0000
0030
0000
0000
0000
0000
0000
0200
0000
0000
0300
0000
0000
0000
0000
0000
2000
0000
0000
0000
3000
0000
0020
0000
0000
0000
0030
0000
0000
0000
0000
0200
0000
0000
0000
0000
0000
0300
0000
0000
0002
0000
0000
0000
0000
0000
,
1003
0010
1000
0001
1000
0000
0100
0000
0010
0001
1000
0001
0010
0000
0001
1000
,
0010
0100
0010
1000
0001
0000
1000
0000
0100
1000
0001
1000
0100
0000
0010
0001
,
1000
0001
0100
0010
1000
0000
0001
0000
0010
0100
0010
0001
0010
0000
0100
1000
,
0001
1000
0010
1000
0001
0000
0100
0000
0010
1000
0010
0100
0001
0000
2000
0000
,
3001
0010
0001
1000
0001
0000
0100
0000
0010
1000
0001
1000
0010
0000
1000
0001
,
0010
0100
0010
0001
1000
0000
0001
0000
0100
0001
1000
0001
0100
0000
0010
1000
,
0001
1000
0100
0010
0001
0000
1000
0000
0010
0100
0010
1000
0010
0000
0100
0001
,
1000
0001
0010
0001
1000
0000
0100
0000
0010
0001
0010
0100
1000
0000
0020
0000
,
0130
0000
0001
0100
0001
0000
1000
0010
,
1000
0100
1000
0000
1001
0000
0001
0100
,
0010
0000
1000
0001
1000
0000
0000
0000
1100
0000
0000
0000
0010
0000
0001
0000
,
0010
0000
0001
2000
3020
0230
0320
0230
,
1301
0000
1000
0010
1000
0000
0001
1000
,
0100
0010
0001
0000
1100
0000
0100
1000
,
0010
0000
0100
0001
0010
0000
0100
0000
,
1000
0000
0000
0001
0000
0000
1000
0000
1001
0000
0000
0000
1001
0000
0000
0000
,
0001
0100
0001
0100
0010
1000
0010
1000
0001
0100
0010
1000
0001
0100
0010
1000
,
0001
0010
0001
0010
0100
1000
0100
1000
0001
0010
0100
1000
0001
0010
0100
1000
,
0001
1000
0001
1000
0001
0100
0010
0100
0010
1000
0001
0100
0010
1000
0001
0100
,
0010
1000
0001
1000
0001
0010
0100
0010
0100
1000
0100
0010
0001
1000
0100
0010
,
0001
0010
0001
0010
0100
1000
0100
1000
0001
0010
0100
1000
0001
0010
0100
1000
,
0001
0100
0001
0100
0010
1000
0010
1000
0001
0100
0010
1000
0001
0100
0010
1000
,
0001
1000
0001
1000
0001
0010
0100
0010
0100
1000
0001
0010
0100
1000
0001
0010
,
0100
1000
0001
1000
0001
0100
0010
0100
0010
1000
0010
0100
0001
1000
0010
0100
,
0001
1000
0010
0100
0001
1000
0010
0100
0001
0100
0010
1000
0001
0100
0010
1000
,
0001
0010
0100
0010
0001
1000
0001
1000
0100
0010
0001
1000
0001
0010
0100
1000
,
0001
0100
0010
0100
0001
1000
0010
1000
0001
0100
0001
1000
0010
0100
0001
1000
,
0001
0010
0001
1000
0100
0010
0100
1000
0001
0010
0100
1000
0001
0010
0001
1000
,
0001
0100
0010
0100
0001
1000
0010
0100
0001
0100
0010
1000
0001
0100
0010
1000
,
0001
0010
0100
0010
0001
1000
0001
1000
0100
0010
0001
1000
0001
0010
0100
1000
,
0001
0100
0010
0100
0001
1000
0010
1000
0001
0100
0001
1000
0010
0100
0001
1000
,
0001
0010
0001
1000
0100
0010
0100
1000
0001
0010
0100
1000
0001
0010
0001
1000
,
0001
0010
0001
1000
0001
0010
0001
0100
,
0010
1000
0010
0100
0001
1000
0010
1000
,
0001
0010
0100
0010
0001
1000
0100
0010
,
0001
0000
0100
0000
0010
0000
1000
0000
0010
0000
0100
0001
1000
0000
0001
0000
,
0010
0001
0100
0001
0010
0001
1000
0001
,
1000
0100
1000
0010
1000
0100
1000
0001
,
1000
0010
0100
0010
1000
0100
0010
0100
,
1000
0000
0001
0100
0001
0000
1000
0100
1000
0000
0001
0010
0001
0000
1000
0001
,
1000
0010
1000
0100
1000
0001
0010
0100
,
1000
0010
1000
0100
0010
0001
0100
0010
,
1000
0001
0100
0010
0100
0001
1000
0100
,
0010
0000
0100
0000
1000
0000
0001
0000
1000
0000
0010
0100
0001
0000
1000
0000
,
0001
0010
0001
1000
0001
0010
0001
1000
,
0001
0100
0010
0100
0001
0100
0010
0100
,
0001
0010
0001
1000
0001
0010
0001
1000
,
0001
0000
1000
0100
1000
0000
0001
0100
0001
0000
1000
0010
1000
0000
0001
1000
,
0001
0100
0001
1000
0001
0100
0001
0010
,
0100
1000
0100
0010
0001
1000
0100
1000
,
0001
0100
0010
0100
0001
1000
0010
0100
,
0001
0000
0010
0000
0100
0000
1000
0000
0100
0000
0010
0001
1000
0000
0001
0000
,
0100
0001
0010
0001
0100
0001
1000
0001
,
1000
0010
1000
0100
1000
0010
1000
0001
,
1000
0100
0010
0100
1000
0010
0100
0010
,
1000
0000
0001
0010
0001
0000
1000
0010
1000
0000
0001
0100
0001
0000
1000
0001
,
1000
0100
1000
0010
1000
0001
0100
0010
,
1000
0100
1000
0010
0100
0001
0010
0100
,
1000
0001
0010
0100
0010
0001
1000
0010
,
0100
0000
0010
0000
1000
0000
0001
0000
1000
0000
0100
0010
0001
0000
1000
0000
,
0001
0100
0001
1000
0001
0100
0001
1000
,
0001
0010
0100
0010
0001
0010
0100
0010
,
0001
1000
0010
0100
0001
0100
0010
1000
0001
1000
0010
0100
0001
0100
0001
1000
,
0001
0000
1000
0010
1000
0000
0001
0010
0001
0000
1000
0010
1000
0000
0001
0000
,
1000
0001
0100
0010
1000
0001
1000
0010
1000
0001
0100
0001
1000
0001
0100
0010
,
0100
0001
1000
0001
1000
0010
0100
0010
1000
0001
0100
0010
1000
0001
1000
0001
,
0010
0100
1000
0100
0010
0001
1000
0100
1000
0001
0100
0010
0100
0001
1000
0001
,
0010
0001
1000
0100
0010
0001
1000
0001
1000
0010
1000
0001
0100
0010
1000
0001
,
0010
0100
1000
0001
1000
0100
0010
0001
1000
0001
0010
0100
1000
0001
0010
0100
,
0010
0100
1000
0001
1000
0100
0010
0001
0010
0100
1000
0001
0010
0001
0010
0100
,
1000
0010
0100
0010
1000
0001
1000
0010
0100
0001
0100
0001
1000
0010
1000
0001
,
0100
0010
1000
0010
0100
0001
1000
0001
0010
0001
1000
0100
1000
0001
0100
0001
,
1000
0100
0010
0001
0010
0100
1000
0001
1000
0100
0010
0001
0010
0100
1000
0001
,
0010
0001
0100
0010
1000
0010
0100
0001
1000
0100
0010
0001
1000
0100
0010
0100
,
1000
0010
0100
0010
1000
0001
0100
0001
1000
0010
0100
0010
1000
0001
1000
0001
,
0010
0001
0010
0100
1000
0100
0010
0001
1000
0100
1000
0001
0010
0001
1000
0100
,
1000
0001
0100
0001
0100
0010
1000
0001
1000
0100
0010
0100
0010
0001
1000
0010
,
1000
0001
0100
0001
0100
0010
1000
0001
0010
0100
1000
0100
1000
0001
0010
0100
,
0010
0001
1000
0001
1000
0010
0100
0001
1000
0010
0100
0010
0100
0001
1000
0001
,
0010
0100
1000
0001
0100
0010
0100
0001
1000
0100
0010
0100
1000
0001
0100
0010
,
0100
0001
0010
0100
1000
0001
1000
0100
1000
0001
0010
0001
1000
0001
0010
0100
,
0010
0001
1000
0001
1000
0100
0010
0100
1000
0001
0010
0100
1000
0001
1000
0001
,
0100
0010
1000
0010
0100
0001
1000
0010
1000
0001
0010
0100
0010
0001
1000
0001
,
0100
0001
1000
0010
0100
0001
1000
0001
1000
0100
1000
0001
0010
0100
1000
0001
,
0100
0010
1000
0001
1000
0010
0100
0001
1000
0001
0100
0010
1000
0001
0100
0010
,
0100
0010
1000
0001
1000
0010
0100
0001
0100
0010
1000
0001
0100
0001
0100
0010
,
1000
0100
0010
0100
1000
0001
1000
0100
0010
0001
0010
0001
1000
0100
1000
0001
,
0010
0100
1000
0100
0010
0001
1000
0001
0100
0001
1000
0010
1000
0001
0010
0001
,
1000
0010
0100
0001
0100
0010
1000
0001
1000
0010
0100
0001
0100
0010
1000
0001
,
0100
0001
0010
0100
1000
0100
0010
0001
1000
0010
0100
0001
1000
0010
0100
0010
,
1000
0100
0010
0100
1000
0001
0010
0001
1000
0100
0010
0100
1000
0001
1000
0001
,
0100
0001
0100
0010
1000
0010
0100
0001
1000
0010
1000
0001
0100
0001
1000
0010
,
0200
0300
0000
0000
0000
0000
0000
0000
0000
0000
0000
0000
0020
0030
0000
0000
0000
0000
0000
0000
0000
0000
0000
0000
2000
3000
0000
0000
0000
0000
0000
0000
0002
0003
0000
0000
0000
0000
0000
0000
0000
0000
0000
0000
0020
0030
0000
0000
0000
0000
0000
0000
0000
0000
0000
0000
0200
0300
0000
0000
0000
0000
0000
0000
,
0020
0030
0000
0000
0000
0000
0000
0000
0000
0000
0000
0000
0002
0003
0000
0000
0000
0000
0000
0000
0000
0000
0000
0000
0200
0300
0000
0000
0000
0000
0000
0000
0020
0030
0000
0000
0000
0000
0000
0000
0000
0000
0000
0000
0200
0300
0000
0000
0000
0000
0000
0000
0000
0000
0000
0000
0002
0003
0000
0000
0000
0000
0000
0000
,
2000
0000
0000
0000
3000
0000
0000
0000
0000
0000
0000
0000
0000
0000
0000
0000
0000
0000
0000
0000
0000
0000
0000
0000
0000
0000
0000
0000
0000
0000
0000
0000
0000
0000
0000
0000
0200
0000
0000
0000
0300
0000
0000
0000
0000
0000
0000
0000
0000
0000
0000
0000
0000
0000
0000
0000
0000
0000
0000
0000
0000
0000
0000
0000
0000
0000
0000
0000
0000
0000
0000
0000
0020
0000
0000
0000
0000
0000
0030
0000
0000
0000
0000
0000
0000
0000
0000
0000
0000
0000
0000
0000
0000
0000
0000
0000
0002
0000
0000
0000
0000
0000
0003
0000
0000
0000
0000
0000
0000
0000
0000
0000
0000
0000
0000
0000
0000
0000
0000
0000
0000
0000
0000
0000
0000
0000
0000
0000
0000
0000
0000
0000
2000
0000
0000
0000
0000
0000
0000
0000
3000
0000
0000
0000
0000
0000
0000
0000
0000
0000
0000
0000
0000
0000
0000
0000
0000
0000
0000
0000
0000
0000
0000
0000
0000
0000
0000
0000
0020
0000
0000
0000
0000
0000
0000
0000
0030
0000
0000
0000
0000
0000
0000
0000
0000
0000
0000
0000
0000
0000
0000
0000
,
0200
0000
0000
0300
0000
0000
0000
0000
0000
0020
0000
0000
0030
0000
0000
0000
0000
0000
2000
0000
0000
0000
3000
0000
0200
0000
0000
0000
0300
0000
0000
0000
0000
0020
0000
0000
0000
0000
0000
0030
0000
0000
0002
0000
0000
0000
0000
0000
,
1013
0000
0000
0110
0000
0000
0101
0000
1001
0000
0000
1100
0000
0000
0011
0000
,
0110
0000
0000
1001
0000
0000
0101
0000
0110
0000
0000
1010
0000
0000
1100
0000
,
0011
0000
0000
1100
0000
0000
0110
0000
1001
0000
0000
0101
0000
0000
1010
0000
,
1001
0000
0000
1100
0000
0000
0110
0000
0011
0000
0000
1001
0000
0000
0101
0000
,
0110
0000
0000
0000
;

//---------------dance-single - 19- (@@TYLR)----------------
#NOTES:
     dance-single:
     19- (@@TYLR):
     Challenge:
     19:
     1.000,1.000,0.003,0.260,1.000,3771.000,1.000,85.000,0.000,0.000:
0000
0000
0000
0000
,
1000
0100
0010
0000
0100
0000
1000
0001
1000
0010
1000
0000
0001
0000
0010
0100
,
1000
0100
0010
0000
0001
0000
1000
0010
0100
0010
1000
0000
0001
0000
0010
0100
,
1000
0100
0010
0001
0100
0000
0001
1000
0010
1000
0001
0000
1000
0000
0100
0010
,
0001
0010
0100
0000
1000
0000
0001
0100
0010
0100
0001
0000
0010
0000
0100
1000
,
0010
0100
0001
0000
1000
0000
0100
0010
0001
0010
0100
0000
1000
0000
0001
0100
,
0010
1000
0010
0000
1000
0000
0001
0010
0100
1000
0100
0000
1000
0000
0001
0100
,
0010
0100
0001
0000
1000
0000
0100
0010
0100
1000
0001
0000
1000
0000
0010
0100
,
0001
1000
0001
0000
1000
0000
0100
0010
0100
1000
0010
0000
0100
0000
0001
0010
,
0100
1000
0100
0000
1000
0000
0001
0100
0001
1000
0001
0000
1000
0000
0100
0010
,
0100
1000
0100
0000
0010
0000
0001
1000
0010
0100
0010
0000
1000
0000
0001
0010
,
0100
0010
0001
0000
1000
0000
0001
0100
0010
1000
0010
0000
1000
0000
0001
0010
,
0100
0010
0001
0000
1000
0000
0010
0100
0010
1000
0001
0010
0100
0000
0010
0000
,
0001
0100
0010
0000
1000
0000
0001
0010
0100
0010
0001
0000
1000
0000
0010
0100
,
0010
1000
0001
0000
1000
0000
0100
0010
0100
1000
0001
0000
1000
0000
0010
0100
,
0001
1000
0001
0000
0010
0000
0100
1000
0001
1000
0100
0000
1000
0000
0001
0100
,
0010
0000
0000
0010
0000
0000
1000
0000
1001
0000
0002
0000
0023
0000
0230
0000
,
1300
0100
0010
0001
1000
0100
1000
0001
0010
0100
1000
0001
0010
0001
1000
0100
,
1000
0001
0100
0010
0100
0001
1000
0010
1000
0001
0100
0010
1000
0010
0100
0001
,
1000
0100
0010
0001
1000
0001
0010
0100
1000
0001
0010
0001
1000
0100
0010
0001
,
1000
0010
1000
0001
0100
0010
0100
0001
1000
0010
1000
0100
0010
0001
1000
0100
,
1000
0001
0100
0001
1000
0010
0100
0010
1000
0001
1000
0010
0100
0001
1000
0001
,
0010
0100
1000
0100
0010
0001
1000
0100
1000
0001
0010
0100
1000
0001
0010
0001
,
1000
0010
0100
0010
1000
0001
0100
0001
1000
0010
1000
0001
0100
0010
0100
0001
,
1000
0100
0010
0100
1000
0001
1000
0010
0100
0001
1000
0001
0010
0100
1000
0001
,
1000
0010
0100
0001
1000
0010
1000
0001
0100
0010
1000
0001
0100
0001
1000
0010
,
1000
0001
0010
0100
0010
0001
1000
0100
1000
0001
0010
0100
1000
0100
0010
0001
,
1000
0010
0100
0001
1000
0001
0100
0010
1000
0001
0100
0001
1000
0010
0100
0001
,
1000
0100
1000
0001
0010
0100
0010
0001
1000
0100
1000
0010
0100
0001
1000
0010
,
1000
0001
0010
0001
1000
0100
0010
0100
1000
0001
1000
0100
0010
0001
1000
0001
,
0100
0010
1000
0010
0100
0001
1000
0010
1000
0001
0100
0010
1000
0001
0100
0001
,
1000
0100
0010
0100
1000
0001
0010
0001
1000
0100
1000
0001
0010
0100
0010
0001
,
1000
0100
0010
0100
1000
0001
0100
0010
1000
0001
0010
0001
0100
0010
1000
0100
,
1000
0010
0100
0001
1000
0001
1000
0100
0010
0100
1000
0001
0100
0001
0010
0100
,
0010
0001
0010
0100
1000
0001
1000
0010
0100
0010
1000
0001
0010
0001
1000
0100
,
0010
0001
1000
0001
0100
0010
0100
0001
0010
0100
1000
0001
0100
0010
1000
0100
,
0010
0100
1000
0001
0100
0001
0010
0100
1000
0100
0010
0100
1000
0001
0100
0010
,
1000
0010
0100
0001
1000
0001
1000
0100
0010
0100
1000
0001
0100
0001
0010
0100
,
0010
0001
0010
0100
1000
0001
1000
0010
0100
0010
1000
0001
0010
0001
1000
0100
,
0010
0001
1000
0001
0100
0010
0100
0001
0010
0100
1000
0001
0100
0010
1000
0100
,
0010
0100
1000
0001
0100
0001
0010
0100
1000
0100
0010
0100
1000
0001
0100
0010
,
1000
0010
0100
0001
1000
0001
1000
0100
0010
0100
1000
0001
0100
0001
0010
0100
,
0010
0001
0010
0100
1000
0001
1000
0010
0100
0010
1000
0001
0010
0001
1000
0100
,
0010
0001
1000
0001
0100
0010
0100
0001
0010
0100
1000
0001
0100
0010
1000
0100
,
0010
0100
1000
0001
0100
0001
0010
0100
1000
0100
0010
0100
1000
0001
1000
0010
,
1000
0100
0010
0001
1000
0001
1000
0010
0100
0010
1000
0001
0010
0001
0100
0010
,
0100
0001
0100
0010
1000
0001
1000
0100
0010
0100
1000
0001
0100
0001
1000
0010
,
0100
0001
1000
0001
0010
0100
0010
0001
0100
0010
1000
0001
0010
0100
1000
0010
,
0100
0000
0010
0010
1000
0002
0023
0230
,
1300
0001
1000
0001
0010
0001
1000
0100
1000
0001
0100
0001
1000
0100
0010
0001
,
1000
0010
0100
0010
1000
0001
0100
0001
1000
0100
0010
0001
1000
0010
0100
0010
,
1000
0001
0010
0100
0010
0001
1000
0100
1000
0001
0100
0010
1000
0001
0010
0001
,
1000
0010
1000
0001
0100
0010
1000
0001
1000
0100
0010
0001
0100
0010
1000
0001
,
1000
0100
0010
0100
1000
0001
0010
0100
1000
0001
0100
0001
1000
0100
0010
0100
,
1000
0001
0100
0001
1000
0010
0100
0001
1000
0100
1000
0001
0100
0010
1000
0001
,
1000
0100
0010
0001
1000
0100
1000
0001
0100
0010
0100
0001
1000
0100
0010
0001
,
1000
0010
1000
0001
0100
0001
1000
0010
1000
0001
0010
0001
0100
0010
1000
0100
,
1000
0001
0100
0010
0100
0001
1000
0010
1000
0001
0010
0001
1000
0010
0100
0001
,
1000
0100
0010
0100
1000
0001
0010
0001
1000
0010
0100
0001
1000
0100
0010
0100
,
1000
0001
0100
0010
0100
0001
1000
0010
1000
0001
0010
0100
1000
0001
0100
0001
,
1000
0100
1000
0001
0010
0100
1000
0001
1000
0010
0100
0001
0010
0100
1000
0001
,
1000
0010
0100
0010
1000
0001
0100
0010
1000
0001
0010
0001
1000
0010
0100
0010
,
1000
0001
0010
0001
1000
0100
0010
0001
1000
0010
1000
0001
0010
0100
1000
0001
,
1000
0010
0100
0001
1000
0010
1000
0001
0010
0100
0010
0001
1000
0010
0100
0001
,
1000
0100
1000
0010
0100
0001
0010
0100
1000
0010
0100
0010
1000
0100
0010
0001
,
1000
0000
0000
0000
,
2000
3000
0000
0000
0000
0000
0000
0000
0000
0000
0000
0000
0000
0000
0000
0000
,
2000
3000
0000
0000
2000
3000
0000
0000
0010
0000
0000
0000
0100
0001
0010
0001
,
2000
3000
0000
0000
0000
0000
0000
0000
0000
0000
0000
0000
2000
3000
0002
0003
,
2000
3000
0000
0000
0000
0000
0000
0000
0001
1000
0010
1000
0100
1000
0010
1000
,
0002
0003
0000
0000
0000
0000
0000
0000
0000
0000
0000
0000
0000
0000
0000
0000
,
0002
0003
0000
0000
0002
0003
0000
0000
0100
0000
0000
0000
0010
1000
0001
1000
,
0200
0300
0000
0000
0000
0000
0000
0000
0000
0000
0000
0000
0020
0030
0002
0003
,
0020
0030
0000
0000
0000
0000
0000
0000
0001
1000
0010
0100
0001
0010
0100
1000
,
0002
0003
0000
0000
0000
0000
0000
0000
0000
0000
0000
0000
0000
0000
0000
0000
,
0002
0003
0000
0000
0002
0003
0000
0000
0100
0000
0000
0000
0010
1000
0100
1000
,
0002
0003
0000
0000
0000
0000
0000
0000
0000
0000
0000
0000
0002
0003
2000
3000
,
0002
0003
0000
0000
0000
0000
0000
0000
1000
0001
0010
0001
0100
0001
0010
0001
,
2000
3000
0000
0000
0000
0000
0000
0000
0000
0000
0000
0000
0000
0000
0000
0000
,
2000
3000
0000
0000
2000
3000
0000
0000
0010
0000
0000
0000
0100
0001
0010
0001
,
2000
3000
0000
0000
0000
0000
0000
0000
0000
0000
0000
0000
2000
3000
0002
0003
,
2000
3000
0000
0000
0000
0000
0000
0000
0001
1000
0100
1000
0010
1000
0100
1000
,
0002
0000
0000
0000
,
2000
3000
0000
0000
2000
3000
0003
0000
0001
0000
0000
0000
1000
0001
1000
0010
,
0200
0000
0000
0000
0000
0000
0000
0000
0320
0000
0000
0000
2000
3000
2000
3030
,
0002
0000
0000
0000
0000
0000
0000
0000
1003
0010
1000
0100
1000
0001
1000
0100
,
0020
0000
0000
0000
,
0002
0003
0000
0000
0002
0003
0030
0000
0010
0000
0000
0000
0001
0010
0100
1000
,
0002
0000
0000
0000
0000
0000
0000
0000
0000
0000
0000
0000
0200
0300
0200
0300
,
0200
0300
0000
0000
0000
0000
0003
0000
0100
0010
1000
0001
1000
0100
0010
0001
,
2000
0000
0000
0000
,
3200
0000
0000
0000
0020
0030
0000
0000
2300
0000
0000
0000
3001
1000
0001
0010
,
0200
0000
0000
0000
0000
0000
0000
0000
0000
0000
0000
0000
0020
0030
0020
0330
,
0002
0000
0000
0000
0000
0000
0000
0000
1003
0001
0010
0001
0100
0001
0010
0001
,
2000
0000
0000
0000
,
0002
0003
0000
0000
0002
0003
3000
0000
1000
0000
0000
0000
0001
0100
0010
0100
,
0002
0000
0000
0000
0000
0000
0000
0000
0000
0000
0000
0000
2000
3000
2000
3000
,
2000
3000
0000
0000
0000
0000
0003
0000
0001
1000
0100
1000
0001
1000
0100
1000
,
0002
0000
0000
0000
,
0000
0000
0000
0000
,
2003
0000
3020
0000
,
0230
0000
0302
0000
,
0023
0000
0000
0000
,
0000
0000
0000
0000
,
0230
0000
0000
0000
,
0000
0000
2300
3002
,
0203
0000
0000
0000
,
0302
0000
2003
0000
,
3200
0000
0000
0000
,
0320
0000
0000
0000
,
0031
1000
0100
0010
0001
1000
0001
0010
0100
1000
0001
0010
0001
1000
0100
1000
,
0001
0100
0001
1000
0100
0010
0100
1000
0001
0100
0010
1000
0001
0100
0001
1000
,
0100
0010
0001
1000
0100
1000
0001
0010
0001
1000
0100
1000
0001
0010
0001
0100
,
0001
1000
0010
0100
0010
1000
0001
1000
0100
0010
0001
1000
0100
1000
0001
0010
,
0002
0003
0000
0000
0000
0000
0000
0000
0000
0000
0000
0000
0002
0003
2000
3000
,
0002
0003
0000
0000
0000
0000
0000
0000
2000
3000
0000
0000
0000
0000
0000
0000
,
2000
3000
0000
0000
0000
0000
0000
0000
0000
0000
0000
0000
0000
0000
0000
0000
,
0000
0000
0000
0000
0000
0000
0000
0000
0001
0000
1000
0100
0010
0001
0100
0010
,
1000
0001
0100
0001
1000
0010
0100
0001
1000
0100
0010
0100
1000
0001
0100
0001
,
1000
0010
0100
0010
1000
0001
0100
0001
1000
0100
0010
0001
1000
0010
0100
0010
,
1000
0100
0010
0001
1000
0001
0010
0100
1000
0010
0100
0001
1000
0001
0100
0010
,
1000
0100
1000
0001
0010
0001
1000
0100
1000
0010
0100
0001
1000
0001
0100
0010
,
1000
0100
0010
0001
1000
0100
1000
0001
1000
0010
0100
0001
1000
0100
0010
0001
,
1000
0100
1000
0001
0010
0100
1000
0001
0100
0010
0100
0001
1000
0100
0010
0001
,
0100
0010
1000
0001
0100
0001
1000
0010
1000
0001
0010
0100
1000
0001
0100
0001
,
1000
0010
0100
0001
0010
0001
1000
0100
1000
0010
0100
0001
0010
0100
1000
0010
,
0100
0001
1000
0010
0100
0010
1000
0001
1000
0100
0010
0100
1000
0001
0100
0001
,
0010
0100
1000
0001
1000
0100
0010
0001
0100
0010
1000
0010
0100
0001
0100
0010
,
1000
0100
0010
0001
1000
0001
0010
0100
1000
0001
0100
0001
1000
0100
0010
0001
,
0100
0010
0100
0001
1000
0010
0100
0001
1000
0001
0010
0100
1000
0001
0100
0010
,
1000
0001
0010
0100
1000
0001
1000
0100
1000
0001
0100
0001
1000
0100
0010
0001
,
1000
0100
1000
0001
0010
0001
1000
0001
0100
0010
1000
0001
1000
0100
0010
0100
,
1000
0001
0010
0100
1000
0001
0010
0001
1000
0010
1000
0001
0010
0100
0010
0001
,
1000
0100
0010
0001
0100
0010
1000
0010
0100
0001
0010
0001
0100
0010
1000
0001
,
1000
0100
0010
0001
1000
0100
1000
0001
0100
0010
0100
0001
1000
0001
0010
0001
,
1000
0100
0010
0100
1000
0001
0010
0001
1000
0010
0100
0001
1000
0100
0010
0100
,
1000
0010
0100
0001
1000
0001
0100
0010
1000
0100
0010
0001
1000
0001
0010
0100
,
1000
0010
1000
0001
0100
0001
1000
0010
1000
0100
0010
0001
1000
0001
0010
0100
,
1000
0010
0100
0001
1000
0010
1000
0001
1000
0100
0010
0001
1000
0010
0100
0001
,
1000
0010
1000
0001
0100
0010
1000
0001
0010
0100
0010
0001
1000
0010
0100
0001
,
0010
0100
1000
0001
0010
0001
1000
0100
1000
0001
0100
0010
1000
0001
0010
0001
,
1000
0100
0010
0001
0100
0001
1000
0010
1000
0100
0010
0001
0100
0010
1000
0100
,
0010
0001
1000
0100
0010
0100
1000
0001
1000
0010
0100
0010
1000
0001
0010
0001
,
0100
0010
1000
0001
1000
0010
0100
0001
0010
0100
1000
0100
0010
0001
0010
0100
,
1000
0010
0100
0001
1000
0001
0100
0010
1000
0001
0010
0001
1000
0010
0100
0001
,
0010
0100
0010
0001
1000
0100
0010
0001
1000
0001
0100
0010
1000
0001
0010
0100
,
1000
0001
0100
0010
1000
0001
1000
0010
1000
0001
0010
0001
1000
0010
0100
0001
,
1000
0010
1000
0001
0100
0001
1000
0001
0010
0100
1000
0001
1000
0010
0100
0010
,
1000
0001
0100
0010
1000
0001
0100
0001
1000
0100
1000
0001
0100
0010
0100
0001
,
1000
0010
1000
0100
0010
0001
1000
0100
1000
0001
0100
0001
0010
0100
1000
0001
,
1000
0010
0100
0001
0100
0010
1000
0001
0010
0100
0010
0001
1000
0010
0100
0010
,
1000
0001
0100
0001
1000
0010
1000
0001
0010
0100
1000
0001
1000
0010
0100
0010
,
1000
0100
0010
0001
1000
0001
0010
0100
1000
0010
0100
0010
1000
0001
0100
0001
,
0010
0100
1000
0001
0010
0001
1000
0100
1000
0010
0100
0001
1000
0001
0100
0010
,
1000
0100
0010
0001
1000
0100
1000
0001
0100
0010
0100
0001
1000
0100
0010
0001
,
1000
0100
0010
0100
1000
0001
0010
0100
1000
0001
0100
0001
1000
0100
0010
0001
,
0100
0010
1000
0001
0100
0001
1000
0010
1000
0001
0010
0001
1000
0010
0100
0001
,
0100
0010
1000
0100
1000
0001
0010
0001
0100
0010
1000
0001
1000
0010
0100
0001
,
0010
0100
1000
0001
1000
0100
0010
0001
1000
0010
1000
0001
0010
0100
0010
0001
,
0100
0010
1000
0010
0100
0001
0100
0010
1000
0100
0010
0001
1000
0100
0010
0100
,
1000
0010
0100
0001
0100
0010
1000
0001
0010
0100
1000
0001
1000
0010
0100
0001
,
0010
0100
1000
0001
1000
0100
0010
0001
1000
0010
0100
0010
1000
0001
0010
0100
,
1000
0010
0100
0001
1000
0010
1000
0001
0010
0100
0010
0001
1000
0010
0100
0001
,
0100
0010
1000
0001
0100
0010
0100
0001
1000
0100
0010
0001
1000
0010
0100
0001
,
1000
0010
1000
0001
0100
0001
1000
0010
1000
0001
0010
0001
1000
0010
1000
0001
,
1000
0010
0100
0001
0010
0100
0010
0001
0100
0010
1000
0100
1000
0001
0100
0010
,
1000
0100
0010
0001
0010
0100
1000
0001
0100
0010
0100
0001
1000
0100
0010
0100
,
1000
0001
0010
0001
1000
0100
1000
0001
0100
0010
1000
0001
1000
0100
0010
0100
,
1000
0010
0100
0001
1000
0001
0100
0010
1000
0100
0010
0100
1000
0001
0010
0001
,
0100
0010
1000
0001
0100
0001
1000
0010
1000
0100
0010
0001
1000
0001
0010
0100
,
1000
0010
0100
0001
1000
0010
1000
0001
0010
0100
0010
0001
1000
0010
0100
0001
,
1000
0010
0100
0010
1000
0001
0100
0010
1000
0001
0010
0001
1000
0010
0100
0001
,
0010
0100
1000
0001
0010
0001
1000
0100
1000
0001
0100
0001
1000
0100
0010
0001
,
0010
0100
1000
0010
1000
0001
0100
0001
0010
0100
1000
0001
1000
0100
0010
0001
,
0100
0010
1000
0001
1000
0010
0100
0001
1000
0100
1000
0001
0100
0010
0100
0001
,
0010
0100
1000
0100
0010
0001
0010
0100
1000
0010
0100
0001
1000
0010
0100
0010
,
1000
0100
0010
0001
0010
0100
1000
0001
0100
0010
1000
0001
1000
0100
0010
0001
,
0100
0010
1000
0001
1000
0010
0100
0001
1000
0100
0010
0100
1000
0001
0100
0010
,
1000
0100
0010
0001
1000
0100
1000
0001
0100
0010
0100
0001
1000
0010
1000
0001
,
0010
0100
1000
0001
0010
0100
0010
0001
1000
0010
0100
0001
1000
0001
0100
0010
,
1000
0100
1000
0001
0010
0001
1000
0100
1000
0010
0100
0010
1000
0001
0100
0001
,
0010
0100
0010
0001
1000
0100
0010
0001
0100
0010
0100
0001
1000
0010
1000
0001
,
1000
0100
0010
0000
0001
1000
0100
1000
0001
0100
0010
0000
1000
0000
0001
0100
,
0010
1000
0010
0000
0100
0001
0100
0010
1000
0001
0010
0000
0100
0000
1000
0001
,
0010
0100
0010
0000
0001
1000
0100
1000
0001
0100
0001
0000
1000
0000
0010
0100
,
0001
1000
0001
0000
1000
0010
0100
0001
1000
0100
1000
0000
0010
0000
1000
0000
,
0001
0010
0001
0000
1000
0100
0010
0100
1000
0001
0100
0000
0001
0000
1000
0010
,
0100
0001
0100
0000
0001
1000
0010
0100
0001
1000
0100
0000
0010
0000
0001
0010
,
0100
1000
0100
0000
0010
0001
1000
0100
1000
0001
0100
0000
0010
0000
1000
0001
,
0100
0001
1000
0000
0010
0100
0001
1000
0100
0010
0001
1000
0100
1000
0010
0100
,
0001
0100
0010
0000
1000
0001
0100
0001
1000
0100
0010
0000
0001
0000
1000
0100
,
0010
0001
0010
0000
0100
1000
0100
0010
0001
1000
0010
0000
0100
0000
0001
1000
,
0010
0100
0010
0000
1000
0001
0100
0001
1000
0100
1000
0000
0001
0000
0010
0100
,
1000
0001
1000
0000
0001
0010
0100
1000
0001
0100
0001
0000
0010
0000
0001
0000
,
1000
0010
1000
0000
0001
0100
0010
0100
0001
1000
0100
0000
1000
0000
0001
0010
,
0100
1000
0100
0000
1000
0001
0010
0100
1000
0001
0100
0000
0010
0000
1000
0010
,
0100
0001
0100
0000
0010
1000
0001
0100
0001
1000
0100
0000
0010
0000
0001
1000
,
0001
0000
0000
0001
0000
0000
1000
0000
0010
0000
0100
0000
0001
0000
0010
0000
,
0001
0100
0001
1000
0010
1000
0001
0100
0001
1000
0100
1000
0001
0100
0010
1000
,
0001
0010
0100
0010
0001
1000
0100
1000
0001
0100
0010
1000
0001
0010
0100
0010
,
0001
1000
0010
0100
0010
1000
0001
0100
0001
1000
0100
0010
0001
1000
0010
1000
,
0001
0010
0001
1000
0100
0010
0001
1000
0001
0100
0010
1000
0100
0010
0001
1000
,
0001
0100
0010
0100
0001
1000
0010
0100
0001
1000
0100
1000
0001
0100
0010
0100
,
0001
1000
0100
1000
0001
0010
0100
1000
0001
0100
0001
1000
0100
0010
0001
1000
,
0001
0100
0010
1000
0001
0100
0001
1000
0100
0010
0100
1000
0001
0100
0010
1000
,
0001
0010
0001
0100
0010
1000
0001
0100
0001
0010
0100
1000
0010
0100
0010
1000
,
0001
1000
0100
0010
0100
1000
0001
0010
0001
1000
0010
1000
0001
0010
0100
1000
,
0001
0100
0010
0100
0001
1000
0010
1000
0001
0010
0100
1000
0001
0100
0010
0100
,
0001
1000
0100
0010
0100
1000
0001
0010
0001
1000
0010
0100
0001
1000
0100
1000
,
0001
0100
0001
1000
0010
0100
0001
1000
0001
0010
0100
1000
0010
0100
0001
1000
,
0001
0010
0100
0010
0001
1000
0100
0010
0001
1000
0010
1000
0001
0010
0100
0010
,
0001
1000
0010
1000
0001
0100
0010
1000
0001
0010
0001
1000
0010
0100
0001
1000
,
0001
0010
0100
1000
0001
0010
0001
1000
0010
0100
0010
1000
0001
0010
0100
1000
,
0001
0100
0001
0010
0100
1000
0010
0100
0001
0010
0100
0010
0001
0100
0010
1000
,
0100
0010
0001
1000
0100
1000
0001
0010
0001
1000
0010
1000
0001
0010
0100
1000
,
0001
0010
0001
1000
0100
0010
0001
1000
0001
0100
0010
1000
0001
0010
0100
1000
,
0010
0100
0001
0100
0010
1000
0001
0100
0001
1000
0100
0010
0001
1000
0010
0100
,
0001
1000
0001
0100
0010
0100
0001
1000
0100
0010
0001
1000
0001
0100
0010
1000
,
0100
0010
0001
1000
0100
1000
0001
0010
0001
1000
0010
1000
0001
0010
0100
0010
,
0001
1000
0100
0010
0100
1000
0001
0010
0001
1000
0010
0100
0001
1000
0100
0010
,
0001
0100
0010
1000
0001
0100
0001
1000
0100
0010
0100
1000
0001
0100
0010
0100
,
0001
1000
0100
0010
0001
0100
0010
1000
0100
1000
0010
0100
0001
0100
0010
1000
,
0100
0010
0001
1000
0001
0010
0100
0010
0001
1000
0010
1000
0001
0010
0100
1000
,
0001
0010
0001
1000
0100
0010
0100
1000
0001
0100
0010
1000
0001
0010
0100
1000
,
0010
0100
0001
0100
0010
1000
0001
0100
0001
1000
0100
0010
0001
1000
0010
0100
,
0001
0100
0010
1000
0001
0100
0001
1000
0100
0010
0100
1000
0001
0100
0010
1000
,
0100
0010
0001
1000
0001
0010
0100
1000
0001
0100
0001
1000
0100
0010
0100
1000
,
0001
0010
0100
1000
0001
0010
0100
0010
0001
1000
0010
1000
0001
0010
0100
1000
,
0010
0100
0001
1000
0010
1000
0001
0100
0001
1000
0100
0010
0001
1000
0010
0100
,
0001
0100
0010
1000
0100
0010
0001
0100
0010
1000
0001
0100
0001
0010
0100
1000
,
0010
0100
0001
1000
0010
1000
0001
0100
0001
1000
0100
1000
0001
0100
0010
1000
,
0001
0100
0001
1000
0010
0100
0001
1000
0001
0010
0100
1000
0001
0100
0010
1000
,
0100
0010
0001
0010
0100
1000
0001
0010
0001
1000
0010
0100
0001
1000
0100
0010
,
0001
1000
0001
0010
0100
0010
0001
1000
0010
0100
0001
1000
0001
0010
0100
1000
,
0010
0100
0001
1000
0010
1000
0001
0100
0001
1000
0100
1000
0001
0100
0010
0100
,
0001
1000
0010
0100
0010
1000
0001
0100
0001
1000
0100
0010
0001
1000
0010
0100
,
0001
0010
0100
1000
0001
0010
0001
1000
0010
0100
0010
1000
0001
0010
0100
0010
,
0001
1000
0010
0100
0001
0010
0100
1000
0010
1000
0100
0010
0001
0010
0100
1000
,
0010
0100
0001
1000
0001
0100
0010
0100
0001
1000
0100
1000
0001
0100
0010
1000
,
0001
0100
0001
1000
0010
0100
0010
1000
0001
0010
0100
1000
0001
0100
0010
1000
,
0100
0010
0001
0010
0100
1000
0001
0010
0001
1000
0010
0100
0001
1000
0100
0010
,
0001
0010
0100
1000
0001
0010
0001
1000
0010
0100
0010
1000
0001
0010
0100
1000
,
0010
0100
0001
1000
0001
0100
0010
1000
0001
0010
0001
1000
0010
0100
0010
1000
,
0001
0100
0010
1000
0001
0100
0010
0100
0001
1000
0100
1000
0001
0100
0010
1000
,
0100
0010
0001
1000
0100
1000
0001
0010
0001
1000
0010
0100
0001
1000
0100
0010
,
0001
0010
0100
1000
0010
0100
0001
0010
0100
1000
0001
0010
0001
1000
0010
0100
,
0001
0010
0100
1000
0100
0010
0001
1000
0010
0100
0010
1000
0001
0010
0100
0010
,
0001
1000
0100
1000
0001
0010
0001
1000
0010
0100
0001
1000
0001
0010
0100
0010
,
0001
0100
0010
1000
0001
1000
0010
0100
0001
0010
0100
0010
0001
1000
0100
1000
,
0010
0100
0001
1000
0010
1000
0001
0100
0001
0010
0100
1000
0001
1000
0100
0010
,
0001
0100
0010
1000
0001
0100
0001
1000
0100
0010
0100
1000
0001
0100
0010
1000
,
0001
0100
0010
0100
0001
1000
0010
0100
0001
1000
0100
1000
0001
0100
0010
1000
,
0100
0010
0001
1000
0100
1000
0001
0010
0001
1000
0010
1000
0001
0010
0100
1000
,
0100
0010
0001
0100
0001
1000
0010
1000
0100
0010
0001
1000
0001
0010
0100
1000
,
0010
0100
0001
1000
0001
0100
0010
1000
0001
0010
0001
1000
0010
0100
0010
1000
,
0100
0010
0001
0010
0100
1000
0100
0010
0001
0100
0010
1000
0001
0100
0010
0100
,
0001
0010
0100
1000
0100
0010
0001
1000
0010
0100
0001
1000
0001
0010
0100
1000
,
0010
0100
0001
1000
0001
0100
0010
1000
0001
0010
0100
0010
0001
1000
0010
0100
,
0001
0010
0100
1000
0001
0010
0001
1000
0010
0100
0010
1000
0001
0010
0100
1000
,
0100
0010
0001
1000
0100
0010
0100
1000
0001
0100
0010
1000
0001
0010
0100
1000
,
0001
0010
0001
1000
0100
1000
0001
0010
0001
1000
0010
1000
0001
0010
0001
1000
,
0001
0010
0100
1000
0010
0100
0010
1000
0100
0010
0001
0100
0001
1000
0100
0010
,
0001
0100
0010
1000
0010
0100
0001
1000
0100
0010
0100
1000
0001
0100
0010
0100
,
0001
1000
0010
1000
0001
0100
0001
1000
0100
0010
0001
1000
0001
0100
0010
0100
,
0001
0010
0100
1000
0001
1000
0100
0010
0001
0100
0010
0100
0001
1000
0010
1000
,
0100
0010
0001
1000
0100
1000
0001
0010
0001
0100
0010
1000
0001
1000
0010
0100
,
0001
0010
0100
1000
0001
0010
0001
1000
0010
0100
0010
1000
0001
0010
0100
1000
,
0001
0010
0100
0010
0001
1000
0100
0010
0001
1000
0010
1000
0001
0010
0100
1000
,
0010
0100
0001
1000
0010
1000
0001
0100
0001
1000
0100
1000
0001
0100
0010
1000
,
0010
0100
0001
0010
0001
1000
0100
1000
0010
0100
0001
1000
0001
0100
0010
1000
,
0100
0010
0001
1000
0001
0010
0100
1000
0001
0100
0001
1000
0100
0010
0100
1000
,
0010
0100
0001
0100
0010
1000
0010
0100
0001
0010
0100
1000
0001
0010
0100
0010
,
0001
0100
0010
1000
0010
0100
0001
1000
0100
0010
0001
1000
0001
0100
0010
1000
,
0100
0010
0001
1000
0001
0010
0100
1000
0001
0100
0010
0100
0001
1000
0100
0010
,
0001
0100
0010
1000
0001
0100
0001
1000
0100
0010
0100
1000
0001
0010
0001
1000
,
0010
0100
0001
1000
0010
0100
0010
1000
0001
0010
0100
1000
0001
1000
0100
0010
,
0001
0100
0001
1000
0010
1000
0001
0100
0001
0010
0100
0010
0001
1000
0100
1000
,
0010
0100
0010
1000
0001
0100
0010
1000
0100
0010
0100
1000
0001
0010
0001
1000
,
0001
0010
0100
1000
0001
0010
0001
1000
0010
0100
0010
1000
0001
0100
0001
1000
,
0100
0010
0001
1000
0100
0010
0100
1000
0001
0100
0010
1000
0001
1000
0010
0100
,
0001
0010
0001
1000
0100
1000
0001
0010
0001
0100
0010
0100
0001
1000
0010
1000
,
0100
0010
0100
1000
0001
0010
0100
1000
0010
0100
0010
1000
0001
0100
0001
1000
,
0200
0000
0000
0000
,
0000
0000
0000
0000
,
0000
0000
0000
0000
,
0300
0000
0000
0000
;

//---------------dance-single - 18- (ZaiYLR)----------------
#NOTES:
     dance-single:
     18- (ZaiYLR):
     Hard:
     18:
     1.000,1.000,0.116,0.457,1.000,3414.000,38.000,149.000,28.000,2.000:
0000
0000
0000
0000
,
1001
0000
0001
0000
0100
0000
0001
1000
,
0010
1000
0001
0000
0100
0000
0010
0100
,
0001
0000
1000
0001
1000
0000
0000
0000
0100
0000
0000
0000
1000
0000
0001
0000
,
0100
0000
0000
0000
0000
0000
0010
0000
0000
0000
0000
0000
1000
0000
0000
0010
1000
0010
1000
0000
0000
0001
0000
0000
,
1001
0000
1000
0001
0100
0000
0010
0000
,
0100
0001
1000
0000
0001
0000
1000
0100
,
0010
0000
0001
1000
0100
0000
0010
0000
,
0001
0000
0000
1000
0000
0000
0010
0000
0110
0000
0000
0000
0110
0000
0000
0000
,
0010
1000
0010
0000
0100
0000
0001
0100
0001
0100
0001
0000
1000
0000
0100
0010
,
0100
0010
0100
0000
0010
0000
0001
1000
0001
1000
0001
0000
0100
0000
0010
1000
,
0010
1000
0010
0000
0100
0000
0001
0100
0001
0100
0001
0000
1000
0000
0100
0010
,
0100
0010
0100
0000
0010
0000
0001
1000
0001
1000
0001
0100
0010
0000
1000
0000
,
0001
1000
0100
0000
0010
0000
0001
0010
0001
0010
0001
0000
1000
0000
0001
0100
,
0001
0100
0001
0000
1000
0000
0100
0010
0100
0010
0100
0000
1000
0000
0010
0100
,
0010
0100
0010
0000
0100
0000
0001
1000
0001
1000
0001
0000
1000
0000
0001
0010
,
0001
0000
0000
1000
0000
0000
0001
0000
0100
0000
0020
0000
2030
0000
3002
0000
,
1003
0010
1000
0010
1000
0001
1000
0001
0100
0010
1000
0001
0100
0010
1000
0001
,
0100
0010
0100
0010
1000
0010
1000
0010
1000
0001
0010
0100
1000
0001
0010
0100
,
1000
0001
1000
0001
0100
0001
0100
0001
0010
0100
1000
0001
0010
0100
1000
0001
,
0100
0001
0100
0001
1000
0001
1000
0001
1000
0100
0010
0001
1000
0001
0100
0010
,
1000
0001
1000
0001
1000
0100
1000
0100
0010
0001
1000
0001
0100
0001
1000
0001
,
1000
0100
1000
0100
0010
0001
0010
0001
1000
0001
0100
0001
1000
0001
0010
0001
,
1000
0010
1000
0010
0100
0001
0100
0001
1000
0100
0010
0001
1000
0001
0010
0100
,
1000
0001
1000
0001
0100
0001
0100
0001
2000
0000
3000
0000
2000
0000
3000
0000
,
0001
0010
0001
0010
0001
1000
0001
1000
0100
0010
0001
1000
0100
0010
0001
1000
,
0100
0010
0100
0010
0001
0010
0001
0010
0001
1000
0010
0100
0001
1000
0010
0100
,
0001
1000
0001
1000
0100
1000
0100
1000
0010
0100
0001
1000
0010
0100
0001
1000
,
0100
1000
0100
1000
0001
1000
0001
1000
0001
0100
0010
1000
0001
1000
0100
0010
,
0001
1000
0001
1000
0001
0100
0001
0100
0010
1000
0001
1000
0100
1000
0001
1000
,
0001
0100
0001
0100
0010
1000
0010
1000
0001
1000
0100
1000
0001
1000
0010
1000
,
0100
0010
0100
1000
0001
1000
0001
0100
0010
1000
0001
0010
0100
0010
0001
0100
,
0010
1000
0100
1000
0010
0100
0001
0010
0100
1000
0002
0000
0203
0000
0320
0000
,
1030
0001
1000
0000
0010
0000
0100
0000
0001
1000
0000
0001
0010
0000
0100
1000
,
0001
0100
0010
0000
1000
0000
0001
0000
0010
0100
0000
0010
0001
0000
1000
0001
,
0100
0010
1000
0000
0001
0000
1000
0000
0010
0100
0000
0010
1000
0000
0001
1000
,
0100
0000
0000
0010
0000
0000
0001
0000
0000
0000
0000
0000
1000
0000
0000
0000
0000
0000
0001
0000
0000
0000
0000
0000
0010
0000
0000
0000
0000
0000
0100
0000
1000
0000
0100
0000
1000
0000
0000
0000
0000
0000
0001
0000
0000
0000
0000
0000
,
1000
0001
1000
0000
0010
0000
0100
0000
0001
1000
0000
0001
0010
0000
0100
1000
,
0001
0100
0010
0000
1000
0000
0001
0000
0010
0100
0000
0010
0001
0000
1000
0001
,
0100
0010
1000
0000
0001
0000
1000
0000
0010
0100
0000
0010
1000
0000
0001
1000
,
0100
0000
0000
0010
0000
0000
0001
0000
0000
1000
0000
0000
0010
0000
0000
0000
0000
0000
0100
0000
0000
0001
0000
0000
0010
0000
0000
0000
0000
0000
0100
0000
0000
1000
0000
0000
0010
0000
0000
0000
0000
0000
1000
0000
0001
0000
1000
0000
,
0001
0000
1000
0000
0100
0000
1000
0000
0010
0100
0000
0001
1000
0000
0001
0100
,
0010
1000
0001
0000
0010
0000
0001
0000
0100
0010
0000
1000
0001
0000
0010
0001
,
0100
0010
1000
0000
0001
0000
1000
0000
0010
0100
0000
0001
1000
0000
0100
0010
,
0001
0000
0000
1000
0000
0000
0010
0000
0000
0000
0000
0000
0100
0000
0000
0000
0000
0000
0010
0000
0000
0000
0000
0000
0100
0000
0000
0000
0000
0000
0001
0000
0100
0000
0001
0000
0100
0000
0000
0000
0000
0000
0010
0000
0000
0000
0000
0000
,
1000
0001
1000
0000
0010
0000
0100
0000
0001
1000
0000
0001
0010
0000
0100
1000
,
0001
0100
0010
0000
1000
0000
0001
0000
0010
0100
0000
0010
0001
0000
1000
0001
,
0100
0010
1000
0000
0001
0000
1000
0000
0010
0100
0000
0010
1000
0000
0001
0000
,
1001
0000
1001
1000
1001
0000
1001
0000
,
1000
0100
1000
0100
0010
0001
0010
0001
1000
0010
0100
0001
1000
0010
0100
0001
,
1000
0010
1000
0010
0100
0001
0100
0001
1000
0100
0010
0001
1000
0100
0010
0001
,
1000
0001
1000
0001
0100
0010
0100
0010
1000
0001
0010
0100
1000
0001
0010
0100
,
1000
0001
1000
0001
0010
0100
0010
0100
1000
0001
0100
0010
1000
0001
0100
0001
,
1000
0001
0100
0001
0100
0010
1000
0010
1000
0001
0100
0010
1000
0001
0100
0010
,
1000
0001
1000
0001
0010
0100
0010
0100
1000
0001
0010
0100
1000
0001
0010
0100
,
1000
0001
0100
0001
0100
0010
1000
0010
1000
0001
0100
0010
1000
0001
0100
0010
,
1000
0001
1000
0001
0010
0100
0010
0100
1000
0001
0010
0100
1000
0001
0010
0100
,
1000
0100
1000
0100
0010
0001
0010
0001
1000
0010
0100
0001
1000
0010
0100
0001
,
1000
0010
1000
0010
0100
0001
0100
0001
1000
0100
0010
0001
1000
0100
0010
0001
,
1000
0001
1000
0001
0100
0010
0100
0010
1000
0001
0010
0100
1000
0001
0010
0100
,
1000
0001
1000
0001
0010
0100
0010
0100
1000
0001
0100
0010
1000
0001
0100
0001
,
1000
0100
1000
0100
0010
0001
0010
0001
1000
0010
0100
0001
1000
0010
0100
0001
,
1000
0010
1000
0010
0100
0001
0100
0001
1000
0100
0010
0001
1000
0100
0010
0001
,
1000
0001
1000
0001
0100
0010
0100
0010
1000
0001
0010
0100
1000
0001
0010
0100
,
1000
0001
1000
0001
0010
0100
0010
0100
1000
0001
0100
0010
1000
0001
0100
0010
,
1000
0000
0000
0000
,
0002
0003
0000
0000
0000
0000
0000
0000
0000
0000
0000
0000
0000
0000
0000
0000
,
2000
3000
0000
0000
0200
0300
0000
0000
1000
0000
0000
0000
0001
0100
0001
1000
,
0002
0003
0000
0000
0000
0000
0000
0000
0000
0000
0000
0000
0020
0030
0020
0030
,
0020
0030
0000
0000
0000
0000
0000
0000
0001
0100
0001
1000
0001
0100
0001
1000
,
0002
0003
0000
0000
0000
0000
0000
0000
0000
0000
0000
0000
0000
0000
0000
0000
,
2000
3000
0000
0000
2000
3000
0000
0000
0100
0000
0000
0000
1000
0100
1000
0001
,
2000
3000
0000
0000
0000
0000
0000
0000
0000
0000
0000
0000
0002
0003
0200
0300
,
0002
0003
0000
0000
0000
0000
0000
0000
1000
0100
1000
0001
1000
0100
1000
0001
,
2000
3000
0000
0000
0000
0000
0000
0000
0000
0000
0000
0000
0000
0000
0000
0000
,
0020
0000
0030
0000
0000
0000
0000
0000
0200
0000
0300
0000
M000
0000
0000
0000
0001
0000
0000
0000
00M0
0000
0000
00M0
1000
0000
01M0
0000
1000
0000
0001
0000
,
2M00
0000
3000
0000
00M0
0000
0000
0000
0000
0000
0000
0000
0000
0000
00M0
0000
0000
0000
0000
0000
0000
0000
000M
0000
0020
0M00
0030
0000
2000
0000
3000
0000
,
0020
0000
0030
0000
0000
0000
0000
0000
0M00
0000
0000
0000
0000
0000
00M0
0000
1000
0000
0010
0000
1000
0M00
0001
0000
1M00
0000
0010
0M00
1000
0000
0001
0000
,
20M0
0000
3000
0000
0000
0M00
0000
0000
0000
0000
0000
0000
0000
0M00
0000
0000
0000
0000
0000
0000
0000
00M0
0000
0000
0000
000M
0000
0000
0000
0000
0000
0000
,
0002
0000
0003
0000
0000
0000
0M00
0000
2000
0000
3000
0000
0000
0000
0000
0000
0010
0000
0000
0000
0000
0000
0000
0000
1000
0000
0001
0000
0010
0M00
0001
0000
,
2000
00M0
3000
0000
0000
0M00
0000
0000
00M0
0000
0000
0000
0000
0000
0000
0000
0000
0000
0000
0000
0000
0000
0000
0000
2000
0M00
3000
0000
0002
0000
0003
0000
,
2000
00M0
3000
0000
0000
0M00
0000
0000
0000
0000
0000
0000
0000
0000
0000
0000
00M1
0000
0100
0000
0001
0000
1000
0000
0001
0000
0100
0000
0001
0000
1000
0000
,
0002
0000
0000
0000
,
2000
3000
0000
0000
2000
3000
0000
0000
0100
0000
0000
0000
1003
0100
1000
0001
,
2000
0000
0000
0000
0000
0000
0000
0000
0000
0000
0000
0000
3002
0003
0200
0300
,
0002
0000
0000
0000
0000
0000
0000
0000
1003
0100
1000
0001
1000
0100
1000
0001
,
2000
0000
0000
0000
,
0002
0003
0000
0000
0002
0003
0000
0000
0100
0000
0000
0000
3001
0100
0001
1000
,
0002
0000
0000
0000
0000
0000
0000
0000
0000
0000
0000
0000
2003
3000
0020
0030
,
2000
0000
0000
0000
0000
0000
0000
0000
3001
0100
0001
1000
0001
0100
0001
1000
,
0002
0000
0000
0000
,
0020
0030
0000
0000
0020
0030
0000
0000
1000
0000
0000
0000
1003
0100
1000
0001
,
2000
0000
0000
0000
0000
0000
0000
0000
0000
0000
0000
0000
3020
0030
0200
0300
,
0020
0000
0000
0000
0000
0000
0000
0000
1030
0100
1000
0001
1000
0100
1000
0001
,
2000
0000
0000
0000
,
0020
0030
0000
0000
0020
0030
0000
0000
0001
0000
0000
0000
3001
0100
0001
1000
,
0002
0000
0000
0000
0000
0000
0000
0000
0000
0000
0000
0000
2003
3000
0002
0003
,
2000
0000
0000
0000
0000
0000
0000
0000
3001
0100
0001
1000
0001
0100
0001
1000
,
0002
0000
0000
0000
,
0000
0000
0000
0000
,
0023
0000
0032
0000
,
0203
0000
0320
0000
,
2030
0000
0000
0000
,
0000
0000
0000
0000
,
3002
0000
0000
0000
,
0000
0000
0023
0230
,
2300
0000
0000
0000
,
3020
0000
2030
0000
,
3002
0000
0000
0000
,
0023
0000
0000
0000
,
0230
0000
0000
0000
,
2300
3000
0000
0000
2000
3000
0000
0000
0100
0000
0000
0000
1000
0100
1000
0001
,
2000
3000
0000
0000
0000
0000
0000
0000
0000
0000
0000
0000
0002
0003
0002
0003
,
2000
3000
0000
0000
0000
0000
0000
0000
0001
0100
0001
1000
0001
0100
0001
1000
,
0002
0003
0000
0000
0000
0000
0000
0000
0000
0000
0000
0000
2000
3000
0002
0003
,
2000
3000
0000
0000
0000
0000
0000
0000
2000
3000
0000
0000
0000
0000
0000
0000
,
2000
3000
0000
0000
0000
0000
0000
0000
0000
0000
0000
0000
0000
0000
0000
0000
,
0000
0000
0000
0000
0000
2000
3200
0320
,
0031
1000
0100
0010
0001
1000
0001
0010
0001
1000
0100
1000
0001
1000
0100
0010
,
0100
1000
0001
1000
0001
0010
0100
0010
0001
1000
0100
0010
0001
1000
0001
1000
,
0010
0100
0001
0100
0010
1000
0001
0100
0001
1000
0100
0010
0100
1000
0001
1000
,
0010
1000
0001
0100
0010
1000
0001
1000
0001
0010
0001
1000
0100
0010
0001
1000
,
0010
0100
0001
1000
0001
0100
0010
1000
0001
1000
0010
0100
0001
1000
0010
0100
,
0010
0100
0001
1000
0001
0100
0010
1000
0010
0100
0001
1000
0010
1000
0010
0100
,
0001
0010
0100
0010
0001
1000
0001
0010
0100
1000
0100
1000
0001
0010
0001
1000
,
0100
0010
0001
0010
0100
1000
0001
1000
0010
1000
0001
0100
0001
1000
0100
1000
,
0001
0100
0010
1000
0010
0100
0001
1000
0001
0100
0010
1000
0010
0100
0001
1000
,
0010
1000
0100
0010
0001
0010
0100
1000
0001
0100
0010
1000
0001
0100
0010
0100
,
0001
0010
0100
0010
0001
1000
0100
1000
0001
0010
0100
0010
0001
1000
0001
1000
,
0010
1000
0010
0100
0001
0100
0010
1000
0001
0100
0001
1000
0010
1000
0001
0100
,
0001
1000
0100
1000
0100
0010
0001
1000
0001
0100
0010
0100
0010
1000
0001
0010
,
0001
1000
0100
1000
0100
0010
0001
1000
0010
0100
0001
0100
0001
1000
0010
0100
,
0010
1000
0001
1000
0001
0010
0100
1000
0001
0010
0100
0010
0100
1000
0001
1000
,
0010
0100
0001
1000
0001
0010
0100
1000
0001
0100
0010
1000
0001
0010
0100
1000
,
0001
1000
0010
0100
0001
1000
0001
0100
0001
1000
0010
1000
0001
1000
0010
0100
,
0010
1000
0001
1000
0001
0100
0010
0100
0001
1000
0010
0100
0001
1000
0001
1000
,
0100
0010
0001
0010
0100
1000
0001
0010
0001
1000
0010
0100
0010
1000
0001
1000
,
0100
1000
0001
0010
0100
1000
0001
1000
0001
0100
0001
1000
0010
0100
0001
1000
,
0100
0010
0001
1000
0001
0010
0100
1000
0001
1000
0100
0010
0001
1000
0100
0010
,
0100
0010
0001
1000
0001
0010
0100
1000
0100
0010
0001
1000
0100
1000
0100
0010
,
0001
0100
0010
0100
0001
1000
0001
0100
0010
1000
0010
1000
0001
0100
0001
1000
,
0010
0100
0001
0100
0010
1000
0001
1000
0100
1000
0001
0010
0001
1000
0010
1000
,
0001
0010
0100
1000
0100
0010
0001
1000
0001
0010
0100
1000
0100
0010
0001
1000
,
0100
1000
0010
0100
0001
0100
0010
1000
0001
0010
0100
1000
0001
0010
0100
0010
,
0001
0100
0010
0100
0001
1000
0010
1000
0001
0100
0010
0100
0001
1000
0001
1000
,
0100
1000
0100
0010
0001
0010
0100
1000
0001
0010
0001
1000
0100
1000
0001
0010
,
0001
1000
0010
1000
0010
0100
0001
1000
0001
0010
0100
0010
0100
1000
0001
0100
,
0001
1000
0010
1000
0010
0100
0001
1000
0100
0010
0001
0010
0001
1000
0100
0010
,
0100
1000
0001
1000
0001
0100
0010
1000
0001
0100
0010
0100
0010
1000
0001
1000
,
0100
0010
0001
1000
0010
0100
0010
1000
0001
0010
0100
0010
0001
1000
0010
0100
,
0010
1000
0100
0010
0001
1000
0001
0010
0001
1000
0100
1000
0001
1000
0100
0010
,
0100
1000
0001
1000
0001
0010
0100
0010
0001
1000
0100
0010
0001
1000
0001
1000
,
0010
0100
0001
0100
0010
1000
0001
0100
0001
1000
0100
0010
0100
1000
0001
1000
,
0010
1000
0001
0100
0010
1000
0001
1000
0001
0010
0001
1000
0100
0010
0001
1000
,
0010
0100
0001
1000
0001
0100
0010
1000
0001
1000
0010
0100
0001
1000
0010
0100
,
0010
0100
0001
1000
0001
0100
0010
1000
0010
0100
0001
1000
0010
1000
0010
0100
,
0001
0010
0100
0010
0001
1000
0001
0010
0100
1000
0100
1000
0001
0010
0001
1000
,
0100
0010
0001
0010
0100
1000
0001
1000
0010
1000
0001
0100
0001
1000
0100
1000
,
0001
0100
0010
1000
0010
0100
0001
1000
0001
0100
0010
1000
0010
0100
0001
1000
,
0010
1000
0100
0010
0001
0010
0100
1000
0001
0100
0010
1000
0001
0100
0010
0100
,
0001
0010
0100
0010
0001
1000
0100
1000
0001
0010
0100
0010
0001
1000
0001
1000
,
0010
1000
0010
0100
0001
0100
0010
1000
0001
0100
0001
1000
0010
1000
0001
0100
,
0001
1000
0100
1000
0100
0010
0001
1000
0001
0100
0010
0100
0010
1000
0001
0010
,
0001
1000
0100
1000
0100
0010
0001
1000
0010
0100
0001
0100
0001
1000
0010
0100
,
0010
1000
0001
1000
0001
0010
0100
1000
0001
0010
0100
0010
0100
1000
0001
1000
,
0010
0100
0001
1000
0001
0010
0100
1000
0001
0100
0010
1000
0001
0010
0100
1000
,
0001
1000
0010
0100
0001
1000
0001
0100
0001
1000
0010
1000
0001
1000
0010
0100
,
0010
1000
0001
1000
0001
0100
0010
0100
0001
1000
0010
0100
0001
1000
0001
1000
,
0100
0010
0001
0010
0100
1000
0001
0010
0001
1000
0010
0100
0010
1000
0001
1000
,
0100
1000
0001
0010
0100
1000
0001
1000
0001
0100
0001
1000
0010
0100
0001
1000
,
0100
0010
0001
1000
0001
0010
0100
1000
0001
1000
0100
0010
0001
1000
0100
0010
,
0100
0010
0001
1000
0001
0010
0100
1000
0100
0010
0001
1000
0100
1000
0100
0010
,
0001
0100
0010
0100
0001
1000
0001
0100
0010
1000
0010
1000
0001
0100
0001
1000
,
0010
0100
0001
0100
0010
1000
0001
1000
0100
1000
0001
0010
0001
1000
0010
1000
,
0001
0100
0010
1000
0001
0100
0010
1000
0001
0010
0100
1000
0001
0010
0100
1000
,
0001
0100
0010
1000
0001
0100
0010
1000
0001
0010
0100
1000
0001
0010
0100
1000
,
0001
0100
0010
1000
0010
0100
0001
1000
0001
0010
0100
1000
0001
1000
0100
0010
,
0001
1000
0010
0100
0001
0100
0010
1000
0001
0010
0001
1000
0100
0010
0001
1000
,
0200
0300
0000
0000
0000
0000
0000
0000
0000
0000
0000
0000
0020
0030
0000
0000
0000
0000
0000
0000
0000
0000
0000
0000
0002
0003
0000
0000
0000
0000
0000
0000
2000
3000
0000
0000
0000
0000
0000
0000
0000
0000
0000
0000
0020
0030
0000
0000
0000
0000
0000
0000
0000
0000
0000
0000
0200
0300
0000
0000
0000
0000
0000
0000
,
0020
0030
0000
0000
0000
0000
0000
0000
0000
0000
0000
0000
2000
3000
0000
0000
0000
0000
0000
0000
0000
0000
0000
0000
0200
0300
0000
0000
0000
0000
0000
0000
0020
0030
0000
0000
0000
0000
0000
0000
0000
0000
0000
0000
0200
0300
0000
0000
0000
0000
0000
0000
0000
0000
0000
0000
2000
3000
0000
0000
0000
0000
0000
0000
,
0002
0000
0000
0000
0003
0000
0000
0000
0000
0000
0000
0000
0000
0000
0000
0000
0000
0000
0000
0000
0000
0000
0000
0000
0000
0000
0000
0000
0000
0000
0000
0000
0000
0000
0000
0000
0200
0000
0000
0000
0300
0000
0000
0000
0000
0000
0000
0000
0000
0000
0000
0000
0000
0000
0000
0000
0000
0000
0000
0000
0000
0000
0000
0000
0000
0000
0000
0000
0000
0000
0000
0000
0020
0000
0000
0000
0000
0000
0030
0000
0000
0000
0000
0000
0000
0000
0000
0000
0000
0000
0000
0000
0000
0000
0000
0000
2000
0000
0000
0000
0000
0000
3000
0000
0000
0000
0000
0000
0000
0000
0000
0000
0000
0000
0000
0000
0000
0000
0000
0000
0000
0000
0000
0000
0000
0000
0000
0000
0000
0000
0000
0000
0002
0000
0000
0000
0000
0000
0000
0000
0003
0000
0000
0000
0000
0000
0000
0000
0000
0000
0000
0000
0000
0000
0000
0000
0000
0000
0000
0000
0000
0000
0000
0000
0000
0000
0000
0000
0020
0000
0000
0000
0000
0000
0000
0000
0030
0000
0000
0000
0000
0000
0000
0000
0000
0000
0000
0000
0000
0000
0000
0000
,
0200
0000
0000
0300
0000
0000
0000
0000
0000
0020
0000
0000
0030
0000
0000
0000
0000
0000
0002
0000
0000
0000
0003
0000
0200
0000
0000
0000
0300
0000
0000
0000
0000
0020
0000
0000
0000
0000
0000
0030
0000
0000
2000
0000
0000
0000
0000
0000
,
3001
0100
0001
1000
0001
0000
0010
0000
0100
1000
0001
1000
0100
0000
1000
0001
,
0100
0010
0100
0001
1000
0000
0001
0000
0010
0001
1000
0001
0010
0000
0100
1000
,
0001
1000
0010
0100
0001
0000
1000
0000
0100
0010
0100
1000
0100
0000
0010
0001
,
1000
0001
0100
0001
1000
0000
0010
0000
0100
0001
0100
0010
1000
0000
0002
0000
,
1003
0100
1000
0001
1000
0000
0010
0000
0100
0001
1000
0001
0100
0000
0001
1000
,
0100
0010
0100
1000
0001
0000
1000
0000
0010
1000
0001
1000
0010
0000
0100
0001
,
1000
0001
0010
0100
1000
0000
0001
0000
0100
0010
0100
0001
0100
0000
0010
1000
,
0001
1000
0100
1000
0001
0000
0010
0000
0100
1000
0100
0010
0001
0000
0200
0000
,
0310
0000
1000
0010
1000
0000
0001
0100
,
0001
0010
0001
0000
1001
0000
1000
0010
,
0100
0000
0001
1000
0001
0000
0000
0000
0011
0000
0000
0000
0100
0000
1000
0000
,
0100
0000
1000
0002
0203
0320
0230
0320
,
1031
0000
0001
0100
0001
0000
1000
0001
,
0010
0100
1000
0000
0011
0000
0010
0001
,
0100
0000
0010
1000
0100
0000
0010
0000
,
0001
0000
0000
1000
0000
0000
0001
0000
1001
0000
0000
0000
1001
0000
0000
0000
,
1000
0010
1000
0010
0100
0001
0100
0001
1000
0010
0100
0001
1000
0010
0100
0001
,
1000
0100
1000
0100
0010
0001
0010
0001
1000
0100
0010
0001
1000
0100
0010
0001
,
1000
0001
1000
0001
1000
0010
0100
0010
0100
0001
1000
0010
0100
0001
1000
0010
,
0100
0001
1000
0001
1000
0100
0010
0100
0010
0001
0010
0100
1000
0001
0010
0100
,
1000
0100
1000
0100
0010
0001
0010
0001
1000
0100
0010
0001
1000
0100
0010
0001
,
1000
0010
1000
0010
0100
0001
0100
0001
1000
0010
0100
0001
1000
0010
0100
0001
,
1000
0001
1000
0001
1000
0100
0010
0100
0010
0001
1000
0100
0010
0001
1000
0100
,
0010
0001
1000
0001
1000
0010
0100
0010
0100
0001
0100
0010
1000
0001
0100
0010
,
1000
0001
0100
0010
1000
0001
0100
0010
1000
0010
0100
0001
1000
0010
0100
0001
,
1000
0100
0010
0100
1000
0001
1000
0001
0010
0100
1000
0001
1000
0100
0010
0001
,
1000
0010
0100
0010
1000
0001
0100
0001
1000
0010
1000
0001
0100
0010
1000
0001
,
1000
0100
1000
0001
0010
0100
0010
0001
1000
0100
0010
0001
1000
0100
1000
0001
,
1000
0010
0100
0010
1000
0001
0100
0010
1000
0010
0100
0001
1000
0010
0100
0001
,
1000
0100
0010
0100
1000
0001
1000
0001
0010
0100
1000
0001
1000
0100
0010
0001
,
1000
0010
0100
0010
1000
0001
0100
0001
1000
0010
1000
0001
0100
0010
1000
0001
,
1000
0100
1000
0001
0010
0100
0010
0001
1000
0100
0010
0001
0100
0010
1000
0100
,
0010
0001
1000
0010
0100
0001
0010
0001
0010
0001
1000
0010
0100
0010
1000
0001
,
0010
0001
1000
0010
0100
0001
0010
0001
0010
0001
1000
0010
0100
0001
0010
0001
,
0100
0010
1000
0100
0010
0001
0100
0001
0100
0010
1000
0100
0010
0001
1000
0001
,
0100
0010
1000
0100
0010
0001
0100
0001
0100
0010
1000
0100
0010
0001
0100
0001
,
0010
0001
1000
0010
0100
0001
0010
0001
0010
0001
1000
0010
0100
0010
1000
0001
,
0010
0001
1000
0010
0100
0001
1000
0001
0010
0001
1000
0010
0100
0001
0010
0001
,
0010
0100
1000
0010
0100
0001
1000
0001
0010
0100
1000
0010
0100
0001
0010
0001
,
0010
0100
1000
0001
0010
0100
1000
0001
0010
0001
1000
0001
0100
0010
1000
0001
,
0010
0001
1000
0010
0100
0001
0010
0001
0010
0001
1000
0010
0100
0010
1000
0001
,
0010
0001
1000
0010
0100
0001
1000
0001
0010
0001
1000
0010
0100
0001
1000
0100
,
0010
0001
1000
0010
0100
0001
0010
0001
0010
0100
1000
0010
0100
0001
1000
0001
,
0010
0100
1000
0010
0100
0001
0010
0001
0010
0100
1000
0010
0100
0001
0010
0001
,
0100
0001
1000
0100
0010
0001
1000
0001
0100
0001
1000
0100
0010
0100
1000
0001
,
0100
0001
1000
0100
0010
0001
1000
0001
0100
0001
1000
0100
0010
0001
1000
0001
,
0100
0010
1000
0100
0010
0001
0100
0001
0100
0010
1000
0100
0010
0001
0100
0001
,
0100
0010
1000
0001
0100
0010
1000
0001
0100
0001
1000
0001
0010
0100
1000
0001
,
0100
0001
1000
0100
0010
0001
0100
0001
0100
0001
1000
0100
0010
0100
1000
0001
,
0100
0001
1000
0100
0010
0001
0100
0001
0100
0001
1000
0100
0010
0001
0100
0001
,
0010
0100
1000
0010
0100
0001
0010
0001
0010
0100
1000
0010
0100
0001
1000
0001
,
0010
0100
1000
0010
0100
0001
0010
0001
0010
0100
1000
0010
0100
0001
0010
0001
,
0100
0001
1000
0100
0010
0001
0100
0001
0100
0001
1000
0100
0010
0100
1000
0001
,
0100
0001
1000
0100
0010
0001
1000
0001
0100
0001
1000
0100
0010
0001
0100
0001
,
0100
0010
1000
0100
0010
0001
1000
0001
0100
0010
1000
0100
0010
0001
0100
0001
,
0100
0010
1000
0001
0100
0010
1000
0001
0100
0001
1000
0001
0010
0100
1000
0001
,
0100
0001
1000
0100
0010
0001
0100
0001
0100
0001
1000
0100
0010
0100
1000
0001
,
0100
0001
1000
0100
0010
0001
1000
0001
0100
0001
1000
0100
0010
0001
1000
0010
,
0100
0001
1000
0100
0010
0001
0100
0001
0100
0010
1000
0100
0010
0001
1000
0001
,
0100
0010
1000
0100
0010
0001
0100
0001
0100
0010
1000
0100
0010
0001
0100
0001
,
0010
0001
1000
0010
0100
0001
1000
0001
0010
0001
1000
0010
0100
0010
1000
0001
,
0010
0001
1000
0010
0100
0001
1000
0001
0010
0001
1000
0010
0100
0001
1000
0001
,
1000
0100
1000
0100
0010
0001
0010
0001
0100
0010
1000
0010
0100
0001
1000
0001
,
0010
0100
1000
0001
0010
0100
1000
0001
0100
0010
1000
0001
1000
0100
1000
0001
,
1000
0001
0100
0010
1000
0001
1000
0010
1000
0001
0100
0001
1000
0001
0100
0010
,
0100
0001
1000
0001
1000
0010
0100
0010
1000
0001
0100
0010
1000
0001
1000
0001
,
0010
0100
1000
0100
0010
0001
1000
0100
1000
0001
0100
0010
0100
0001
1000
0001
,
0010
0001
1000
0100
0010
0001
1000
0001
1000
0010
1000
0001
0100
0010
1000
0001
,
0010
0100
1000
0001
1000
0100
0010
0001
1000
0001
0010
0100
1000
0001
0010
0100
,
0010
0100
1000
0001
1000
0100
0010
0001
0010
0100
1000
0001
0010
0001
0010
0100
,
1000
0010
0100
0010
1000
0001
1000
0010
0100
0001
0100
0001
1000
0010
1000
0001
,
0100
0010
1000
0010
0100
0001
1000
0001
0010
0001
1000
0100
1000
0001
0100
0001
,
1000
0100
0010
0001
0010
0100
1000
0001
1000
0100
0010
0001
0010
0100
1000
0001
,
0010
0001
0100
0010
1000
0010
0100
0001
1000
0100
0010
0001
1000
0100
0010
0100
,
1000
0010
0100
0010
1000
0001
0100
0001
1000
0010
0100
0010
1000
0001
1000
0001
,
0010
0001
0010
0100
1000
0100
0010
0001
1000
0100
1000
0001
0010
0001
1000
0100
,
1000
0001
0100
0001
0100
0010
1000
0001
1000
0100
0010
0100
0010
0001
1000
0010
,
1000
0001
0100
0001
0100
0010
1000
0001
0010
0100
1000
0100
1000
0001
0010
0100
,
0010
0001
1000
0001
1000
0010
0100
0001
1000
0010
0100
0010
0100
0001
1000
0001
,
0010
0100
1000
0001
0100
0010
0100
0001
1000
0100
0010
0100
1000
0001
0100
0010
,
0100
0001
0010
0100
1000
0001
1000
0100
1000
0001
0010
0001
1000
0001
0010
0100
,
0010
0001
1000
0001
1000
0100
0010
0100
1000
0001
0010
0100
1000
0001
1000
0001
,
0100
0010
1000
0010
0100
0001
1000
0010
1000
0001
0010
0100
0010
0001
1000
0001
,
0100
0001
1000
0010
0100
0001
1000
0001
1000
0100
1000
0001
0010
0100
1000
0001
,
0100
0010
1000
0001
1000
0010
0100
0001
1000
0001
0100
0010
1000
0001
0100
0010
,
0100
0010
1000
0001
1000
0010
0100
0001
0100
0010
1000
0001
0100
0001
0100
0010
,
1000
0100
0010
0100
1000
0001
1000
0100
0010
0001
0010
0001
1000
0100
1000
0001
,
0010
0100
1000
0100
0010
0001
1000
0001
0100
0001
1000
0010
1000
0001
0010
0001
,
1000
0010
0100
0001
0100
0010
1000
0001
1000
0010
0100
0001
0100
0010
1000
0001
,
0100
0001
0010
0100
1000
0100
0010
0001
1000
0010
0100
0001
1000
0010
0100
0010
,
1000
0100
0010
0100
1000
0001
0010
0001
1000
0100
0010
0100
1000
0001
1000
0001
,
0100
0001
0100
0010
1000
0010
0100
0001
1000
0010
1000
0001
0100
0001
1000
0010
,
0200
0300
0000
0000
0000
0000
0000
0000
0000
0000
0000
0000
0020
0030
0000
0000
0000
0000
0000
0000
0000
0000
0000
0000
2000
3000
0000
0000
0000
0000
0000
0000
0002
0003
0000
0000
0000
0000
0000
0000
0000
0000
0000
0000
0020
0030
0000
0000
0000
0000
0000
0000
0000
0000
0000
0000
0200
0300
0000
0000
0000
0000
0000
0000
,
0020
0030
0000
0000
0000
0000
0000
0000
0000
0000
0000
0000
0002
0003
0000
0000
0000
0000
0000
0000
0000
0000
0000
0000
0200
0300
0000
0000
0000
0000
0000
0000
0020
0030
0000
0000
0000
0000
0000
0000
0000
0000
0000
0000
0200
0300
0000
0000
0000
0000
0000
0000
0000
0000
0000
0000
0002
0003
0000
0000
0000
0000
0000
0000
,
2000
0000
0000
0000
3000
0000
0000
0000
0000
0000
0000
0000
0000
0000
0000
0000
0000
0000
0000
0000
0000
0000
0000
0000
0000
0000
0000
0000
0000
0000
0000
0000
0000
0000
0000
0000
0200
0000
0000
0000
0300
0000
0000
0000
0000
0000
0000
0000
0000
0000
0000
0000
0000
0000
0000
0000
0000
0000
0000
0000
0000
0000
0000
0000
0000
0000
0000
0000
0000
0000
0000
0000
0020
0000
0000
0000
0000
0000
0030
0000
0000
0000
0000
0000
0000
0000
0000
0000
0000
0000
0000
0000
0000
0000
0000
0000
0002
0000
0000
0000
0000
0000
0003
0000
0000
0000
0000
0000
0000
0000
0000
0000
0000
0000
0000
0000
0000
0000
0000
0000
0000
0000
0000
0000
0000
0000
0000
0000
0000
0000
0000
0000
2000
0000
0000
0000
0000
0000
0000
0000
3000
0000
0000
0000
0000
0000
0000
0000
0000
0000
0000
0000
0000
0000
0000
0000
0000
0000
0000
0000
0000
0000
0000
0000
0000
0000
0000
0000
0020
0000
0000
0000
0000
0000
0000
0000
0030
0000
0000
0000
0000
0000
0000
0000
0000
0000
0000
0000
0000
0000
0000
0000
,
0200
0000
0000
0300
0000
0000
0000
0000
0000
0020
0000
0000
0030
0000
0000
0000
0000
0000
2000
0000
0000
0000
3000
0000
0200
0000
0000
0000
0300
0000
0000
0000
0000
0020
0000
0000
0000
0000
0000
0030
0000
0000
0002
0000
0000
0000
0000
0000
,
1013
0000
0000
0110
0000
0000
0101
0000
1001
0000
0000
1100
0000
0000
0011
0000
,
0110
0000
0000
1001
0000
0000
0101
0000
0110
0000
0000
1010
0000
0000
1100
0000
,
0011
0000
0000
1100
0000
0000
0110
0000
1001
0000
0000
0101
0000
0000
1010
0000
,
1001
0000
0000
1100
0000
0000
0110
0000
0011
0000
0000
1001
0000
0000
0101
0000
;

//---------------dance-single - 12 (Loak)----------------
#NOTES:
     dance-single:
     12 (Loak):
     Easy:
     12:
     0.928,1.000,0.221,0.267,0.507,1940.000,72.000,87.000,1.000,0.000:
0000
0000
0000
0000
,
1000
0000
0001
0100
0010
0000
1000
0001
,
1000
0100
0010
0000
0001
0000
1000
0010
,
0100
0000
0001
1000
0001
0000
0000
0000
1000
0000
0000
0000
0100
0000
0000
0000
,
0010
0000
0100
0000
1000
0004
0103
0010
,
1010
0000
1000
0001
0010
0000
0100
0000
,
1000
0001
0100
0000
0010
0000
1000
0010
,
0100
0000
0001
1000
0100
0000
1000
0000
,
0010
0000
0000
0100
0000
0000
0001
0000
2002
0000
3003
0000
2002
0000
3003
0000
,
1100
0000
0100
0000
1000
0000
0001
1000
,
0010
0100
0010
0000
1000
0000
0001
1000
,
0100
0000
1000
0001
1000
0000
0000
0000
0010
0000
0000
0000
1000
0000
0000
0000
,
0010
0000
0100
0000
0001
4000
3100
0010
,
0011
0000
0001
1000
0001
0000
0100
0000
,
0010
1000
0001
0000
0010
0000
0100
1000
,
0001
0000
1000
0010
0100
0000
0001
0000
,
1000
0000
0000
0001
0000
0000
1000
0000
0100
0000
0020
0000
0032
0000
2003
0000
,
3001
0000
1000
0010
0100
0000
0001
1000
,
0001
0010
0100
0000
1000
0000
0001
0100
,
0010
0000
1000
0001
1000
0000
0000
0000
0100
0000
0000
0000
0010
0000
0000
0000
,
0001
0000
1000
0000
0001
4000
3010
0100
,
0101
0000
0001
1000
0100
0000
0010
0000
,
0001
1000
0010
0000
0100
0000
0001
0010
,
0100
0000
1000
0001
0010
0000
0001
0000
,
0100
0000
0000
0010
0000
0000
1000
0000
2002
0000
3003
0000
2002
0000
3003
0000
,
0011
0000
0010
0000
0001
0000
1000
0001
,
0100
0010
0100
0000
0001
0000
1000
0001
,
0010
0000
0100
1000
0100
0000
0000
0000
1000
0000
0000
0000
0001
0000
0000
0000
,
0100
0000
0010
0000
1000
0004
0013
0100
,
1100
0000
1000
0001
1000
0000
0010
0000
,
0100
0001
1000
0000
0100
0000
0010
0001
,
1000
0000
0001
0100
0010
0000
1000
0000
,
0001
0000
0000
1000
0000
0000
0001
0000
0010
0000
0200
0000
2300
0000
3002
0000
,
1003
0010
1000
0000
0001
0000
1000
0000
0001
0010
0000
0010
0100
0000
1000
0000
,
0001
0100
0001
0000
1000
0000
0010
0000
0100
0001
0000
0001
1000
0000
0001
0000
,
0010
0100
0010
0000
0100
0000
1000
0000
0001
1000
0000
1000
0010
0000
0100
0000
,
0001
0100
0001
0000
1000
0000
0001
0000
0010
0000
0004
0003
1000
0000
0010
0000
,
1010
0000
1000
0000
0001
0000
0010
0000
0001
1000
0000
1000
0010
0000
0100
0000
,
0001
1000
0001
0000
0010
0000
0100
0000
1000
0001
0000
0001
0100
0000
0010
0000
,
1000
0100
1000
0000
0001
0000
0100
0000
0010
1000
0000
1000
0001
0000
0010
0000
,
0100
0000
1000
0001
1000
0000
0001
0100
0001
0000
1000
0100
1000
0000
0004
0003
,
0011
0000
0010
0000
0100
0000
1000
0000
0001
0100
0000
0100
0010
0000
1000
0000
,
0001
0010
0001
0000
1000
0000
0001
0000
0100
0010
0000
0010
1000
0000
0001
0000
,
1000
0100
1000
0000
0001
0000
1000
0000
0001
0010
0000
0010
0100
0000
1000
0000
,
0001
0100
0001
0000
1000
0000
0100
0000
0010
0000
0004
0003
1000
0000
0040
0030
,
1010
0000
1000
0000
0001
0000
0010
0000
0100
1000
0000
1000
0001
0000
0100
0000
,
0001
1000
0001
0000
1000
0000
0100
0000
0010
0001
0000
0001
1000
0000
0010
0000
,
0100
0001
0100
0000
0001
0000
1000
0000
0001
0010
0000
0010
0100
0000
1000
0000
,
0001
2000
3100
0020
0031
2000
3010
0200
,
0301
0000
1000
0000
0001
0000
0100
0000
0010
1000
0010
0000
0100
0001
0100
0000
,
0001
0000
0010
0000
0100
0000
0010
0000
0001
1000
0001
0000
1000
0010
1000
0000
,
0001
0000
0100
0000
0001
0000
1000
0000
0100
0010
0100
0000
1000
0100
1000
0000
,
0001
0000
0100
0000
0010
0000
0100
0000
0001
0100
0001
0000
1000
0100
1000
0000
,
0001
0000
0100
0000
0010
0000
0100
0000
0001
1000
0001
0000
0010
0001
0010
0000
,
0100
0000
1000
0000
0001
0000
1000
0000
0010
1000
0010
0000
0100
0010
0100
0000
,
0001
0000
1000
0000
0100
0000
1000
0000
0001
0100
0001
0000
0100
0010
0100
0000
,
0010
0000
1000
0000
0001
0000
1000
0000
0100
1000
0100
0000
1000
0001
1000
0000
,
0010
0000
1000
0000
0001
0000
0100
0000
0010
1000
0010
0000
0100
0001
0100
0000
,
0001
0000
0010
0000
0100
0000
0010
0000
0001
1000
0001
0000
1000
0010
1000
0000
,
0001
0000
0100
0000
0001
0000
1000
0000
0100
0010
0100
0000
1000
0100
1000
0000
,
0001
0000
0100
0000
0010
0000
0100
0000
0001
0100
0001
0000
1000
0100
1000
0000
,
0001
0000
0100
0000
0010
0000
0100
0000
0001
1000
0001
0000
0010
0001
0010
0000
,
0100
0000
1000
0000
0001
0000
1000
0000
0010
1000
0010
0000
0100
0010
0100
0000
,
0001
0000
1000
0000
0100
0000
1000
0000
0001
0100
0001
0000
0100
0010
0100
0000
,
0010
0000
1000
0001
1000
0000
0001
0010
0001
0000
1000
0010
1000
0000
0004
0003
,
1001
0000
0000
0000
,
2000
3000
0000
0000
,
2000
0000
0000
3000
2000
0000
0000
0000
3001
0000
0000
0000
1000
0001
1000
0001
,
2000
0000
3000
0000
0000
0000
2000
3002
,
2003
0000
0000
0000
3000
0000
0000
0000
0001
1000
0001
1000
0001
1000
0001
1000
,
0002
0003
0000
0000
,
0002
0000
0000
0003
0002
0000
0000
0000
1003
0000
0000
0000
0001
1000
0001
1000
,
0002
0000
0003
0000
0000
0000
0002
2003
,
3002
0000
0000
0000
0003
0000
0000
0000
1000
0001
1000
0001
1000
0001
1000
0001
,
2000
3000
0000
0000
,
2000
0000
0000
3000
2000
0000
0000
0000
3001
0000
0000
0000
1000
0001
1000
0001
,
2000
0000
3000
0000
0000
0000
2000
3002
,
2003
0000
0000
0000
3000
0000
0000
0000
0001
1000
0001
1000
0001
1000
0001
1000
,
0002
0003
0000
0000
,
0002
0000
0000
0003
0002
0000
0000
0000
1003
0000
0000
0000
0001
1000
0001
1000
,
0002
0000
0003
0000
0000
0000
0002
2003
,
3002
0000
0000
0000
0003
0000
0000
0000
1000
0001
1000
0001
1000
0001
1000
0001
,
2000
0000
0000
0000
,
0000
0000
0000
0000
,
3020
0000
0230
0000
,
0302
0000
0023
0000
,
0230
0000
0000
0000
,
0000
0000
0000
0000
,
0320
0000
0000
0000
,
0000
0000
0032
2003
,
3020
0000
0000
0000
,
0230
0000
0320
0000
,
2030
0000
0000
0000
,
3002
0000
0000
0000
,
0023
0000
0000
0000
,
0000
0000
0000
0000
,
0000
0000
0000
0000
,
0000
0000
0000
0000
,
0032
0000
0000
0000
,
0000
0000
0000
0000
,
2003
0000
3020
0000
,
0230
0000
0302
0000
,
0023
0000
0000
0000
,
0000
0000
0000
0000
,
0230
0000
0000
0000
,
0000
0000
2300
3002
,
0203
0000
0000
0000
,
0320
0000
0230
0000
,
0302
0000
0000
0000
,
2003
0000
0000
0000
,
3002
0003
0000
0000
,
0002
0000
0000
0003
0002
0000
0000
0000
1003
0000
0000
0000
0001
1000
0001
1000
,
0001
0000
0000
0000
0000
0000
0001
1000
,
0001
0000
0000
0000
0000
0000
0000
0000
0000
0000
0000
0000
1000
0001
1000
0001
,
1000
0000
0000
0000
0000
0000
0001
1000
,
0001
0000
1000
0000
,
0001
0000
0000
0000
,
0000
0000
0000
0000
00M0
1000
0100
0010
,
0001
1000
0001
0100
0010
0100
0001
1000
,
0100
1000
0001
0100
0010
1000
0001
1000
,
0100
0010
0100
1000
0010
1000
0001
1000
,
0001
0000
0100
0000
0010
0000
0100
0000
0001
0000
1000
0010
1000
0000
0001
0000
,
1001
1000
0001
1000
0001
0010
0100
1000
,
0100
0010
0001
1000
0001
0100
0010
0100
,
0001
1000
0001
1000
0010
0100
0010
1000
,
0001
0000
1000
0100
1000
0000
0001
0100
0001
0000
0010
0001
0010
0000
0001
0000
,
1001
1000
0010
0100
0010
1000
0001
1000
,
0001
0010
0001
1000
0010
0100
0001
0100
,
0001
1000
0100
0010
0100
1000
0001
0100
,
0001
0000
0010
0000
0100
0000
1000
0000
0001
0000
1000
0010
1000
0000
0001
0000
,
1001
1000
0001
0100
0001
0010
0100
0010
,
0001
1000
0010
1000
0001
0100
0001
1000
,
0100
0010
0100
1000
0001
1000
0010
0100
,
0010
0000
1000
0001
1000
0000
0001
0010
0001
0000
0100
0001
0100
0000
0004
0003
,
1001
1000
0100
1000
0001
0100
0010
0100
,
0001
1000
0001
0010
0100
1000
0001
0100
,
0010
0100
0001
1000
0001
0100
0001
0010
,
0100
0000
1000
0000
0001
0000
1000
0000
0010
0000
1000
0001
1000
0000
0001
0000
,
0011
0010
0100
0010
0001
1000
0001
0100
,
0010
1000
0001
1000
0100
1000
0001
0010
,
0001
0100
0010
1000
0001
1000
0010
0100
,
0001
0000
0100
0001
0100
0000
0001
1000
0001
0000
1000
0100
1000
0000
0004
0003
,
0101
0100
0010
0100
0010
1000
0001
0100
,
0010
1000
0001
1000
0100
1000
0010
0100
,
0001
0010
0001
1000
0001
0100
0010
1000
,
0001
0000
1000
0000
0100
0000
0010
0000
0100
0000
1000
0001
1000
0000
0001
0000
,
0101
0100
0010
1000
0001
1000
0100
1000
,
0010
0100
0001
1000
0001
1000
0100
0010
,
0001
1000
0001
0100
0010
1000
0010
1000
,
0001
0000
0000
1000
0000
0000
0001
0000
0010
0000
0000
0100
0000
0000
0010
0000
,
0001
0100
0010
0100
0001
1000
0010
1000
,
0001
0100
0001
1000
0001
0010
0001
1000
,
0010
0100
0010
1000
0100
0010
0100
0010
,
0001
0000
1000
0000
0001
0000
0100
0000
0010
0000
1000
0001
1000
0000
0001
0000
,
0011
0010
0100
1000
0001
1000
0001
0100
,
0010
1000
0010
0100
0001
0100
0001
1000
,
0100
1000
0001
0010
0100
0010
0001
1000
,
0001
0000
0100
0010
0100
0000
0001
0100
0001
0000
1000
0001
1000
0000
0004
0003
,
0011
0010
0100
0010
0001
1000
0001
0100
,
0010
1000
0010
1000
0001
0100
0001
1000
,
0100
0010
0001
1000
0001
0100
0001
1000
,
0100
0000
1000
0000
0001
0000
1000
0000
0010
0000
0100
0001
0100
0000
0004
0003
,
1001
1000
0001
1000
0010
0100
0010
1000
,
0001
1000
0100
0010
0001
1000
0001
0100
,
0010
1000
0010
0100
0001
1000
0100
0010
,
0001
0000
1000
0001
1000
0000
0010
1000
0010
0000
0100
0001
0100
0000
0004
0003
,
1001
1000
0100
1000
0001
0010
0001
1000
,
0001
0100
0010
1000
0001
1000
0100
1000
,
0010
0100
0001
1000
0001
0100
0010
1000
,
0001
0000
0010
0000
0100
0000
0010
0000
0001
0000
1000
0010
1000
0000
0004
0003
,
0101
0100
0010
1000
0001
1000
0001
0100
,
0010
1000
0001
0010
0100
0010
0001
1000
,
0010
1000
0001
0100
0001
1000
0001
0010
,
0100
0000
1000
0001
1000
0000
0010
1000
0010
0000
1000
0100
1000
0000
0004
0003
,
1001
1000
0010
1000
0010
1000
0010
1000
,
0001
0010
0001
0010
0001
0100
0001
0100
,
0001
1000
0001
1000
0001
1000
0001
1000
,
0100
0000
0010
0000
0100
0000
0010
0000
0100
0000
0040
0030
0100
0000
0010
0000
,
0001
0000
0000
1000
0000
0000
0010
0000
1000
0000
0000
0001
0000
0000
0010
0000
,
0100
0000
0000
1000
0000
0000
0001
0000
1000
0000
0000
0010
0000
0000
0100
0000
,
0010
0000
0000
1000
0000
0000
0001
0000
0010
0000
0000
0001
0000
0000
0100
0000
,
0010
0000
0000
1000
0000
0000
0001
0000
1000
0000
0000
0100
0000
0000
0010
0000
,
0001
0100
0001
0000
1000
0000
0001
0000
1000
0100
0000
0100
0010
0000
0001
1000
,
0001
1000
0010
0000
0100
0000
0001
0000
1000
0100
0000
0100
0010
0000
0001
1000
,
0010
1000
0010
0000
0100
0000
0001
0000
1000
0001
0000
0001
0100
0000
0010
1000
,
0001
1000
0001
0000
0010
0000
0100
0000
1000
0001
0000
0001
0100
0000
0010
0000
,
1010
0000
1000
0000
0001
0000
1000
0000
0100
0010
0000
0010
0001
0000
1000
0001
,
1000
0001
0100
0000
0001
0000
1000
0000
0010
1000
0000
1000
0001
0000
1000
0001
,
0100
0001
0100
0000
0001
0000
0010
0000
0001
1000
0000
1000
0010
0000
0100
0001
,
0100
0001
1000
0000
0001
0000
1000
0000
0100
0000
0040
0030
0001
0000
4000
3000
,
1010
0000
0010
0000
0100
0000
0001
0000
1000
0100
0000
0100
0010
0000
0001
1000
,
0001
1000
0010
0000
0100
0000
0001
0000
0010
0100
0000
0100
1000
0000
0001
0100
,
0001
0100
0010
0000
1000
0000
0001
0000
1000
0100
0000
0100
0010
0000
0001
1000
,
0001
1000
0100
0000
1000
0000
0020
0000
0130
0000
0002
0000
1003
0000
0200
0300
,
1100
0000
1000
0000
0001
0000
0100
0000
0010
1000
0000
1000
0001
0000
0010
0100
,
1000
0100
1000
0000
0001
0000
1000
0000
0010
0100
0000
0100
0001
0000
1000
0001
,
0010
0001
0010
0000
0001
0000
1000
0000
0001
0100
0000
0100
0010
0000
1000
0000
,
0001
2000
3100
0020
0031
2000
3010
0200
,
0301
0000
1000
0000
0001
0000
0010
0000
0001
1000
0001
0000
0100
0001
0100
0000
,
0001
0000
0010
0000
0100
0000
0010
0000
0001
1000
0001
0000
1000
0010
1000
0000
,
0001
0000
0100
0000
0001
0000
1000
0000
0100
0010
0100
0000
1000
0100
1000
0000
,
0001
0000
0100
0000
0010
0000
0100
0000
0001
0100
0001
0000
1000
0100
1000
0000
,
0001
0000
0100
0000
0010
0000
0100
0000
0001
1000
0001
0000
0010
0001
0010
0000
,
0100
0000
1000
0000
0001
0000
1000
0000
0010
1000
0010
0000
0100
0010
0100
0000
,
0001
0000
1000
0000
0100
0000
1000
0000
0001
0100
0001
0000
0100
0010
0100
0000
,
0010
0000
1000
0000
0001
0000
1000
0000
0100
1000
0100
0000
1000
0001
1000
0000
,
0010
0000
1000
0000
0001
0000
0100
0000
0010
1000
0010
0000
0100
0001
0100
0000
,
0001
0000
0010
0000
0100
0000
0010
0000
0001
1000
0001
0000
1000
0010
1000
0000
,
0001
0000
0100
0000
0001
0000
1000
0000
0100
0010
0100
0000
1000
0100
1000
0000
,
0001
0000
0100
0000
0010
0000
0100
0000
0001
0100
0001
0000
1000
0100
1000
0000
,
0001
0000
0100
0000
0010
0000
0100
0000
0001
1000
0001
0000
0010
0001
0010
0000
,
0100
0000
1000
0000
0001
0000
1000
0000
0010
1000
0010
0000
0100
0010
0100
0000
,
0001
0000
1000
0000
0100
0000
1000
0000
0001
0100
0001
0000
0100
0010
0100
0000
,
0010
0000
1000
0001
1000
0000
0001
0010
0001
0000
1000
0010
1000
0000
0004
0003
,
1000
0000
0000
0001
0000
0000
0100
0000
0100
0000
0000
0001
0000
0000
1000
0000
,
0001
0000
0000
0010
0000
0000
0100
0000
0100
0000
0000
1000
0000
0000
0010
0000
,
0100
0000
0000
0001
0000
0000
1000
0000
1000
0000
0000
0100
0000
0000
1000
0000
,
0010
0000
0000
0100
0000
0000
0001
0000
0001
0000
1000
0000
0100
0000
0010
0000
,
0011
0000
0000
0001
0000
0000
1000
0000
1000
0000
0000
0010
0000
0000
1000
0000
,
0001
0000
0000
0010
0000
0000
0001
0000
0001
0000
0000
0100
0000
0000
0010
0000
,
0010
0000
0000
1000
0000
0000
0001
0000
0010
0000
0000
0100
0000
0000
1000
0000
,
1000
0001
1000
0000
0010
0100
0001
0100
,
0101
0000
0000
0001
0000
0000
1000
0000
1000
0000
0000
0001
0000
0000
0010
0000
,
0100
0000
0000
1000
0000
0000
0001
0000
0001
0000
0000
0100
0000
0000
0010
0000
,
1000
0000
0000
0001
0000
0000
1000
0000
1000
0000
0000
0100
0000
0000
0010
0000
,
0001
0000
0000
1000
0000
0000
0001
0000
0001
0000
0000
0100
0000
0000
0010
0000
,
1010
0000
0000
1000
0000
0000
0001
0000
0010
0000
0000
0001
0000
0000
0100
0000
,
0010
0000
0000
1000
0000
0000
0001
0000
0100
0000
0000
0001
0000
0000
0010
0000
,
0100
0000
0000
1000
0000
0000
0001
0000
0001
0000
0000
0100
0000
0000
0010
0000
,
0010
0000
0000
1000
0000
0000
0001
0000
0001
0000
0000
0010
0000
0000
0100
0000
,
1100
0000
0000
1000
0000
0000
0010
0000
0010
0000
0000
1000
0000
0000
0001
0000
,
1000
0000
0000
0100
0000
0000
0010
0000
0010
0000
0000
0001
0000
0000
0100
0000
,
0010
0000
0000
1000
0000
0000
0001
0000
0001
0000
0000
0010
0000
0000
0001
0000
,
0100
0000
0000
0010
0000
0000
1000
0000
1000
0000
0001
0000
0000
1000
0000
0000
,
1001
0000
0000
0001
0000
0000
0100
0000
0100
0000
0000
0010
0000
0000
1000
0000
,
0001
0000
0000
0010
0000
0000
0001
0000
0001
0000
0000
0100
0000
0000
0010
0000
,
0010
0000
0000
1000
0000
0000
0001
0000
0010
0000
0000
0100
0000
0000
1000
0000
,
1000
0001
1000
0000
0010
0100
0001
0100
,
0101
0000
0000
0001
0000
0000
1000
0000
1000
0000
0000
0001
0000
0000
0010
0000
,
0100
0000
0000
1000
0000
0000
0001
0000
0001
0000
0000
0100
0000
0000
0010
0000
,
1000
0000
0000
0001
0000
0000
1000
0000
1000
0000
0000
0100
0000
0000
0010
0000
,
0001
0000
0000
1000
0000
0000
0001
0000
0001
0000
0000
0100
0000
0000
0010
0000
,
1010
0000
0000
1000
0000
0000
0001
0000
0010
0000
0000
0001
0000
0000
0100
0000
,
0010
0000
0000
1000
0000
0000
0001
0000
0100
0000
0000
0001
0000
0000
0010
0000
,
0100
0000
0000
1000
0000
0000
0001
0000
0001
0000
0000
0100
0000
0000
0010
0000
,
0010
0000
0000
1000
0000
0000
0001
0000
0001
0000
1000
0000
0010
0000
0100
0000
,
0001
1000
0001
1000
0100
0010
0001
1000
,
0010
1000
0001
0100
0001
1000
0001
0100
,
0010
1000
0001
1000
0100
1000
0010
0100
,
0001
0000
1000
0000
0001
0000
0010
0000
0100
0000
1000
0001
1000
0000
0001
0000
,
0101
0100
0010
1000
0001
1000
0100
1000
,
0010
0100
0001
0010
0100
0010
0001
1000
,
0001
0100
0001
1000
0010
0100
0001
1000
,
0001
0000
0010
0001
0010
0000
0001
1000
0001
0000
0100
0001
0100
0000
0040
0030
,
1010
1000
0001
1000
0100
0010
0001
1000
,
0001
0100
0010
1000
0001
1000
0010
1000
,
0100
0010
0001
1000
0001
0100
0001
1000
,
0100
0000
0010
0000
0100
0000
1000
0000
0001
0000
1000
0010
1000
0000
0001
0000
,
1001
1000
0100
1000
0001
0100
0010
0100
,
0001
1000
0100
1000
0010
0100
0001
1000
,
0001
0100
0010
0100
0001
1000
0001
0010
,
0100
0000
1000
0001
1000
0000
0010
1000
0010
0000
0100
0010
0100
0000
0004
0003
,
0101
0100
0010
1000
0001
1000
0100
1000
,
0001
0100
0010
1000
0001
1000
0100
0010
,
0001
1000
0001
0100
0010
0100
0001
1000
,
0100
0000
0010
0000
0001
0000
1000
0000
0001
0000
1000
0010
1000
0000
0004
0003
,
1001
1000
0100
0010
0100
0010
0001
1000
,
0001
0100
0010
1000
0001
1000
0100
1000
,
0010
0100
0001
1000
0010
1000
0001
0010
,
0001
0000
0100
0001
0100
0000
0001
1000
0001
0000
1000
0100
1000
0000
0004
0003
,
1001
1000
0001
1000
0001
1000
0001
1000
,
0001
0100
0001
0100
0010
1000
0010
1000
,
0001
0010
0001
0010
0001
0010
0001
0010
,
0100
0000
1000
0000
0100
0000
1000
0000
0100
0000
4000
3000
0100
0000
1000
0000
,
0001
0000
0000
1000
0000
0000
0010
0000
0100
0000
0000
0001
0000
0000
1000
0000
,
0100
0000
0000
0010
0000
0000
0001
0000
1000
0000
0000
0010
0000
0000
0100
0000
,
0001
0000
0000
1000
0000
0000
0100
0000
0010
0000
0000
0100
0000
0000
1000
0000
,
0001
0000
0000
0100
0000
0000
0010
0000
1000
0000
0000
0010
0000
0000
0100
0000
,
0101
0000
0000
1001
0000
0000
1100
0000
0110
0000
0000
0011
0000
0000
1001
0000
,
1010
0000
0000
0110
0000
0000
0101
0000
1001
0000
0000
1100
0000
0000
0110
0000
,
0011
0000
0000
1001
0000
0000
1010
0000
0110
0000
0000
0101
0000
0000
1001
0000
,
1100
0000
0000
0110
0000
0000
0011
0000
1001
0000
0000
1010
0000
0000
0110
0000
,
2002
3003
0000
0000
;

//---------------dance-single - 7 (Loak)----------------
#NOTES:
     dance-single:
     7 (Loak):
     Beginner:
     7:
     0.528,0.735,0.144,0.429,0.026,1019.000,47.000,140.000,0.000,0.000:
0000
0000
0000
0000
,
1000
0001
0010
0001
,
1000
0010
0100
0010
,
1000
0001
0010
0100
,
1000
0001
0100
0010
,
0110
1000
0001
0010
,
0001
1000
0001
0100
,
0010
1000
0001
0100
,
0001
0000
1000
0000
0002
0003
2000
3000
,
1001
1000
0010
1000
,
0001
0010
0001
0100
,
0001
1000
0010
1000
,
0010
0100
0001
1000
,
1001
0001
1000
0100
,
0010
0001
0100
0010
,
0100
0001
1000
0010
,
1000
0000
0000
0001
0000
0000
1000
0000
0000
0000
0000
0000
0002
0000
0000
0000
,
1003
0010
0100
0001
,
1000
0001
0010
0001
,
0100
0010
1000
0001
,
0010
0100
1000
0001
,
1001
1000
0010
0100
,
0001
0100
0010
1000
,
0001
1000
0100
0010
,
0001
0000
1000
0000
0020
0030
0200
0300
,
0110
0100
0001
1000
,
0010
0100
0001
1000
,
0001
0010
0100
0010
,
0001
1000
0010
1000
,
1010
0010
0100
0001
,
1000
0001
0100
0001
,
0010
0100
1000
0001
,
0100
0010
0100
0001
,
1001
0000
0000
0000
1000
0001
0100
0000
,
0101
0000
0000
0000
0001
1000
0100
0000
,
0011
0000
0000
0000
0001
1000
0010
0000
,
0110
0000
0000
0000
0100
0001
0100
0001
,
1001
0000
0000
0000
1000
0001
0010
0000
,
0011
0000
0000
0000
0001
1000
0001
0000
,
0101
0000
0000
0000
0100
0010
1000
0000
,
1010
1000
0001
1000
,
1001
0000
0000
0000
0001
1000
0010
0000
,
1010
0000
0000
0000
1000
0001
0010
0000
,
1001
0000
0000
0000
1000
0001
0100
0000
,
0110
0000
0000
0000
0010
1000
0010
1000
,
1001
0000
0000
0000
0001
1000
0100
0000
,
1100
0000
0000
0000
1000
0001
1000
0000
,
1010
0000
0000
0000
0010
0100
0001
0000
,
0101
0001
1000
0001
,
1001
1000
0001
0010
,
0001
0100
0010
1000
,
0001
0100
0001
1000
,
0100
0010
0001
1000
,
1010
0010
0100
0001
,
1000
0001
0010
0001
,
1000
0010
0100
0001
,
1000
0000
0100
0000
1000
0001
1000
0001
,
0101
0100
0001
1000
,
0100
0010
0100
1000
,
0001
0100
0001
0010
,
0100
1000
0001
0010
,
0011
0001
1000
0010
,
0100
0001
1000
0001
,
0100
0001
0010
0100
,
1000
0000
0001
0000
1000
0010
1000
0010
,
1010
0000
0000
0000
,
2000
3000
0000
0000
,
2000
0000
0000
3000
2000
0000
0000
0000
3000
0000
0000
0000
0000
0000
0000
0000
,
0002
0000
0003
0000
0000
0000
0001
1000
,
0002
0003
0000
0000
,
2000
3000
0000
0000
,
2000
0000
0000
3000
2000
0000
0000
0000
3000
0000
0000
0000
0000
0000
0000
0000
,
0002
0000
0003
0000
0000
0000
0001
1000
,
0002
0003
0000
0000
,
2000
3000
0000
0000
,
2000
0000
0000
3000
2000
0000
0000
0000
3000
0000
0000
0000
0000
0000
0000
0000
,
0002
0000
0003
0000
0000
0000
0001
1000
,
0002
0003
0000
0000
,
2000
3000
0000
0000
,
2000
0000
0000
3000
2000
0000
0000
0000
3000
0000
0000
0000
0000
0000
0000
0000
,
0002
0000
0003
0000
0000
0000
0001
1000
,
0002
0003
0000
0000
,
2000
0000
0000
0000
,
0000
0000
0000
0000
,
3020
0000
0230
0000
,
0302
0000
2003
0000
,
3200
0000
0000
0000
,
0000
0000
0000
0000
,
0320
0000
0000
0000
,
0000
0000
0032
2003
,
3020
0000
0000
0000
,
0230
0000
0320
0000
,
2030
0000
0000
0000
,
3002
0000
0000
0000
,
0023
0000
0000
0000
,
0000
0000
0000
0000
,
0000
0000
0000
0000
,
0000
0000
0000
0000
,
0032
0000
0000
0000
,
0000
0000
0000
0000
,
2003
0000
3020
0000
,
0230
0000
0302
0000
,
2003
0000
0000
0000
,
0000
0000
0000
0000
,
3002
0000
0000
0000
,
0000
0000
0203
0320
,
2030
0000
0000
0000
,
3002
0000
0023
0000
,
0230
0000
0000
0000
,
2300
0000
0000
0000
,
3002
0000
0000
0000
,
0000
0000
0000
0000
,
0000
0000
0000
0000
,
0000
0000
0000
0000
,
2003
3000
0000
0000
0000
0000
1000
0001
,
1000
0000
0001
0000
,
1000
0000
0000
0000
,
0000
0000
0000
0000
0000
0001
1000
0001
,
0200
0001
0010
0001
,
0010
0001
0010
0001
,
2300
0001
3002
0100
,
0203
0010
0320
1000
,
2030
0100
0001
0100
,
0001
0100
0001
0100
,
3002
0100
1000
0100
,
1000
0100
2003
3200
,
0320
0001
0100
0001
,
0230
1000
0302
0100
,
2003
0010
0001
0010
,
3002
0010
1000
0010
,
2003
0010
0001
0100
,
0001
0010
0001
0100
,
0001
0010
0001
0100
,
0001
0010
0001
0100
,
3002
0100
1000
0100
,
1000
0100
1000
0100
,
2003
0010
3020
0100
,
0230
0001
0302
0010
,
0023
0100
0001
0100
,
0001
0100
0001
0100
,
0032
1000
0100
1000
,
0100
1000
0203
0320
,
2030
0001
0100
0001
,
3200
0010
0302
1000
,
0023
0100
1000
0100
,
2030
0010
0001
0010
,
3002
0100
1000
0010
,
1000
0100
1000
0010
,
1000
0100
1000
0010
,
1000
0100
1000
0010
,
2003
0100
0001
0100
,
0001
0100
0001
0100
,
3002
1000
2003
0010
,
3020
0100
0230
0001
,
0302
0010
1000
0010
,
1000
0010
1000
0010
,
2003
0010
0001
0010
,
0001
0010
3002
0023
,
0230
1000
0010
1000
,
0320
0001
2030
0010
,
3002
0100
1000
0100
,
2003
0100
0001
0100
,
3002
0100
1000
0010
,
1000
0100
1000
0010
,
1000
0100
1000
0010
,
1000
0100
1000
0010
,
2003
0010
0001
0010
,
0001
0010
0001
0010
,
3002
0100
0203
0010
,
0320
1000
2030
0100
,
3200
0010
1000
0010
,
1000
0010
1000
0010
,
2300
0001
0010
0001
,
0010
0001
3020
0230
,
0302
1000
0010
1000
,
0023
0100
2030
0001
,
3200
0010
0001
0010
,
0302
0100
1000
0100
,
1003
0000
0000
0001
0000
0000
1000
0000
0001
0000
0000
1000
0000
0000
0001
0000
,
0100
0000
0000
0010
0000
0000
0100
0000
0010
0000
0000
0100
0000
0000
0010
0000
,
1000
0000
0000
0001
0000
0000
1000
0000
0001
0000
0000
1000
0000
0000
0001
0000
,
0010
0000
0000
0100
0000
0000
0010
0000
0100
0000
0000
0010
0000
0000
0100
0000
,
0010
0001
1000
0010
,
1000
0001
0100
0001
,
0010
0100
1000
0001
,
1000
0010
0100
0001
,
0101
0100
0010
1000
,
0001
1000
0100
0010
,
0001
1000
0001
0100
,
0010
1000
0001
1000
,
1001
0001
0010
0001
,
0010
0100
1000
0001
,
1000
0001
0100
0010
,
1000
0010
0100
0001
,
0101
0100
0010
1000
,
0001
1000
0100
0010
,
0100
1000
0001
0100
,
0001
0100
0010
1000
,
1010
0000
0000
0000
1000
0001
0010
0000
,
0011
0000
0000
0000
0001
1000
0100
0000
,
1100
0000
0000
0000
1000
0001
0100
0000
,
0110
0000
0000
0000
1000
0001
1000
0001
,
0101
0000
0000
0000
0001
0100
0010
0000
,
1010
0000
0000
0000
1000
0001
0010
0000
,
0011
0000
0000
0000
0001
1000
0010
0000
,
1010
1000
0001
1000
,
1001
0000
0000
0000
0001
1000
0100
0000
,
1100
0000
0000
0000
1000
0001
0010
0000
,
0011
0000
0000
0000
0001
1000
0010
0000
,
0110
0000
0000
0000
0001
1000
0001
1000
,
1010
0000
0000
0000
1000
0010
0100
0000
,
0101
0000
0000
0000
0001
1000
0100
0000
,
1100
0000
0000
0000
1000
0001
0100
0000
,
0101
0001
1000
0001
,
1000
0100
0010
0001
,
1000
0001
0100
0010
,
1000
0001
1000
0100
,
0010
0000
0001
0000
1000
0000
0001
1000
,
0001
0100
0010
1000
,
0001
1000
0010
0100
,
0001
1000
0100
0010
,
0001
0000
1000
0000
0001
0000
0100
0001
,
0100
0010
1000
0001
,
1000
0100
0010
0001
,
1000
0001
0100
0001
,
1000
0000
0100
0000
0010
0000
0001
1000
,
0001
0100
0010
1000
,
0001
1000
0100
0010
,
0001
1000
0001
0100
,
0010
0100
0010
1000
,
1001
0001
0010
0100
,
0010
0001
1000
0001
,
0100
0010
1000
0001
,
1000
0000
0100
0000
0010
0000
0001
1000
,
0001
0100
0010
1000
,
0010
0100
0001
1000
,
0001
0100
0001
1000
,
0010
0000
0100
0000
0001
0000
1000
0100
,
1000
0001
0010
0100
,
1000
0001
0100
0001
,
1000
0100
0010
0001
,
1000
0000
0001
0000
0100
0000
0010
1000
,
0010
1000
0001
1000
,
0100
0010
0001
1000
,
0001
0100
0001
1000
,
0001
0010
0001
1000
,
0020
1000
0100
1000
,
0100
1000
0100
1000
,
0032
1000
2003
0010
,
3020
0100
0230
0001
,
0302
0010
1000
0010
,
1000
0010
1000
0010
,
2003
0010
0001
0010
,
0001
0010
3002
0023
,
0230
1000
0010
1000
,
0320
0001
2030
0010
,
3002
0100
1000
0100
,
2003
0100
0001
0100
,
3002
0100
1000
0010
,
1000
0100
1000
0010
,
1000
0100
1000
0010
,
1000
0100
1000
0010
,
2003
0010
0001
0010
,
0001
0010
0001
0010
,
3002
0100
0203
0010
,
0320
1000
2030
0100
,
3200
0010
1000
0010
,
1000
0010
1000
0010
,
2300
0001
0010
0001
,
0010
0001
3020
0230
,
0301
1000
0001
1000
0001
1000
0001
1000
,
0010
0100
0010
0100
0010
0100
0010
0100
,
0001
1000
0001
1000
0001
1000
0001
1000
,
0100
0010
0100
0010
0100
0010
0100
0010
,
0001
0000
0000
0000
0000
0000
0000
0000
1000
0000
0000
0010
0000
0000
1000
0000
,
0010
0000
0000
0000
0000
0000
0000
0000
1000
0000
0000
0001
0000
0000
1000
0000
,
0001
0000
0000
0000
0000
0000
0000
0000
0010
0000
0000
0001
0000
0000
0010
0000
,
0001
0000
0000
0000
0000
0000
0000
0000
1000
0000
0000
0001
0000
0000
1000
0000
,
0001
0000
0000
0000
0000
0000
0000
0000
0100
0000
0000
0001
0000
0000
0100
0000
,
0001
0000
0000
0000
0000
0000
0000
0000
1000
0000
0000
0010
0000
0000
1000
0000
,
0010
0000
0000
0000
0000
0000
0000
0000
1000
0000
0000
0001
0000
0000
1000
0000
,
0001
0000
0000
0000
0000
0000
0000
0000
0010
0000
0000
0001
0000
0000
0010
0000
,
0002
0003
0000
0000
;

//---------------dance-single - BS = 3.8----------------
#NOTES:
     dance-single:
     BS = 3.8:
     Edit:
     18:
     1.000,1.000,0.074,0.411,1.000,3726.000,24.000,134.000,0.000,1.000:

0000
0000
0000
0000
,
1000
0100
0010
0100
1000
0001
1000
0010
0100
0010
0100
0001
0100
0001
1000
0100
,
1000
0010
0100
0010
1000
0001
1000
0100
0010
0100
0010
0001
0010
0001
1000
0010
,
1000
0100
0010
0100
1000
0001
1000
0010
0100
0010
0100
0001
0100
0001
1000
0100
,
1000
0010
0100
0010
1000
0001
1000
0100
0010
0100
1000
0010
0100
0001
0010
0001
,
1000
0100
0010
0100
1000
0001
1000
0010
0100
0010
0100
0001
0100
0001
1000
0100
,
1000
0010
0100
0010
1000
0001
1000
0100
0010
0100
0010
0001
0010
0001
1000
0010
,
1000
0100
0010
0100
1000
0001
1000
0010
0100
0010
0100
0001
0100
0001
1000
0100
,
1000
0010
0100
0010
1000
0001
1000
0100
0010
0100
1000
0001
0100
0010
0100
0001
,
1000
0100
0010
0001
0010
0001
0100
0001
1000
0100
1000
0001
0010
0100
0010
0001
,
1000
0010
0100
0001
0100
0001
0010
0001
1000
0010
1000
0001
0100
0010
0100
0001
,
1000
0100
0010
0001
0010
0001
0100
0001
1000
0100
1000
0001
0010
0100
0010
0001
,
1000
0010
0100
0001
0100
0001
0010
0001
1000
0010
0100
0001
0010
0001
0100
0010
,
1000
0100
0010
0100
0010
0001
0100
0001
1000
0100
1000
0001
0010
0100
0010
0001
,
1000
0010
0100
0010
0100
0001
0010
0001
1000
0010
1000
0001
0100
0010
0100
0001
,
1000
0100
0010
0100
0010
0001
0100
0001
1000
0100
1000
0001
0010
0100
0010
0001
,
1000
0000
0000
0001
0000
0000
1000
0000
0100
0000
0020
0000
0032
0000
2003
0000
,
3001
0010
0001
0010
0001
1000
0001
1000
0100
0010
0001
1000
0100
0010
0001
1000
,
0100
0010
0100
0010
0001
0010
0001
0010
0001
1000
0010
0100
0001
1000
0010
0100
,
0001
1000
0001
1000
0100
1000
0100
1000
0010
0100
0001
1000
0010
0100
0001
1000
,
0100
1000
0100
1000
0001
1000
0001
1000
0001
0100
0010
1000
0001
1000
0100
0010
,
0001
1000
0001
1000
0001
0100
0001
0100
0010
1000
0001
1000
0100
1000
0001
1000
,
0001
0100
0001
0100
0010
1000
0010
1000
0001
1000
0100
1000
0001
1000
0010
1000
,
0001
0010
0001
0010
0100
1000
0100
1000
0001
0100
0010
1000
0001
1000
0010
0100
,
0001
1000
0001
1000
0100
1000
0100
1000
0001
0100
0010
0100
0001
0010
0100
1000
,
0001
0010
0001
0010
0001
1000
0001
1000
0100
0010
0001
1000
0100
0010
0001
1000
,
0100
0010
0100
0010
0001
0010
0001
0010
0001
1000
0010
0100
0001
1000
0010
0100
,
0001
1000
0001
1000
0100
1000
0100
1000
0010
0100
0001
1000
0010
0100
0001
1000
,
0100
1000
0100
1000
0001
1000
0001
1000
0001
0100
0010
1000
0001
1000
0100
0010
,
0001
1000
0001
1000
0001
0100
0001
0100
0010
1000
0001
1000
0100
1000
0001
1000
,
0001
0100
0001
0100
0010
1000
0010
1000
0001
1000
0100
1000
0001
1000
0010
1000
,
0100
0010
0100
1000
0001
1000
0001
0100
0010
1000
0001
0010
0100
0010
0001
0100
,
0010
1000
0100
1000
0010
0100
0001
0010
0100
0010
0001
0100
0010
1000
0100
1000
,
0001
0100
0001
0100
0010
1000
0001
0010
0100
1000
0010
0100
0001
1000
0100
1000
,
0001
0010
0001
0010
0100
1000
0001
0100
0010
1000
0100
0010
0001
1000
0010
1000
,
0001
0100
0001
0100
0010
1000
0001
0010
0100
1000
0010
0100
0001
1000
0100
1000
,
0001
0010
0001
0010
0100
1000
0001
0100
0010
1000
0100
0010
0001
0100
0010
1000
,
0001
0100
0010
0100
0010
1000
0001
0010
0100
1000
0010
0100
0001
1000
0100
1000
,
0001
0010
0100
0010
0100
1000
0001
0100
0010
1000
0100
0010
0001
1000
0010
1000
,
0001
0100
0010
0100
0010
1000
0001
0010
0100
1000
0010
0100
0001
1000
0100
1000
,
0001
0010
0100
0010
0001
1000
0010
1000
0001
0100
0001
1000
0100
1000
0001
0100
,
0001
1000
0100
1000
0100
0010
0100
1000
0001
0100
0010
1000
0100
0010
0001
0100
,
0001
1000
0010
1000
0010
0100
0010
1000
0001
0010
0100
1000
0010
0100
0001
0010
,
0001
1000
0100
1000
0100
0010
0100
1000
0001
0100
0010
1000
0100
0010
0001
0100
,
0001
1000
0010
1000
0010
0100
0010
1000
0001
0010
0100
1000
0010
0100
0001
0010
,
0001
1000
0100
0010
0100
0010
0001
1000
0001
0100
0010
1000
0100
0010
0001
0100
,
0001
1000
0010
0100
0010
0100
0001
1000
0001
0010
0100
1000
0010
0100
0001
0010
,
0001
1000
0100
0010
0100
0010
0001
1000
0001
0100
0010
1000
0100
0010
0001
0100
,
0001
1000
0001
1000
0010
0100
0001
0010
0100
1000
0100
1000
0001
0010
0100
1000
,
0001
0100
0001
0100
0010
1000
0010
1000
0001
0010
0100
1000
0001
0010
0100
1000
,
0001
0010
0001
0010
0100
1000
0100
1000
0001
0100
0010
1000
0001
0100
0010
1000
,
0001
1000
0001
1000
0100
0010
0100
0010
0001
1000
0010
0100
0001
1000
0010
0100
,
0001
1000
0001
1000
0010
0100
0010
0100
0001
1000
0100
0010
0001
1000
0100
1000
,
0001
1000
0100
1000
0100
0010
0001
0010
0001
1000
0100
0010
0001
1000
0100
0010
,
0001
1000
0001
1000
0010
0100
0010
0100
0001
1000
0010
0100
0001
1000
0010
0100
,
0001
1000
0100
1000
0100
0010
0001
0010
0001
1000
0100
0010
0001
1000
0100
0010
,
0001
1000
0001
1000
0010
0100
0010
0100
0001
1000
0010
0100
0001
1000
0010
0100
,
0001
0100
0001
0100
0010
1000
0010
1000
0001
0010
0100
1000
0001
0010
0100
1000
,
0001
0010
0001
0010
0100
1000
0100
1000
0001
0100
0010
1000
0001
0100
0010
1000
,
0001
1000
0001
1000
0100
0010
0100
0010
0001
1000
0010
0100
0001
1000
0010
0100
,
0001
1000
0001
1000
0010
0100
0010
0100
0001
1000
0100
0010
0001
1000
0100
1000
,
0001
0100
0001
0100
0010
1000
0010
1000
0001
0010
0100
1000
0001
0010
0100
1000
,
0001
0010
0001
0010
0100
1000
0100
1000
0001
0100
0010
1000
0001
0100
0010
1000
,
0001
1000
0001
1000
0100
0010
0100
0010
0001
1000
0010
0100
0001
1000
0010
0100
,
0001
1000
0001
1000
0010
0100
0010
0100
0001
1000
0100
0010
0001
1000
0100
0010
,
0001
0000
0000
0000
,
0002
0003
0000
0000
0000
0000
0000
0000
0000
0000
0000
0000
0000
0000
0000
0000
,
2000
3000
0000
0000
0200
0300
0000
0000
1000
0000
0000
0000
0001
0100
0001
1000
,
0002
0003
0000
0000
0000
0000
0000
0000
0000
0000
0000
0000
0020
0030
0020
0030
,
0020
0030
0000
0000
0000
0000
0000
0000
0001
0100
0001
1000
0001
0100
0001
1000
,
0002
0003
0000
0000
0000
0000
0000
0000
0000
0000
0000
0000
0000
0000
0000
0000
,
2000
3000
0000
0000
2000
3000
0000
0000
0100
0000
0000
0000
1000
0100
1000
0001
,
2000
3000
0000
0000
0000
0000
0000
0000
0000
0000
0000
0000
0002
0003
0200
0300
,
0002
0003
0000
0000
0000
0000
0000
0000
1000
0100
1000
0001
1000
0100
1000
0001
,
2000
3000
0000
0000
0000
0000
0000
0000
0000
0000
0000
0000
0000
0000
0000
0000
,
0020
0030
0000
0000
0200
0300
0000
0000
0001
0000
0000
0000
1000
0100
1000
0001
,
2000
3000
0000
0000
0000
0000
0000
0000
0000
0000
0000
0000
0020
0030
2000
3000
,
0020
0030
0000
0000
0000
0000
0000
0000
1000
0010
1000
0001
1000
0010
1000
0001
,
2000
3000
0000
0000
0000
0000
0000
0000
0000
0000
0000
0000
0000
0000
0000
0000
,
0002
0003
0000
0000
2000
3000
0000
0000
0010
0000
0000
0000
1000
0001
0010
0001
,
2000
3000
0000
0000
0000
0000
0000
0000
0000
0000
0000
0000
2000
3000
0002
0003
,
2000
3000
0000
0000
0000
0000
0000
0000
0001
0100
0001
1000
0001
0100
0001
1000
,
0002
0000
0000
0000
,
2000
3000
0000
0000
2000
3000
0000
0000
0100
0000
0000
0000
1003
0100
1000
0001
,
2000
0000
0000
0000
0000
0000
0000
0000
0000
0000
0000
0000
3002
0003
0200
0300
,
0002
0000
0000
0000
0000
0000
0000
0000
1003
0100
1000
0001
1000
0100
1000
0001
,
2000
0000
0000
0000
,
0002
0003
0000
0000
0002
0003
0000
0000
0100
0000
0000
0000
3001
0100
0001
1000
,
0002
0000
0000
0000
0000
0000
0000
0000
0000
0000
0000
0000
2003
3000
0020
0030
,
2000
0000
0000
0000
0000
0000
0000
0000
3001
0100
0001
1000
0001
0100
0001
1000
,
0002
0000
0000
0000
,
0020
0030
0000
0000
0020
0030
0000
0000
1000
0000
0000
0000
1003
0100
1000
0001
,
2000
0000
0000
0000
0000
0000
0000
0000
0000
0000
0000
0000
3020
0030
0200
0300
,
0020
0000
0000
0000
0000
0000
0000
0000
1030
0100
1000
0001
1000
0100
1000
0001
,
2000
0000
0000
0000
,
0020
0030
0000
0000
0020
0030
0000
0000
0001
0000
0000
0000
3001
0100
0001
1000
,
0002
0000
0000
0000
0000
0000
0000
0000
0000
0000
0000
0000
2003
3000
0002
0003
,
2000
0000
0000
0000
0000
0000
0000
0000
3001
0100
0001
1000
0001
0100
0001
1000
,
0002
0000
0000
0000
,
0000
0000
0000
0000
,
0023
0000
0032
0000
,
0203
0000
0320
0000
,
2030
0000
0000
0000
,
0000
0000
0000
0000
,
3002
0000
0000
0000
,
0000
0000
0023
0230
,
2300
0000
0000
0000
,
3020
0000
2030
0000
,
3002
0000
0000
0000
,
0023
0000
0000
0000
,
0230
0000
0000
0000
,
2300
3000
0000
0000
2000
3000
0000
0000
0100
0000
0000
0000
1000
0100
1000
0001
,
2000
3000
0000
0000
0000
0000
0000
0000
0000
0000
0000
0000
0002
0003
0002
0003
,
2000
3000
0000
0000
0000
0000
0000
0000
0001
0100
0001
1000
0001
0100
0001
1000
,
0002
0003
0000
0000
0000
0000
0000
0000
0000
0000
0000
0000
2000
3000
0002
0003
,
2000
3000
0000
0000
0000
0000
0000
0000
2000
3000
0000
0000
0000
0000
0000
0000
,
2000
3000
0000
0000
0000
0000
0000
0000
0000
0000
0000
0000
0000
0000
0000
0000
,
0000
0000
0000
0000
0000
0000
0000
0000
0000
0000
0001
0010
0100
1000
0010
0100
,
0001
1000
0100
0010
0001
1000
0001
0010
0001
1000
0100
1000
0001
1000
0100
0010
,
0100
1000
0001
1000
0001
0010
0100
0010
0001
1000
0100
0010
0001
1000
0001
1000
,
0010
0100
0001
0100
0010
1000
0001
0100
0001
1000
0100
0010
0100
1000
0001
1000
,
0010
1000
0001
0100
0010
1000
0001
1000
0001
0010
0001
1000
0100
0010
0001
1000
,
0010
0100
0001
1000
0001
0100
0010
1000
0001
1000
0010
0100
0001
1000
0010
0100
,
0010
0100
0001
1000
0001
0100
0010
1000
0010
0100
0001
1000
0010
1000
0010
0100
,
0001
0010
0100
0010
0001
1000
0001
0010
0100
1000
0100
1000
0001
0010
0001
1000
,
0100
0010
0001
0010
0100
1000
0001
1000
0010
1000
0001
0100
0001
1000
0100
1000
,
0001
0100
0010
1000
0010
0100
0001
1000
0001
0100
0010
1000
0010
0100
0001
1000
,
0010
1000
0100
0010
0001
0010
0100
1000
0001
0100
0010
1000
0001
0100
0010
0100
,
0001
0010
0100
0010
0001
1000
0100
1000
0001
0010
0100
0010
0001
1000
0001
1000
,
0010
1000
0010
0100
0001
0100
0010
1000
0001
0100
0001
1000
0010
1000
0001
0100
,
0001
1000
0100
1000
0100
0010
0001
1000
0001
0100
0010
0100
0010
1000
0001
0010
,
0001
1000
0100
1000
0100
0010
0001
1000
0010
0100
0001
0100
0001
1000
0010
0100
,
0010
1000
0001
1000
0001
0010
0100
1000
0001
0010
0100
0010
0100
1000
0001
1000
,
0010
0100
0001
1000
0001
0010
0100
1000
0001
0100
0010
1000
0001
0010
0100
1000
,
0001
1000
0010
0100
0001
1000
0001
0100
0001
1000
0010
1000
0001
1000
0010
0100
,
0010
1000
0001
1000
0001
0100
0010
0100
0001
1000
0010
0100
0001
1000
0001
1000
,
0100
0010
0001
0010
0100
1000
0001
0010
0001
1000
0010
0100
0010
1000
0001
1000
,
0100
1000
0001
0010
0100
1000
0001
1000
0001
0100
0001
1000
0010
0100
0001
1000
,
0100
0010
0001
1000
0001
0010
0100
1000
0001
1000
0100
0010
0001
1000
0100
0010
,
0100
0010
0001
1000
0001
0010
0100
1000
0100
0010
0001
1000
0100
1000
0100
0010
,
0001
0100
0010
0100
0001
1000
0001
0100
0010
1000
0010
1000
0001
0100
0001
1000
,
0010
0100
0001
0100
0010
1000
0001
1000
0100
1000
0001
0010
0001
1000
0010
1000
,
0001
0010
0100
1000
0100
0010
0001
1000
0001
0010
0100
1000
0100
0010
0001
1000
,
0100
1000
0010
0100
0001
0100
0010
1000
0001
0010
0100
1000
0001
0010
0100
0010
,
0001
0100
0010
0100
0001
1000
0010
1000
0001
0100
0010
0100
0001
1000
0001
1000
,
0100
1000
0100
0010
0001
0010
0100
1000
0001
0010
0001
1000
0100
1000
0001
0010
,
0001
1000
0010
1000
0010
0100
0001
1000
0001
0010
0100
0010
0100
1000
0001
0100
,
0001
1000
0010
1000
0010
0100
0001
1000
0100
0010
0001
0010
0001
1000
0100
0010
,
0100
1000
0001
1000
0001
0100
0010
1000
0001
0100
0010
0100
0010
1000
0001
1000
,
0100
0010
0001
1000
0010
0100
0010
1000
0001
0010
0100
0010
0001
1000
0010
0100
,
0010
1000
0100
0010
0001
1000
0001
0010
0001
1000
0100
1000
0001
1000
0100
0010
,
0100
1000
0001
1000
0001
0010
0100
0010
0001
1000
0100
0010
0001
1000
0001
1000
,
0010
0100
0001
0100
0010
1000
0001
0100
0001
1000
0100
0010
0100
1000
0001
1000
,
0010
1000
0001
0100
0010
1000
0001
1000
0001
0010
0001
1000
0100
0010
0001
1000
,
0010
0100
0001
1000
0001
0100
0010
1000
0001
1000
0010
0100
0001
1000
0010
0100
,
0010
0100
0001
1000
0001
0100
0010
1000
0010
0100
0001
1000
0010
1000
0010
0100
,
0001
0010
0100
0010
0001
1000
0001
0010
0100
1000
0100
1000
0001
0010
0001
1000
,
0100
0010
0001
0010
0100
1000
0001
1000
0010
1000
0001
0100
0001
1000
0100
1000
,
0001
0100
0010
1000
0010
0100
0001
1000
0001
0100
0010
1000
0010
0100
0001
1000
,
0010
1000
0100
0010
0001
0010
0100
1000
0001
0100
0010
1000
0001
0100
0010
0100
,
0001
0010
0100
0010
0001
1000
0100
1000
0001
0010
0100
0010
0001
1000
0001
1000
,
0010
1000
0010
0100
0001
0100
0010
1000
0001
0100
0001
1000
0010
1000
0001
0100
,
0001
1000
0100
1000
0100
0010
0001
1000
0001
0100
0010
0100
0010
1000
0001
0010
,
0001
1000
0100
1000
0100
0010
0001
1000
0010
0100
0001
0100
0001
1000
0010
0100
,
0010
1000
0001
1000
0001
0010
0100
1000
0001
0010
0100
0010
0100
1000
0001
1000
,
0010
0100
0001
1000
0001
0010
0100
1000
0001
0100
0010
1000
0001
0010
0100
1000
,
0001
1000
0010
0100
0001
1000
0001
0100
0001
1000
0010
1000
0001
1000
0010
0100
,
0010
1000
0001
1000
0001
0100
0010
0100
0001
1000
0010
0100
0001
1000
0001
1000
,
0100
0010
0001
0010
0100
1000
0001
0010
0001
1000
0010
0100
0010
1000
0001
1000
,
0100
1000
0001
0010
0100
1000
0001
1000
0001
0100
0001
1000
0010
0100
0001
1000
,
0100
0010
0001
1000
0001
0010
0100
1000
0001
1000
0100
0010
0001
1000
0100
0010
,
0100
0010
0001
1000
0001
0010
0100
1000
0100
0010
0001
1000
0100
1000
0100
0010
,
0001
0100
0010
0100
0001
1000
0001
0100
0010
1000
0010
1000
0001
0100
0001
1000
,
0010
0100
0001
0100
0010
1000
0001
1000
0100
1000
0001
0010
0001
1000
0010
1000
,
0001
0100
0010
1000
0001
0100
0010
1000
0001
0010
0100
1000
0001
0010
0100
1000
,
0001
0100
0010
1000
0001
0100
0010
1000
0001
0010
0100
1000
0001
0010
0100
1000
,
0001
0100
0010
1000
0010
0100
0001
1000
0001
0010
0100
1000
0001
1000
0100
0010
,
0001
1000
0010
0100
0001
0100
0010
1000
0001
0010
0001
1000
0100
0010
0001
1000
,
0200
0300
0000
0000
0000
0000
0000
0000
0000
0000
0000
0000
0020
0030
0000
0000
0000
0000
0000
0000
0000
0000
0000
0000
0002
0003
0000
0000
0000
0000
0000
0000
2000
3000
0000
0000
0000
0000
0000
0000
0000
0000
0000
0000
0020
0030
0000
0000
0000
0000
0000
0000
0000
0000
0000
0000
0200
0300
0000
0000
0000
0000
0000
0000
,
0020
0030
0000
0000
0000
0000
0000
0000
0000
0000
0000
0000
2000
3000
0000
0000
0000
0000
0000
0000
0000
0000
0000
0000
0200
0300
0000
0000
0000
0000
0000
0000
0020
0030
0000
0000
0000
0000
0000
0000
0000
0000
0000
0000
0200
0300
0000
0000
0000
0000
0000
0000
0000
0000
0000
0000
2000
3000
0000
0000
0000
0000
0000
0000
,
0002
0000
0000
0000
0003
0000
0000
0000
0000
0000
0000
0000
0000
0000
0000
0000
0000
0000
0000
0000
0000
0000
0000
0000
0000
0000
0000
0000
0000
0000
0000
0000
0000
0000
0000
0000
0200
0000
0000
0000
0300
0000
0000
0000
0000
0000
0000
0000
0000
0000
0000
0000
0000
0000
0000
0000
0000
0000
0000
0000
0000
0000
0000
0000
0000
0000
0000
0000
0000
0000
0000
0000
0020
0000
0000
0000
0000
0000
0030
0000
0000
0000
0000
0000
0000
0000
0000
0000
0000
0000
0000
0000
0000
0000
0000
0000
2000
0000
0000
0000
0000
0000
3000
0000
0000
0000
0000
0000
0000
0000
0000
0000
0000
0000
0000
0000
0000
0000
0000
0000
0000
0000
0000
0000
0000
0000
0000
0000
0000
0000
0000
0000
0002
0000
0000
0000
0000
0000
0000
0000
0003
0000
0000
0000
0000
0000
0000
0000
0000
0000
0000
0000
0000
0000
0000
0000
0000
0000
0000
0000
0000
0000
0000
0000
0000
0000
0000
0000
0020
0000
0000
0000
0000
0000
0000
0000
0030
0000
0000
0000
0000
0000
0000
0000
0000
0000
0000
0000
0000
0000
0000
0000
,
0200
0000
0000
0300
0000
0000
0000
0000
0000
0020
0000
0000
0030
0000
0000
0000
0000
0000
0002
0000
0000
0000
0003
0000
0200
0000
0000
0000
0300
0000
0000
0000
0000
0020
0000
0000
0000
0000
0000
0030
0000
0000
2000
0000
0000
0000
0000
0000
,
3001
0100
0001
0100
0010
1000
0001
0010
0100
1000
0010
0100
0001
1000
0100
1000
,
0001
0010
0001
0010
0100
1000
0001
0100
0010
1000
0100
0010
0001
1000
0010
1000
,
0001
0100
0001
0100
0010
1000
0001
0010
0100
1000
0010
0100
0001
1000
0100
1000
,
0001
0010
0001
0010
0100
1000
0001
0100
0010
1000
0100
0010
0001
0100
0010
1000
,
0001
0100
0010
0100
0010
1000
0001
0010
0100
1000
0010
0100
0001
1000
0100
1000
,
0001
0010
0100
0010
0100
1000
0001
0100
0010
1000
0100
0010
0001
1000
0010
1000
,
0001
0100
0010
0100
0010
1000
0001
0010
0100
1000
0010
0100
0001
1000
0100
1000
,
0001
0010
0100
0010
0001
1000
0010
1000
0001
0100
0001
1000
0100
1000
0001
0100
,
0001
1000
0100
1000
0100
0010
0100
1000
0001
0100
0010
1000
0100
0010
0001
0100
,
0001
1000
0010
1000
0010
0100
0010
1000
0001
0010
0100
1000
0010
0100
0001
0010
,
0001
1000
0100
1000
0100
0010
0100
1000
0001
0100
0010
1000
0100
0010
0001
0100
,
0001
1000
0010
1000
0010
0100
0010
1000
0001
0010
0100
1000
0010
0100
0001
0010
,
0001
1000
0100
0010
0100
0010
0001
1000
0001
0100
0010
1000
0100
0010
0001
0100
,
0001
1000
0010
0100
0010
0100
0001
1000
0001
0010
0100
1000
0010
0100
0001
0010
,
0001
1000
0100
0010
0100
0010
0001
1000
0001
0100
0010
1000
0100
0010
0001
0100
,
0001
1000
0001
1000
0010
0100
0001
0010
0100
1000
0100
1000
0001
0010
0100
1000
,
0001
0010
0001
0010
0100
1000
0100
1000
0001
0010
0100
1000
0001
0010
0100
1000
,
0001
0100
0001
0100
0010
1000
0010
1000
0001
0100
0010
1000
0001
0100
0010
1000
,
0001
1000
0001
1000
0001
0010
0100
0010
0100
1000
0001
0010
0100
1000
0001
0010
,
0100
1000
0001
1000
0001
0100
0010
0100
0010
1000
0010
0100
0001
1000
0010
0100
,
0001
0100
0001
0100
0010
1000
0010
1000
0001
0100
0010
1000
0001
0100
0010
1000
,
0001
0010
0001
0010
0100
1000
0100
1000
0001
0010
0100
1000
0001
0010
0100
1000
,
0001
1000
0001
1000
0001
0100
0010
0100
0010
1000
0001
0100
0010
1000
0001
0100
,
0010
1000
0001
1000
0001
0010
0100
0010
0100
1000
0100
0010
0001
1000
0100
0010
,
0001
1000
0100
0010
0001
1000
0100
0010
0001
0010
0100
1000
0001
0010
0100
1000
,
0001
0100
0010
0100
0001
1000
0001
1000
0010
0100
0001
1000
0001
0100
0010
1000
,
0001
0010
0100
0010
0001
1000
0100
1000
0001
0010
0001
1000
0100
0010
0001
1000
,
0001
0100
0001
1000
0010
0100
0010
1000
0001
0100
0010
1000
0001
0100
0001
1000
,
0001
0010
0100
0010
0001
1000
0100
0010
0001
0010
0100
1000
0001
0010
0100
1000
,
0001
0100
0010
0100
0001
1000
0001
1000
0010
0100
0001
1000
0001
0100
0010
1000
,
0001
0010
0100
0010
0001
1000
0100
1000
0001
0010
0001
1000
0100
0010
0001
1000
,
0001
0100
0001
1000
0010
0100
0010
1000
0001
0100
0010
1000
0100
0010
0001
0100
,
0010
1000
0001
0010
0100
1000
0010
1000
0010
1000
0001
0010
0100
0010
0001
1000
,
0010
1000
0001
0010
0100
1000
0010
1000
0010
1000
0001
0010
0100
1000
0010
1000
,
0100
0010
0001
0100
0010
1000
0100
1000
0100
0010
0001
0100
0010
1000
0001
1000
,
0100
0010
0001
0100
0010
1000
0100
1000
0100
0010
0001
0100
0010
1000
0100
1000
,
0010
1000
0001
0010
0100
1000
0010
1000
0010
1000
0001
0010
0100
0010
0001
1000
,
0010
1000
0001
0010
0100
1000
0001
1000
0010
1000
0001
0010
0100
1000
0010
1000
,
0010
0100
0001
0010
0100
1000
0001
1000
0010
0100
0001
0010
0100
1000
0010
1000
,
0010
0100
0001
1000
0010
0100
0001
1000
0010
1000
0001
1000
0100
0010
0001
1000
,
0010
1000
0001
0010
0100
1000
0010
1000
0010
1000
0001
0010
0100
0010
0001
1000
,
0010
1000
0001
0010
0100
1000
0001
1000
0010
1000
0001
0010
0100
1000
0001
0100
,
0010
1000
0001
0010
0100
1000
0010
1000
0010
0100
0001
0010
0100
1000
0001
1000
,
0010
0100
0001
0010
0100
1000
0010
1000
0010
0100
0001
0010
0100
1000
0010
1000
,
0100
1000
0001
0100
0010
1000
0001
1000
0100
1000
0001
0100
0010
0100
0001
1000
,
0100
1000
0001
0100
0010
1000
0001
1000
0100
1000
0001
0100
0010
1000
0001
1000
,
0100
0010
0001
0100
0010
1000
0100
1000
0100
0010
0001
0100
0010
1000
0100
1000
,
0100
0010
0001
1000
0100
0010
0001
1000
0100
1000
0001
1000
0010
0100
0001
1000
,
0100
1000
0001
0100
0010
1000
0100
1000
0100
1000
0001
0100
0010
0100
0001
1000
,
0100
1000
0001
0100
0010
1000
0100
1000
0100
1000
0001
0100
0010
1000
0100
1000
,
0010
0100
0001
0010
0100
1000
0010
1000
0010
0100
0001
0010
0100
1000
0001
1000
,
0010
0100
0001
0010
0100
1000
0010
1000
0010
0100
0001
0010
0100
1000
0010
1000
,
0100
1000
0001
0100
0010
1000
0100
1000
0100
1000
0001
0100
0010
0100
0001
1000
,
0100
1000
0001
0100
0010
1000
0001
1000
0100
1000
0001
0100
0010
1000
0100
1000
,
0100
0010
0001
0100
0010
1000
0001
1000
0100
0010
0001
0100
0010
1000
0100
1000
,
0100
0010
0001
1000
0100
0010
0001
1000
0100
1000
0001
1000
0010
0100
0001
1000
,
0100
1000
0001
0100
0010
1000
0100
1000
0100
1000
0001
0100
0010
0100
0001
1000
,
0100
1000
0001
0100
0010
1000
0001
1000
0100
1000
0001
0100
0010
1000
0001
0010
,
0100
1000
0001
0100
0010
1000
0100
1000
0100
0010
0001
0100
0010
1000
0001
1000
,
0100
0010
0001
0100
0010
1000
0100
1000
0100
0010
0001
0100
0010
1000
0100
1000
,
0010
1000
0001
0010
0100
1000
0001
1000
0010
1000
0001
0010
0100
0010
0001
1000
,
0010
1000
0001
0010
0100
1000
0001
1000
0010
1000
0001
0010
0100
1000
0001
1000
,
0001
0100
0001
0100
0010
1000
0010
1000
0100
0010
0001
0010
0100
1000
0001
1000
,
0010
0100
0001
1000
0010
0100
0001
1000
0100
0010
0001
1000
0001
0100
0001
1000
,
0001
1000
0100
0010
0001
1000
0001
0010
0001
1000
0100
1000
0001
1000
0100
0010
,
0100
1000
0001
1000
0001
0010
0100
0010
0001
1000
0100
0010
0001
1000
0001
1000
,
0010
0100
0001
0100
0010
1000
0001
0100
0001
1000
0100
0010
0100
1000
0001
1000
,
0010
1000
0001
0100
0010
1000
0001
1000
0001
0010
0001
1000
0100
0010
0001
1000
,
0010
0100
0001
1000
0001
0100
0010
1000
0001
1000
0010
0100
0001
1000
0010
0100
,
0010
0100
0001
1000
0001
0100
0010
1000
0010
0100
0001
1000
0010
1000
0010
0100
,
0001
0010
0100
0010
0001
1000
0001
0010
0100
1000
0100
1000
0001
0010
0001
1000
,
0100
0010
0001
0010
0100
1000
0001
1000
0010
1000
0001
0100
0001
1000
0100
1000
,
0001
0100
0010
1000
0010
0100
0001
1000
0001
0100
0010
1000
0010
0100
0001
1000
,
0010
1000
0100
0010
0001
0010
0100
1000
0001
0100
0010
1000
0001
0100
0010
0100
,
0001
0010
0100
0010
0001
1000
0100
1000
0001
0010
0100
0010
0001
1000
0001
1000
,
0010
1000
0010
0100
0001
0100
0010
1000
0001
0100
0001
1000
0010
1000
0001
0100
,
0001
1000
0100
1000
0100
0010
0001
1000
0001
0100
0010
0100
0010
1000
0001
0010
,
0001
1000
0100
1000
0100
0010
0001
1000
0010
0100
0001
0100
0001
1000
0010
0100
,
0010
1000
0001
1000
0001
0010
0100
1000
0001
0010
0100
0010
0100
1000
0001
1000
,
0010
0100
0001
1000
0100
0010
0100
1000
0001
0100
0010
0100
0001
1000
0100
0010
,
0100
1000
0010
0100
0001
1000
0001
0100
0001
1000
0010
1000
0001
1000
0010
0100
,
0010
1000
0001
1000
0001
0100
0010
0100
0001
1000
0010
0100
0001
1000
0001
1000
,
0100
0010
0001
0010
0100
1000
0001
0010
0001
1000
0010
0100
0010
1000
0001
1000
,
0100
1000
0001
0010
0100
1000
0001
1000
0001
0100
0001
1000
0010
0100
0001
1000
,
0100
0010
0001
1000
0001
0010
0100
1000
0001
1000
0100
0010
0001
1000
0100
0010
,
0100
0010
0001
1000
0001
0010
0100
1000
0100
0010
0001
1000
0100
1000
0100
0010
,
0001
0100
0010
0100
0001
1000
0001
0100
0010
1000
0010
1000
0001
0100
0001
1000
,
0010
0100
0001
0100
0010
1000
0001
1000
0100
1000
0001
0010
0001
1000
0010
1000
,
0001
0010
0100
1000
0100
0010
0001
1000
0001
0010
0100
1000
0100
0010
0001
1000
,
0100
1000
0010
0100
0001
0100
0010
1000
0001
0010
0100
1000
0001
0010
0100
0010
,
0001
0100
0010
0100
0001
1000
0010
1000
0001
0100
0010
0100
0001
1000
0001
1000
,
0100
1000
0100
0010
0001
0010
0100
1000
0001
0010
0001
1000
0100
1000
0001
0010
,
0200
0300
0000
0000
0000
0000
0000
0000
0000
0000
0000
0000
0020
0030
0000
0000
0000
0000
0000
0000
0000
0000
0000
0000
0002
0003
0000
0000
0000
0000
0000
0000
2000
3000
0000
0000
0000
0000
0000
0000
0000
0000
0000
0000
0020
0030
0000
0000
0000
0000
0000
0000
0000
0000
0000
0000
0200
0300
0000
0000
0000
0000
0000
0000
,
0020
0030
0000
0000
0000
0000
0000
0000
0000
0000
0000
0000
2000
3000
0000
0000
0000
0000
0000
0000
0000
0000
0000
0000
0200
0300
0000
0000
0000
0000
0000
0000
0020
0030
0000
0000
0000
0000
0000
0000
0000
0000
0000
0000
0200
0300
0000
0000
0000
0000
0000
0000
0000
0000
0000
0000
2000
3000
0000
0000
0000
0000
0000
0000
,
0002
0000
0000
0000
0003
0000
0000
0000
0000
0000
0000
0000
0000
0000
0000
0000
0000
0000
0000
0000
0000
0000
0000
0000
0000
0000
0000
0000
0000
0000
0000
0000
0000
0000
0000
0000
0200
0000
0000
0000
0300
0000
0000
0000
0000
0000
0000
0000
0000
0000
0000
0000
0000
0000
0000
0000
0000
0000
0000
0000
0000
0000
0000
0000
0000
0000
0000
0000
0000
0000
0000
0000
0020
0000
0000
0000
0000
0000
0030
0000
0000
0000
0000
0000
0000
0000
0000
0000
0000
0000
0000
0000
0000
0000
0000
0000
2000
0000
0000
0000
0000
0000
3000
0000
0000
0000
0000
0000
0000
0000
0000
0000
0000
0000
0000
0000
0000
0000
0000
0000
0000
0000
0000
0000
0000
0000
0000
0000
0000
0000
0000
0000
0002
0000
0000
0000
0000
0000
0000
0000
0003
0000
0000
0000
0000
0000
0000
0000
0000
0000
0000
0000
0000
0000
0000
0000
0000
0000
0000
0000
0000
0000
0000
0000
0000
0000
0000
0000
0020
0000
0000
0000
0000
0000
0000
0000
0030
0000
0000
0000
0000
0000
0000
0000
0000
0000
0000
0000
0000
0000
0000
0000
,
0200
0000
0000
0300
0000
0000
0000
0000
0000
0020
0000
0000
0030
0000
0000
0000
0000
0000
0002
0000
0000
0000
0003
0000
0200
0000
0000
0000
0300
0000
0000
0000
0000
0020
0000
0000
0000
0000
0000
0030
0000
0000
2000
0000
0000
0000
0000
0000
,
3011
0000
0000
0110
0000
0000
1100
0000
1001
0000
0000
0101
0000
0000
1010
0000
,
0110
0000
0000
1001
0000
0000
1100
0000
0110
0000
0000
0011
0000
0000
0101
0000
,
1010
0000
0000
0101
0000
0000
0110
0000
1001
0000
0000
1100
0000
0000
0011
0000
,
1001
0000
0000
0101
0000
0000
0110
0000
1010
0000
0000
1001
0000
0000
1100
0000
;

//---------------dance-single - Oh Henry!----------------
#NOTES:
     dance-single:
     Oh Henry!:
     Edit:
     18:
     1.000,1.000,0.003,0.260,1.000,3713.000,1.000,85.000,0.000,0.000:
0000
0000
0000
0000
,
1000
0100
0010
0000
0100
0000
1000
0001
1000
0010
1000
0000
0001
0000
0010
0100
,
1000
0100
0010
0000
0001
0000
1000
0010
0100
0010
1000
0000
0001
0000
0010
0100
,
1000
0100
0010
0001
0100
0000
0001
1000
0010
1000
0001
0000
1000
0000
0100
0010
,
0001
0010
0100
0000
1000
0000
0001
0100
0010
0100
0001
0000
0010
0000
0100
1000
,
0010
0100
0001
0000
1000
0000
0100
0010
0001
0010
0100
0000
1000
0000
0001
0100
,
0010
1000
0010
0000
1000
0000
0001
0010
0100
1000
0100
0000
1000
0000
0001
0100
,
0010
0100
0001
0000
1000
0000
0100
0010
0100
1000
0001
0000
1000
0000
0010
0100
,
0001
1000
0001
0000
1000
0000
0100
0010
0100
1000
0010
0000
0100
0000
0001
0010
,
0100
1000
0100
0000
1000
0000
0001
0100
0001
1000
0001
0000
1000
0000
0100
0010
,
0100
1000
0100
0000
0010
0000
0001
1000
0010
0100
0010
0000
1000
0000
0001
0010
,
0100
0010
0001
0000
1000
0000
0001
0100
0010
1000
0010
0000
1000
0000
0001
0010
,
0100
0010
0001
0000
1000
0000
0010
0100
0010
1000
0001
0010
0100
0000
0010
0000
,
0001
0100
0010
0000
1000
0000
0001
0010
0100
0010
0001
0000
1000
0000
0010
0100
,
0010
1000
0001
0000
1000
0000
0100
0010
0100
1000
0001
0000
1000
0000
0010
0100
,
0001
1000
0001
0000
0010
0000
0100
1000
0001
1000
0100
0000
1000
0000
0001
0100
,
0010
0000
0000
0010
0000
0000
1000
0000
1001
0000
0002
0000
0023
0000
0230
0000
,
1300
0100
0010
0001
1000
0100
1000
0001
0010
0100
1000
0001
0010
0001
1000
0100
,
1000
0001
0100
0010
0100
0001
1000
0010
1000
0001
0100
0010
1000
0010
0100
0001
,
1000
0100
0010
0001
1000
0001
0010
0100
1000
0001
0010
0001
1000
0100
0010
0001
,
1000
0010
1000
0001
0100
0010
0100
0001
1000
0010
1000
0100
0010
0001
1000
0100
,
1000
0001
0100
0001
1000
0010
0100
0010
1000
0001
1000
0010
0100
0001
1000
0001
,
0010
0100
1000
0100
0010
0001
1000
0100
1000
0001
0010
0100
1000
0001
0010
0001
,
1000
0010
0100
0010
1000
0001
0100
0001
1000
0010
1000
0001
0100
0010
0100
0001
,
1000
0100
0010
0100
1000
0001
1000
0010
0100
0001
1000
0001
0010
0100
1000
0001
,
1000
0010
0100
0001
1000
0010
1000
0001
0100
0010
1000
0001
0100
0001
1000
0010
,
1000
0001
0010
0100
0010
0001
1000
0100
1000
0001
0010
0100
1000
0100
0010
0001
,
1000
0010
0100
0001
1000
0001
0100
0010
1000
0001
0100
0001
1000
0010
0100
0001
,
1000
0100
1000
0001
0010
0100
0010
0001
1000
0100
1000
0010
0100
0001
1000
0010
,
1000
0001
0010
0001
1000
0100
0010
0100
1000
0001
1000
0100
0010
0001
1000
0001
,
0100
0010
1000
0010
0100
0001
1000
0010
1000
0001
0100
0010
1000
0001
0100
0001
,
1000
0100
0010
0100
1000
0001
0010
0001
1000
0100
1000
0001
0010
0100
0010
0001
,
1000
0100
0010
0100
1000
0001
0100
0010
1000
0001
0010
0001
0100
0010
1000
0100
,
1000
0001
0010
0000
0001
0000
1000
0010
0100
0010
1000
0000
0001
0000
0010
0100
,
0010
0001
0010
0000
0100
0000
1000
0001
1000
0010
0100
0000
0001
0000
1000
0100
,
0010
0001
1000
0000
0001
0000
0100
0010
1000
0001
1000
0000
0010
0000
1000
0001
,
0010
0100
0010
0000
0001
0000
1000
0001
0100
0010
1000
0000
0100
0000
1000
0010
,
0100
0001
1000
0000
0001
0000
0010
0100
0010
0001
1000
0000
0001
0000
0100
0010
,
1000
0010
0100
0000
0001
0000
1000
0100
0010
0001
0010
0000
0100
0000
1000
0001
,
0100
0010
0100
0000
0001
0000
1000
0001
0010
0100
1000
0000
0100
0000
1000
0001
,
0100
0010
0100
0001
0010
0000
0100
1000
0010
0100
0001
0010
0001
0000
1000
0010
,
1000
0001
0100
0000
0001
0000
1000
0100
0010
0100
1000
0000
0001
0000
0100
0010
,
0100
0001
0100
0000
0010
0000
1000
0001
1000
0100
0010
0000
0001
0000
1000
0010
,
0100
0001
1000
0000
0001
0000
0010
0100
1000
0001
1000
0000
0100
0000
1000
0001
,
0100
0010
0100
0000
0001
0000
1000
0001
0010
0100
1000
0000
0010
0000
1000
0100
,
0010
0001
1000
0000
0001
0000
0100
0010
0100
0001
1000
0000
0001
0000
0010
0100
,
1000
0100
0010
0000
0001
0000
1000
0010
0100
0001
0100
0000
0010
0000
1000
0001
,
0010
0100
0010
0000
0001
0000
1000
0001
0100
0010
1000
0000
0010
0000
1000
0001
,
1000
0000
0001
0001
1000
0200
0320
0032
,
1003
0100
1000
0001
0010
0001
1000
0100
1000
0001
0100
0001
1000
0100
0010
0001
,
1000
0010
0100
0010
1000
0001
0100
0001
1000
0100
0010
0001
1000
0010
0100
0010
,
1000
0001
0010
0100
0010
0001
1000
0100
1000
0001
0100
0010
1000
0001
0010
0001
,
1000
0010
1000
0001
0100
0010
1000
0001
1000
0100
0010
0001
0100
0010
1000
0001
,
1000
0100
0010
0100
1000
0001
0010
0100
1000
0001
0100
0001
1000
0100
0010
0100
,
1000
0001
0100
0001
1000
0010
0100
0001
1000
0100
1000
0001
0100
0010
1000
0001
,
1000
0100
0010
0001
1000
0100
1000
0001
0100
0010
0100
0001
1000
0100
0010
0001
,
1000
0010
1000
0001
0100
0001
1000
0010
1000
0001
0010
0001
0100
0010
1000
0100
,
1000
0001
0100
0010
0100
0001
1000
0010
1000
0001
0010
0001
1000
0010
0100
0001
,
1000
0100
0010
0100
1000
0001
0010
0001
1000
0010
0100
0001
1000
0100
0010
0100
,
1000
0001
0100
0010
0100
0001
1000
0010
1000
0001
0010
0100
1000
0001
0100
0001
,
1000
0100
1000
0001
0010
0100
1000
0001
1000
0010
0100
0001
0010
0100
1000
0001
,
1000
0010
0100
0010
1000
0001
0100
0010
1000
0001
0010
0001
1000
0010
0100
0010
,
1000
0001
0010
0001
1000
0100
0010
0001
1000
0010
1000
0001
0010
0100
1000
0001
,
1000
0010
0100
0001
1000
0010
1000
0001
0010
0100
0010
0001
1000
0010
0100
0001
,
1000
0100
1000
0010
0100
0001
0010
0100
1000
0010
0100
0010
1000
0100
0010
0001
,
1000
0000
0000
0000
,
2000
3000
0000
0000
0000
0000
0000
0000
0000
0000
0000
0000
0000
0000
0000
0000
,
2000
3000
0000
0000
2000
3000
0000
0000
0010
0000
0000
0000
0100
0001
0010
0001
,
2000
3000
0000
0000
0000
0000
0000
0000
0000
0000
0000
0000
2000
3000
2000
3000
,
0002
0003
0000
0000
0000
0000
0000
0000
1000
0001
0100
0001
0010
0001
0100
0001
,
2000
3000
0000
0000
0000
0000
0000
0000
0000
0000
0000
0000
0000
0000
0000
0000
,
2000
3000
0000
0000
2000
3000
0000
0000
0100
0000
0000
0000
0010
0001
0100
0001
,
2000
3000
0000
0000
0000
0000
0000
0000
0000
0000
0000
0000
2000
3000
2000
3000
,
0002
0003
0000
0000
0000
0000
0000
0000
1000
0001
0010
0001
0100
0001
0010
0001
,
2000
3000
0000
0000
0000
0000
0000
0000
0000
0000
0000
0000
0000
0000
0000
0000
,
0002
0003
0000
0000
0002
0003
0000
0000
0100
0000
0000
0000
0010
1000
0100
1000
,
0002
0003
0000
0000
0000
0000
0000
0000
0000
0000
0000
0000
0002
0003
0002
0003
,
2000
3000
0000
0000
0000
0000
0000
0000
0001
1000
0010
1000
0100
1000
0010
1000
,
0002
0003
0000
0000
0000
0000
0000
0000
0000
0000
0000
0000
0000
0000
0000
0000
,
0002
0003
0000
0000
0002
0003
0000
0000
0010
0000
0000
0000
0100
1000
0010
1000
,
0002
0003
0000
0000
0000
0000
0000
0000
0000
0000
0000
0000
0002
0003
0002
0003
,
2000
3000
0000
0000
0000
0000
0000
0000
0001
1000
0100
1000
0010
1000
0100
1000
,
0002
0000
0000
0000
,
2000
3000
0000
0000
2000
3000
0000
0000
0103
0000
0000
0000
0001
0010
0001
0100
,
0002
0000
0000
0000
0000
0000
0000
0000
0023
0000
0000
0000
0200
0300
0200
0300
,
2030
0000
0000
0000
0000
0000
0000
0000
3001
0010
0001
0100
0001
1000
0001
0100
,
0002
0000
0000
0000
,
2000
3000
0000
0000
2000
3000
0000
0000
0013
0000
0000
0000
0001
0100
0001
0010
,
0002
0000
0000
0000
0000
0000
0000
0000
0000
0000
0000
0000
0200
0300
0200
0300
,
2003
0000
0000
0000
0000
0000
0000
3000
0001
0100
0001
0010
0001
1000
0001
0010
,
0002
0000
0000
0000
,
0203
0000
0000
0000
0020
0030
0000
0300
2000
0000
0000
0000
3001
1000
0100
1000
,
0002
0000
0000
0000
0000
0000
0000
0000
0000
0000
0000
0000
0020
0030
0020
0030
,
2003
0000
0000
0000
0000
0000
0000
0000
3001
1000
0010
1000
0100
1000
0010
1000
,
0002
0000
0000
0000
,
2000
3000
0000
0000
2000
3000
0000
0000
0103
0000
0000
0000
0001
1000
0100
1000
,
0002
0000
0000
0000
0000
0000
0000
0000
0000
0000
0000
0000
2000
3000
2000
3000
,
0020
0030
0000
0000
0003
0000
0000
0000
0001
1000
0100
1000
0010
1000
0100
1000
,
0002
0000
0000
0000
,
0000
0000
0000
0000
,
2003
0000
3020
0000
,
0230
0000
0302
0000
,
0023
0000
0000
0000
,
0000
0000
0000
0000
,
0230
0000
0000
0000
,
0000
0000
2300
3002
,
0203
0000
0000
0000
,
0302
0000
2003
0000
,
3200
0000
0000
0000
,
0320
0000
0000
0000
,
0031
1000
0100
0010
0001
1000
0001
0010
0100
1000
0001
0010
0001
1000
0100
1000
,
0001
0100
0001
1000
0100
0010
0100
1000
0001
0100
0010
1000
0001
0100
0001
1000
,
0100
0010
0001
1000
0100
1000
0001
0010
0001
1000
0100
1000
0001
0010
0001
0100
,
0001
1000
0010
0100
0010
1000
0001
1000
0100
0010
0001
1000
0100
1000
0001
0010
,
0002
0003
0000
0000
0000
0000
0000
0000
0000
0000
0000
0000
0002
0003
0002
0003
,
2000
3000
0000
0000
0000
0000
0000
0000
2000
3000
0000
0000
0000
0000
0000
0000
,
2000
3000
0000
0000
0000
0000
0000
0000
0000
0000
0000
0000
0000
0000
0000
0000
,
0000
0000
0000
0000
0000
0000
0000
0000
0001
0000
1000
0100
0010
0001
0100
0010
,
1000
0001
0100
0001
1000
0010
0100
0001
1000
0100
0010
0100
1000
0001
0100
0001
,
1000
0010
0100
0010
1000
0001
0100
0001
1000
0100
0010
0001
1000
0010
0100
0010
,
1000
0100
0010
0001
1000
0001
0010
0100
1000
0010
0100
0001
1000
0001
0100
0010
,
1000
0100
1000
0001
0010
0001
1000
0100
1000
0010
0100
0001
1000
0001
0100
0010
,
1000
0100
0010
0001
1000
0100
1000
0001
1000
0010
0100
0001
1000
0100
0010
0001
,
1000
0100
1000
0001
0010
0100
1000
0001
0100
0010
0100
0001
1000
0100
0010
0001
,
0100
0010
1000
0001
0100
0001
1000
0010
1000
0001
0010
0100
1000
0001
0100
0001
,
1000
0010
0100
0001
0010
0001
1000
0100
1000
0010
0100
0001
0010
0100
1000
0010
,
0100
0001
1000
0010
0100
0010
1000
0001
1000
0100
0010
0100
1000
0001
0100
0001
,
0010
0100
1000
0001
1000
0100
0010
0001
0100
0010
1000
0010
0100
0001
0100
0010
,
1000
0100
0010
0001
1000
0001
0010
0100
1000
0001
0100
0001
1000
0100
0010
0001
,
0100
0010
0100
0001
1000
0010
0100
0001
1000
0001
0010
0100
1000
0001
0100
0010
,
1000
0001
0010
0100
1000
0001
1000
0100
1000
0001
0100
0001
1000
0100
0010
0001
,
1000
0100
1000
0001
0010
0001
1000
0001
0100
0010
1000
0001
1000
0100
0010
0100
,
1000
0001
0010
0100
1000
0001
0010
0001
1000
0010
1000
0001
0010
0100
0010
0001
,
1000
0100
0010
0001
0100
0010
1000
0010
0100
0001
0010
0001
0100
0010
1000
0001
,
1000
0100
0010
0001
1000
0100
1000
0001
0100
0010
0100
0001
1000
0001
0010
0001
,
1000
0100
0010
0100
1000
0001
0010
0001
1000
0010
0100
0001
1000
0100
0010
0100
,
1000
0010
0100
0001
1000
0001
0100
0010
1000
0100
0010
0001
1000
0001
0010
0100
,
1000
0010
1000
0001
0100
0001
1000
0010
1000
0100
0010
0001
1000
0001
0010
0100
,
1000
0010
0100
0001
1000
0010
1000
0001
1000
0100
0010
0001
1000
0010
0100
0001
,
1000
0010
1000
0001
0100
0010
1000
0001
0010
0100
0010
0001
1000
0010
0100
0001
,
0010
0100
1000
0001
0010
0001
1000
0100
1000
0001
0100
0010
1000
0001
0010
0001
,
1000
0100
0010
0001
0100
0001
1000
0010
1000
0100
0010
0001
0100
0010
1000
0100
,
0010
0001
1000
0100
0010
0100
1000
0001
1000
0010
0100
0010
1000
0001
0010
0001
,
0100
0010
1000
0001
1000
0010
0100
0001
0010
0100
1000
0100
0010
0001
0010
0100
,
1000
0010
0100
0001
1000
0001
0100
0010
1000
0001
0010
0001
1000
0010
0100
0001
,
0010
0100
0010
0001
1000
0100
0010
0001
1000
0001
0100
0010
1000
0001
0010
0100
,
1000
0001
0100
0010
1000
0001
1000
0010
1000
0001
0010
0001
1000
0010
0100
0001
,
1000
0010
1000
0001
0100
0001
1000
0001
0010
0100
1000
0001
1000
0010
0100
0010
,
1000
0001
0100
0010
1000
0001
0100
0001
1000
0100
1000
0001
0100
0010
0100
0001
,
1000
0010
1000
0100
0010
0001
1000
0100
1000
0001
0100
0001
0010
0100
1000
0001
,
1000
0010
0100
0001
0100
0010
1000
0001
0010
0100
0010
0001
1000
0010
0100
0010
,
1000
0001
0100
0001
1000
0010
1000
0001
0010
0100
1000
0001
1000
0010
0100
0010
,
1000
0100
0010
0001
1000
0001
0010
0100
1000
0010
0100
0010
1000
0001
0100
0001
,
0010
0100
1000
0001
0010
0001
1000
0100
1000
0010
0100
0001
1000
0001
0100
0010
,
1000
0100
0010
0001
1000
0100
1000
0001
0100
0010
0100
0001
1000
0100
0010
0001
,
1000
0100
0010
0100
1000
0001
0010
0100
1000
0001
0100
0001
1000
0100
0010
0001
,
0100
0010
1000
0001
0100
0001
1000
0010
1000
0001
0010
0001
1000
0010
0100
0001
,
0100
0010
1000
0100
1000
0001
0010
0001
0100
0010
1000
0001
1000
0010
0100
0001
,
0010
0100
1000
0001
1000
0100
0010
0001
1000
0010
1000
0001
0010
0100
0010
0001
,
0100
0010
1000
0010
0100
0001
0100
0010
1000
0100
0010
0001
1000
0100
0010
0100
,
1000
0010
0100
0001
0100
0010
1000
0001
0010
0100
1000
0001
1000
0010
0100
0001
,
0010
0100
1000
0001
1000
0100
0010
0001
1000
0010
0100
0010
1000
0001
0010
0100
,
1000
0010
0100
0001
1000
0010
1000
0001
0010
0100
0010
0001
1000
0010
0100
0001
,
0100
0010
1000
0001
0100
0010
0100
0001
1000
0100
0010
0001
1000
0010
0100
0001
,
1000
0010
1000
0001
0100
0001
1000
0010
1000
0001
0010
0001
1000
0010
1000
0001
,
1000
0010
0100
0001
0010
0100
0010
0001
0100
0010
1000
0100
1000
0001
0100
0010
,
1000
0100
0010
0001
0010
0100
1000
0001
0100
0010
0100
0001
1000
0100
0010
0100
,
1000
0001
0010
0001
1000
0100
1000
0001
0100
0010
1000
0001
1000
0100
0010
0100
,
1000
0010
0100
0001
1000
0001
0100
0010
1000
0100
0010
0100
1000
0001
0010
0001
,
0100
0010
1000
0001
0100
0001
1000
0010
1000
0100
0010
0001
1000
0001
0010
0100
,
1000
0010
0100
0001
1000
0010
1000
0001
0010
0100
0010
0001
1000
0010
0100
0001
,
1000
0010
0100
0010
1000
0001
0100
0010
1000
0001
0010
0001
1000
0010
0100
0001
,
0010
0100
1000
0001
0010
0001
1000
0100
1000
0001
0100
0001
1000
0100
0010
0001
,
0010
0100
1000
0010
1000
0001
0100
0001
0010
0100
1000
0001
1000
0100
0010
0001
,
0100
0010
1000
0001
1000
0010
0100
0001
1000
0100
1000
0001
0100
0010
0100
0001
,
0010
0100
1000
0100
0010
0001
0010
0100
1000
0010
0100
0001
1000
0010
0100
0010
,
1000
0100
0010
0001
0010
0100
1000
0001
0100
0010
1000
0001
1000
0100
0010
0001
,
0100
0010
1000
0001
1000
0010
0100
0001
1000
0100
0010
0100
1000
0001
0100
0010
,
1000
0100
0010
0001
1000
0100
1000
0001
0100
0010
0100
0001
1000
0010
1000
0001
,
0010
0100
1000
0001
0010
0100
0010
0001
1000
0010
0100
0001
1000
0001
0100
0010
,
1000
0100
1000
0001
0010
0001
1000
0100
1000
0010
0100
0010
1000
0001
0100
0001
,
0010
0100
0010
0001
1000
0100
0010
0001
0100
0010
0100
0001
1000
0010
1000
0001
,
1000
0100
0010
0000
0001
1000
0100
1000
0001
0100
0010
0000
1000
0000
0001
0100
,
0010
1000
0010
0000
0100
0001
0100
0010
1000
0001
0010
0000
0100
0000
1000
0001
,
0010
0100
0010
0000
0001
1000
0100
1000
0001
0100
0001
0000
1000
0000
0010
0100
,
0001
1000
0001
0000
1000
0010
0100
0001
1000
0100
1000
0000
0010
0000
1000
0000
,
0001
0010
0001
0000
1000
0100
0010
0100
1000
0001
0100
0000
0001
0000
1000
0010
,
0100
0001
0100
0000
0001
1000
0010
0100
0001
1000
0100
0000
0010
0000
0001
0010
,
0100
1000
0100
0000
0010
0001
1000
0100
1000
0001
0100
0000
0010
0000
1000
0001
,
0100
0001
1000
0000
0010
0100
0001
1000
0100
0010
0001
1000
0100
1000
0010
0100
,
0001
0100
0010
0000
1000
0001
0100
0001
1000
0100
0010
0000
0001
0000
1000
0100
,
0010
0001
0010
0000
0100
1000
0100
0010
0001
1000
0010
0000
0100
0000
0001
1000
,
0010
0100
0010
0000
1000
0001
0100
0001
1000
0100
1000
0000
0001
0000
0010
0100
,
1000
0001
1000
0000
0001
0010
0100
1000
0001
0100
0001
0000
0010
0000
0001
0000
,
1000
0010
1000
0000
0001
0100
0010
0100
0001
1000
0100
0000
1000
0000
0001
0010
,
0100
1000
0100
0000
1000
0001
0010
0100
1000
0001
0100
0000
0010
0000
1000
0010
,
0100
0001
0100
0000
0010
1000
0001
0100
0001
1000
0100
0000
0010
0000
0001
1000
,
0001
0000
0000
0001
0000
0000
1000
0000
0010
0000
0100
0000
0001
0000
0010
0000
,
0001
0100
0001
1000
0010
1000
0001
0100
0001
1000
0100
1000
0001
0100
0010
1000
,
0001
0010
0100
0010
0001
1000
0100
1000
0001
0100
0010
1000
0001
0010
0100
0010
,
0001
1000
0010
0100
0010
1000
0001
0100
0001
1000
0100
0010
0001
1000
0010
1000
,
0001
0010
0001
1000
0100
0010
0001
1000
0001
0100
0010
1000
0100
0010
0001
1000
,
0001
0100
0010
0100
0001
1000
0010
0100
0001
1000
0100
1000
0001
0100
0010
0100
,
0001
1000
0100
1000
0001
0010
0100
1000
0001
0100
0001
1000
0100
0010
0001
1000
,
0001
0100
0010
1000
0001
0100
0001
1000
0100
0010
0100
1000
0001
0100
0010
1000
,
0001
0010
0001
0100
0010
1000
0001
0100
0001
0010
0100
1000
0010
0100
0010
1000
,
0001
1000
0100
0010
0100
1000
0001
0010
0001
1000
0010
1000
0001
0010
0100
1000
,
0001
0100
0010
0100
0001
1000
0010
1000
0001
0010
0100
1000
0001
0100
0010
0100
,
0001
1000
0100
0010
0100
1000
0001
0010
0001
1000
0010
0100
0001
1000
0100
1000
,
0001
0100
0001
1000
0010
0100
0001
1000
0001
0010
0100
1000
0010
0100
0001
1000
,
0001
0010
0100
0010
0001
1000
0100
0010
0001
1000
0010
1000
0001
0010
0100
0010
,
0001
1000
0010
1000
0001
0100
0010
1000
0001
0010
0001
1000
0010
0100
0001
1000
,
0001
0010
0100
1000
0001
0010
0001
1000
0010
0100
0010
1000
0001
0010
0100
1000
,
0001
0100
0001
0010
0100
1000
0010
0100
0001
0010
0100
0010
0001
0100
0010
1000
,
0100
0010
0001
1000
0100
1000
0001
0010
0001
1000
0010
1000
0001
0010
0100
1000
,
0001
0010
0001
1000
0100
0010
0001
1000
0001
0100
0010
1000
0001
0010
0100
1000
,
0010
0100
0001
0100
0010
1000
0001
0100
0001
1000
0100
0010
0001
1000
0010
0100
,
0001
1000
0001
0100
0010
0100
0001
1000
0100
0010
0001
1000
0001
0100
0010
1000
,
0100
0010
0001
1000
0100
1000
0001
0010
0001
1000
0010
1000
0001
0010
0100
0010
,
0001
1000
0100
0010
0100
1000
0001
0010
0001
1000
0010
0100
0001
1000
0100
0010
,
0001
0100
0010
1000
0001
0100
0001
1000
0100
0010
0100
1000
0001
0100
0010
0100
,
0001
1000
0100
0010
0001
0100
0010
1000
0100
1000
0010
0100
0001
0100
0010
1000
,
0100
0010
0001
1000
0001
0010
0100
0010
0001
1000
0010
1000
0001
0010
0100
1000
,
0001
0010
0001
1000
0100
0010
0100
1000
0001
0100
0010
1000
0001
0010
0100
1000
,
0010
0100
0001
0100
0010
1000
0001
0100
0001
1000
0100
0010
0001
1000
0010
0100
,
0001
0100
0010
1000
0001
0100
0001
1000
0100
0010
0100
1000
0001
0100
0010
1000
,
0100
0010
0001
1000
0001
0010
0100
1000
0001
0100
0001
1000
0100
0010
0100
1000
,
0001
0010
0100
1000
0001
0010
0100
0010
0001
1000
0010
1000
0001
0010
0100
1000
,
0010
0100
0001
1000
0010
1000
0001
0100
0001
1000
0100
0010
0001
1000
0010
0100
,
0001
0100
0010
1000
0100
0010
0001
0100
0010
1000
0001
0100
0001
0010
0100
1000
,
0010
0100
0001
1000
0010
1000
0001
0100
0001
1000
0100
1000
0001
0100
0010
1000
,
0001
0100
0001
1000
0010
0100
0001
1000
0001
0010
0100
1000
0001
0100
0010
1000
,
0100
0010
0001
0010
0100
1000
0001
0010
0001
1000
0010
0100
0001
1000
0100
0010
,
0001
1000
0001
0010
0100
0010
0001
1000
0010
0100
0001
1000
0001
0010
0100
1000
,
0010
0100
0001
1000
0010
1000
0001
0100
0001
1000
0100
1000
0001
0100
0010
0100
,
0001
1000
0010
0100
0010
1000
0001
0100
0001
1000
0100
0010
0001
1000
0010
0100
,
0001
0010
0100
1000
0001
0010
0001
1000
0010
0100
0010
1000
0001
0010
0100
0010
,
0001
1000
0010
0100
0001
0010
0100
1000
0010
1000
0100
0010
0001
0010
0100
1000
,
0010
0100
0001
1000
0001
0100
0010
0100
0001
1000
0100
1000
0001
0100
0010
1000
,
0001
0100
0001
1000
0010
0100
0010
1000
0001
0010
0100
1000
0001
0100
0010
1000
,
0100
0010
0001
0010
0100
1000
0001
0010
0001
1000
0010
0100
0001
1000
0100
0010
,
0001
0010
0100
1000
0001
0010
0001
1000
0010
0100
0010
1000
0001
0010
0100
1000
,
0010
0100
0001
1000
0001
0100
0010
1000
0001
0010
0001
1000
0010
0100
0010
1000
,
0001
0100
0010
1000
0001
0100
0010
0100
0001
1000
0100
1000
0001
0100
0010
1000
,
0100
0010
0001
1000
0100
1000
0001
0010
0001
1000
0010
0100
0001
1000
0100
0010
,
0001
0010
0100
1000
0010
0100
0001
0010
0100
1000
0001
0010
0001
1000
0010
0100
,
0001
0010
0100
1000
0100
0010
0001
1000
0010
0100
0010
1000
0001
0010
0100
0010
,
0001
1000
0100
1000
0001
0010
0001
1000
0010
0100
0001
1000
0001
0010
0100
0010
,
0001
0100
0010
1000
0001
1000
0010
0100
0001
0010
0100
0010
0001
1000
0100
1000
,
0010
0100
0001
1000
0010
1000
0001
0100
0001
0010
0100
1000
0001
1000
0100
0010
,
0001
0100
0010
1000
0001
0100
0001
1000
0100
0010
0100
1000
0001
0100
0010
1000
,
0001
0100
0010
0100
0001
1000
0010
0100
0001
1000
0100
1000
0001
0100
0010
1000
,
0100
0010
0001
1000
0100
1000
0001
0010
0001
1000
0010
1000
0001
0010
0100
1000
,
0100
0010
0001
0100
0001
1000
0010
1000
0100
0010
0001
1000
0001
0010
0100
1000
,
0010
0100
0001
1000
0001
0100
0010
1000
0001
0010
0001
1000
0010
0100
0010
1000
,
0100
0010
0001
0010
0100
1000
0100
0010
0001
0100
0010
1000
0001
0100
0010
0100
,
0001
0010
0100
1000
0100
0010
0001
1000
0010
0100
0001
1000
0001
0010
0100
1000
,
0010
0100
0001
1000
0001
0100
0010
1000
0001
0010
0100
0010
0001
1000
0010
0100
,
0001
0010
0100
1000
0001
0010
0001
1000
0010
0100
0010
1000
0001
0010
0100
1000
,
0100
0010
0001
1000
0100
0010
0100
1000
0001
0100
0010
1000
0001
0010
0100
1000
,
0001
0010
0001
1000
0100
1000
0001
0010
0001
1000
0010
1000
0001
0010
0001
1000
,
0001
0010
0100
1000
0010
0100
0010
1000
0100
0010
0001
0100
0001
1000
0100
0010
,
0001
0100
0010
1000
0010
0100
0001
1000
0100
0010
0100
1000
0001
0100
0010
0100
,
0001
1000
0010
1000
0001
0100
0001
1000
0100
0010
0001
1000
0001
0100
0010
0100
,
0001
0010
0100
1000
0001
1000
0100
0010
0001
0100
0010
0100
0001
1000
0010
1000
,
0100
0010
0001
1000
0100
1000
0001
0010
0001
0100
0010
1000
0001
1000
0010
0100
,
0001
0010
0100
1000
0001
0010
0001
1000
0010
0100
0010
1000
0001
0010
0100
1000
,
0001
0010
0100
0010
0001
1000
0100
0010
0001
1000
0010
1000
0001
0010
0100
1000
,
0010
0100
0001
1000
0010
1000
0001
0100
0001
1000
0100
1000
0001
0100
0010
1000
,
0010
0100
0001
0010
0001
1000
0100
1000
0010
0100
0001
1000
0001
0100
0010
1000
,
0100
0010
0001
1000
0001
0010
0100
1000
0001
0100
0001
1000
0100
0010
0100
1000
,
0010
0100
0001
0100
0010
1000
0010
0100
0001
0010
0100
1000
0001
0010
0100
0010
,
0001
0100
0010
1000
0010
0100
0001
1000
0100
0010
0001
1000
0001
0100
0010
1000
,
0100
0010
0001
1000
0001
0010
0100
1000
0001
0100
0010
0100
0001
1000
0100
0010
,
0001
0100
0010
1000
0001
0100
0001
1000
0100
0010
0100
1000
0001
0010
0001
1000
,
0010
0100
0001
1000
0010
0100
0010
1000
0001
0010
0100
1000
0001
1000
0100
0010
,
0001
0100
0001
1000
0010
1000
0001
0100
0001
0010
0100
0010
0001
1000
0100
1000
,
0010
0100
0010
1000
0001
0100
0010
1000
0100
0010
0100
1000
0001
0010
0001
1000
,
0001
0010
0100
1000
0001
0010
0001
1000
0010
0100
0010
1000
0001
0100
0001
1000
,
0100
0010
0001
1000
0100
0010
0100
1000
0001
0100
0010
1000
0001
1000
0010
0100
,
0001
0010
0001
1000
0100
1000
0001
0010
0001
0100
0010
0100
0001
1000
0010
1000
,
0100
0010
0100
1000
0001
0010
0100
1000
0010
0100
0010
1000
0001
0100
0001
1000
,
0200
0000
0000
0000
,
0000
0000
0000
0000
,
0000
0000
0000
0000
,
0300
0000
0000
0000
;
