#TITLE:SYNC;
#SUBTITLE:;
#ARTIST:OutPhase;
#TITLETRANSLIT:;
#SUBTITLETRANSLIT:;
#ARTISTTRANSLIT:;
#CREDIT:;
#BANNER:Sync.png;
#BACKGROUND:Sync-bg.png;
#LYRICSPATH:;
#CDTITLE:!toph-cdtitle.png;
#MUSIC:Sync.mp3;
#OFFSET:-0.432;
#SAMPLESTART:57.800;
#SAMPLELENGTH:11.700;
#SELECTABLE:YES;
#BPMS:0.000=167.000,60.000=99.990,60.250=56.050,60.500=41.000,60.750=22.700,61.000=167.000;
#STOPS:;
#BGCHANGES:;
// cache tags:
#FIRSTBEAT:6.500;
#LASTBEAT:317.000;
#SONGFILENAME:Songs/StepmaniaFreak's Favorites/Sync/Sync.sm;
#HASMUSIC:1;
#HASBANNER:1;
#MUSICLENGTH:122.311;
// end cache tags

//---------------dance-single - ----------------
#NOTES:
     dance-single:
     :
     Hard:
     10:
     0.815,0.940,0.303,0.041,0.744,656.000,37.000,5.000,0.000,0.000:
0000
0000
0000
0000
,
0000
0000
0000
0000
0000
0010
0010
0000
,
0000
0000
0000
0000
,
0000
0000
0000
0000
,
0000
0000
0000
0000
,
0000
0000
0000
0000
,
0000
0000
0000
0000
,
0000
0000
0000
0000
0000
0010
0010
0000
,
1000
1000
1000
1000
,
0001
0001
0001
0001
,
0100
0100
0100
0100
,
0010
0000
0010
0000
0010
0000
0010
1000
,
1001
0101
1001
1100
,
0110
0000
0011
0000
1001
0100
0100
0000
,
1001
1010
0110
0101
,
2002
0000
0000
3003
1000
0000
0100
0010
0100
0000
1000
0000
0010
0000
0010
0100
,
0000
0000
0010
0100
0001
0000
1000
0100
1000
0000
0010
0000
0100
0000
0100
0001
,
0000
0000
1000
0100
1000
0000
0010
0100
0010
0000
1000
0000
0001
0000
0001
0010
,
0000
0000
0100
1000
0001
0000
0100
0001
0010
0000
0100
0000
1000
0000
1000
0001
,
0000
0001
0010
0000
0100
0000
1000
0100
1000
0000
0010
0000
0100
0000
0100
0001
,
0000
0000
0001
0100
0010
0000
1000
0100
0010
0000
0001
0000
1000
0000
1000
0010
,
0000
0000
0100
0001
0100
0000
0010
1000
0010
0000
0100
0000
0001
0000
0001
1000
,
0000
0000
0100
0020
0000
0000
0001
0000
0000
0000
0001
0000
0030
0000
0001
1000
,
1000
0000
0100
0000
1000
0000
0010
0100
0001
1000
0010
0000
0100
0000
0001
0010
,
0100
1000
0001
0000
0100
0000
0010
1000
0100
0010
0001
0000
1000
0000
0010
0100
,
0001
0010
0100
0000
1000
0000
0001
0100
0010
1000
0001
0000
0100
0000
0010
1000
,
0100
0010
0001
0000
1000
0000
0010
0100
0001
0000
0010
0100
1000
0000
0010
0100
,
0001
0000
0001
0000
0101
0000
0010
1000
0001
1000
0100
0000
0010
0000
0010
0001
,
0010
0001
0010
0001
0010
0000
0100
1000
0001
1000
0100
0000
0010
0000
0001
0100
,
0001
0100
0001
0100
0010
0000
1000
0100
0010
0001
1000
0000
0010
0000
0100
0001
,
0100
0001
0100
0001
1001
0000
1100
0000
1001
0000
0101
0000
0010
1000
0100
0010
,
0001
0100
0010
1000
0001
0000
0001
0000
0100
0010
0000
1010
0000
0000
1000
0000
,
0100
0000
0100
0000
0010
0000
0010
0000
0001
0100
0000
1001
0000
0000
1000
0000
,
0100
0100
0010
0001
0010
0001
0100
1000
,
0100
1000
0001
0010
0001
0010
1000
0100
,
1000
0000
0010
0000
0100
0000
0001
0000
1000
0100
0000
0110
0000
0000
0010
0000
,
0001
0000
0001
0000
0100
0000
0010
0000
1000
0001
0000
0110
0000
0000
1000
0000
,
0100
0100
0010
0001
0010
0001
1000
0010
,
1000
0000
0010
0000
0100
0001
1000
0100
0010
0001
0100
0010
1000
0100
0010
0001
,
1000
0010
0100
0001
0010
0100
0010
0000
0001
1000
0000
1010
0000
0000
0100
0000
,
0001
0000
0001
0000
1000
0010
1000
0000
0100
0010
0000
0011
0000
0000
0001
0000
,
0100
0000
0100
0000
0010
0000
1000
0001
0010
0000
0100
0000
1000
0000
0001
0100
,
0010
0000
0100
0000
0001
0000
0010
0100
1000
0000
0010
0000
0100
0000
0001
0010
,
0100
0000
1000
0000
0001
0000
1000
0000
0010
0100
0000
1001
0000
0000
0010
0000
,
0100
0000
0100
0000
1000
0010
1000
0000
0100
0010
0000
1001
0000
0000
0001
0000
,
0100
0000
0100
0000
0010
0000
1000
0001
0010
0000
0100
0000
1000
0000
0010
0100
,
0001
0000
1000
0000
0100
0000
0010
0001
0010
0000
0100
0000
1000
0000
0010
0100
,
0001
0000
1000
0000
0100
0010
0100
0000
1000
0001
0000
0001
0100
0000
0010
0000
,
1000
0100
1000
0000
0001
0100
0001
0000
0010
0100
0000
0100
1000
0000
0010
0100
,
0001
0100
0001
0000
1000
0100
0010
0000
0001
0100
0010
0000
1000
0001
0010
0000
,
0100
1000
0001
0000
0100
0010
1000
0000
0100
0010
0001
1000
0010
0100
0001
0000
,
1000
0100
0010
0000
0001
1000
0001
0000
0100
0010
0000
0010
1000
0000
0100
0000
,
0010
0001
0010
0000
0100
1000
0100
0000
0010
0001
0000
0001
0100
0000
0010
1000
,
0001
1000
0001
0000
1000
0100
0010
0000
0001
1000
0010
0000
0100
0001
1000
0000
,
0100
0010
0001
0000
1000
0010
0100
0000
0001
0010
0100
1000
0010
0100
0001
0000
,
0001
0100
0010
1000
0100
0010
0001
0000
0100
0010
0000
0010
1000
0000
0100
0000
,
1000
0010
1000
0000
0001
0010
0001
0000
0100
0010
0000
1000
0001
0000
0010
0100
,
1000
0100
1000
0000
0010
0100
0001
0000
1000
0010
0100
0000
0001
1000
0100
0000
,
0010
0001
1000
0000
0010
0100
0001
0100
0010
1000
0001
1000
0100
0010
0001
1000
,
0010
0100
0001
0000
1000
0100
0010
0000
0001
1000
0000
1000
0010
0000
0100
0000
,
0001
0010
0001
0000
1000
0010
1000
0000
0100
0010
0000
0001
1000
0000
0010
0100
,
0001
0100
0001
0000
1000
0001
0010
0000
0001
1000
0010
0000
1000
0100
0010
0000
,
0001
0100
0010
1000
0001
0100
0010
1000
0100
0010
0100
1000
0010
1000
0001
0010
,
0100
1000
0010
0100
1001
0000
0100
0000
0001
0000
0100
0000
1001
0000
0100
0000
,
1000
0100
0011
0010
0001
0100
1010
0010
,
1000
0100
1001
0010
0001
1000
0010
0100
,
0001
0010
0100
0010
0001
1000
0010
0100
,
0010
1000
1001
0010
0001
0100
1001
0010
,
1000
0100
0011
0001
0100
0010
1010
1000
,
0100
0010
1001
0010
0100
0001
1000
0100
,
0010
0001
0100
0010
1000
0010
0100
0001
,
0010
0000
0100
0000
1001
0000
0000
0000
0000
0000
0000
0000
0100
0000
0010
0001
,
0010
0001
0010
0001
1000
0000
0000
0000
0000
0000
0000
0000
0010
0000
0100
0001
,
0100
0001
0100
0001
1000
0000
0000
0000
0000
0000
0000
0000
0100
0000
0010
0001
,
0010
0001
0010
0001
1000
0000
0000
0000
0000
0000
0000
0000
0001
0000
0100
0010
,
0100
0010
0100
0010
1000
0000
0000
0000
0000
0000
0000
0000
0100
0000
0000
0000
,
0000
0010
0000
0001
,
0000
2002
0000
0000
,
0000
0000
0000
0000
,
0000
3003
0000
0000
;

//---------------dance-single - ----------------
#NOTES:
     dance-single:
     :
     Challenge:
     12:
     0.987,1.000,0.899,0.041,0.932,730.000,110.000,5.000,0.000,0.000:
0000
0000
0000
0000
,
0000
0000
0000
0000
0000
0010
0010
0000
,
0000
0000
0000
0000
,
0000
0000
0000
0000
,
0000
0000
0000
0000
,
0000
0000
0000
0000
,
0000
0000
0000
0000
,
0000
0000
0000
0000
0000
0010
0010
0000
,
1000
1000
1000
1000
,
0001
0001
0001
0001
,
0100
0100
0100
0100
,
0010
0000
0010
0000
0010
0000
0010
0010
,
1000
0100
0010
0001
0100
0010
0100
0001
,
1000
0100
0010
0001
0100
0010
1000
0001
,
0010
0001
0100
0010
1000
0100
0010
0001
,
2002
0000
0000
3003
0110
0000
0100
1000
0100
0000
1000
0000
0011
0000
0010
0100
,
1000
0000
0010
0100
1001
0000
1000
0100
1000
0000
0010
0000
0101
0000
0100
0001
,
1000
0000
1000
0100
0011
0000
0010
0100
0010
0000
1000
0000
0011
0000
0001
0010
,
0100
0000
1000
0001
0110
0000
0100
0001
1000
0000
0100
0000
0011
0000
1000
0001
,
0100
0001
1010
0000
0101
0000
0001
0010
0100
0000
0011
0000
1100
0000
0100
0001
,
0010
0000
0001
1000
0110
0000
1000
0100
0010
0000
0011
0000
1100
0000
0001
0010
,
0100
0000
0010
0010
1001
0000
0010
1000
0010
0000
0110
0000
1001
0000
0001
1000
,
0100
0000
0010
0002
0000
0000
0010
0000
0000
0000
0010
0000
0000
0003
0010
0100
,
0100
0000
1010
0000
1001
0000
0010
0100
1001
0000
0100
0000
1010
0000
0001
0010
,
0100
0000
1000
0100
0011
0000
0010
0100
1001
0000
0100
0000
1010
0000
0001
0010
,
0100
0000
0010
0100
1001
0000
0100
0001
1010
0000
0100
0000
0011
0000
1000
0001
,
0100
0000
0010
1000
0011
0000
0010
0001
0100
0000
0010
1000
0100
0000
0010
0001
,
0100
0000
0110
0000
1001
0000
0010
0100
1001
0000
0100
0000
1010
0000
0001
0010
,
0100
1000
0010
0100
1001
0000
0010
1000
0101
0000
0010
0000
1001
0000
0010
0100
,
1000
0010
0100
0001
1010
0000
0100
0010
1001
0000
0010
0000
1100
0000
0001
0100
,
0010
1000
0100
0010
1001
0000
0110
0000
1001
0000
0110
1001
0000
0110
0000
0001
,
0100
0010
1000
0001
1001
0100
1000
0000
0100
0010
0000
0001
0000
0000
0100
0000
,
0010
0000
0010
0000
1000
0001
1000
0000
0100
0010
0000
0001
0000
0000
0001
0000
,
0100
0100
0010
1000
0010
1000
0001
0010
,
0001
0010
0100
1000
0100
1000
0010
0100
,
0010
0000
1000
0000
0001
0010
0001
0000
1000
0010
0000
0100
0000
0000
0001
0000
,
0010
0000
0010
0000
0100
1000
0100
0000
0010
0001
0000
0100
0000
0000
0010
0000
,
1000
0000
1000
0000
0001
0000
0100
0010
1000
0000
0001
0000
0010
0000
0100
1000
,
0001
0000
0100
0000
0010
1000
0100
0010
0001
0100
0010
0100
0001
0010
0100
1000
,
0001
0100
0010
0100
1001
0000
0100
0000
0011
1000
0000
1000
0100
0000
0010
0000
,
1001
0000
0100
0000
1010
0001
0100
0000
0110
1000
0000
0001
0010
0000
0100
0000
,
1001
0000
1000
0000
0110
0000
0001
1000
0110
0000
0001
0000
1100
0000
0010
0001
,
1100
0000
0010
0000
0101
0000
1000
0010
0101
0000
1000
0000
0110
0000
0001
1000
,
0110
0000
0011
0000
1010
0000
0010
0000
0101
1000
0000
0010
0100
0000
0001
0000
,
0110
0000
0010
0000
1001
0000
1000
0000
0110
0001
0000
1000
0010
0000
0100
0000
,
1001
0000
0001
0000
0110
0000
1000
0001
0110
0000
1000
0000
0011
0000
0100
1000
,
0011
0000
0100
0000
1010
0000
0001
0100
1010
0000
0001
0000
0110
0000
0001
1000
,
1010
0000
0101
0000
1001
0100
0010
0000
0001
0100
0000
0010
1000
0001
0010
0000
,
0001
0100
0010
0000
1001
0010
0100
0000
0001
0010
0000
0100
1000
0000
0001
0000
,
1010
0001
0100
0000
0001
0010
0100
0000
1000
0001
0100
0000
0010
1000
0001
0000
,
0010
0100
1000
0000
0001
0100
0010
0000
1000
0100
0010
0001
0100
0010
1000
0000
,
0001
0010
0100
0010
1001
0100
0010
0000
0001
0100
0000
0010
1000
0000
0100
0000
,
0010
0100
1000
0000
0101
1000
0010
0000
1000
0100
0000
0010
0001
0000
0100
0000
,
0011
0100
1000
0000
0001
0010
0100
0000
1000
0001
0100
0000
0010
1000
0100
0000
,
0010
0001
0100
0000
0010
1000
0100
0000
0010
0001
1000
0010
0100
0001
1000
0000
,
0100
0010
0001
0010
1100
0001
0100
0000
1010
0010
0000
0001
1100
0000
0010
0000
,
0101
1000
0010
0000
1100
0001
0010
0000
0101
0100
0000
0010
1001
0000
0100
0000
,
1010
0001
0010
0000
1010
0001
0100
0000
0011
1000
0100
0000
0110
0001
1000
0000
,
0011
0100
1000
0000
0101
1000
0010
0000
1001
0100
0010
1000
0100
0010
0001
0000
,
1000
0010
0100
0010
1001
0100
0010
0000
0011
0010
0000
0100
1010
0000
0100
0000
,
0011
0100
1000
0000
0101
0010
1000
0000
0011
0001
0000
1000
0110
0000
0001
0000
,
1100
0010
0001
1000
0010
0100
0001
0000
0010
0100
1000
0000
0001
0100
0010
0000
,
0010
1000
0100
1000
0010
0100
0001
0010
0100
1000
0001
0100
0010
1000
0100
0011
,
1000
0001
1100
0010
1001
0100
0010
0000
0001
0100
0000
0010
1000
0000
0001
0010
,
0100
1000
0010
0100
0001
1000
0100
0000
0010
0001
0000
0100
0010
0000
1000
0100
,
0010
0001
1000
0010
0100
0001
0010
0000
0100
1000
0010
0000
0100
0001
1000
0100
,
0010
0001
0100
0010
1000
0001
0010
0000
0001
0010
0100
1000
0001
0100
0010
1000
,
0100
0010
0001
0100
0010
1000
0001
0000
0010
0100
0000
1000
0001
0000
0001
0010
,
0100
0010
0001
0100
0010
1000
0001
0000
1000
0100
0000
0010
0001
0000
0100
0010
,
1000
0100
1000
0010
0100
0001
0010
0000
0100
1000
0001
0000
0100
0010
1000
0100
,
0010
0001
0100
0010
1000
0001
0010
0000
0001
0100
0010
0000
1000
0100
0010
0001
,
0100
0010
1000
0001
1100
0000
0000
0000
0000
0000
0000
0000
0010
0000
0001
0100
,
0010
1000
0100
0010
0001
0000
0000
0000
0000
0000
0000
0000
0100
0000
0010
1000
,
0100
0010
0001
1000
0010
0000
0000
0000
0000
0000
0000
0000
0100
0000
0001
0010
,
0001
0100
0010
1000
0001
0000
0000
0000
0000
0000
0000
0000
0010
0000
0100
1000
,
0010
0100
0001
1000
0100
0000
0010
0000
0001
0000
1000
0000
0010
0000
0100
0000
,
0001
0010
0001
0100
0010
1000
0100
0010
,
0001
1000
2002
0000
0000
0000
0000
0000
,
0000
0000
0000
0000
,
0000
3003
0000
0000
;
