#TITLE:Sonic 3 Tight Finale OC Remix;
#SUBTITLE:Steps by Jerry Ochoa;
#ARTIST:Jivemaster;
#TITLETRANSLIT:;
#SUBTITLETRANSLIT:;
#ARTISTTRANSLIT:;
#CREDIT:;
#BANNER:Rain of a thousand flames.bmp;
#BACKGROUND:Rain of a thousand flames.jpg;
#LYRICSPATH:;
#CDTITLE:DJ Obvious.gif;
#MUSIC:Sonic_3_Tight_Finale_OC_ReMix.mp3;
#OFFSET:1.220;
#SAMPLESTART:39.016;
#SAMPLELENGTH:11.980;
#SELECTABLE:YES;
#BPMS:0.000=568.000,144.000=142.004,176.000=567.999,304.000=142.003,336.000=71.003,352.000=142.003,368.000=284.006,432.000=142.003,448.000=567.999,512.000=71.000,520.000=142.000,536.000=35.500,540.000=17.750,542.000=35.500,546.000=142.000,562.000=71.000,570.000=284.000;
#STOPS:;
#BGCHANGES:;
// cache tags:
#FIRSTBEAT:16.000;
#LASTBEAT:572.000;
#SONGFILENAME:Songs/longs versions/Sonic 3 -Tight Finale OC ReMix-/Sonic_3_Tight_Finale_OC_ReMix.sm;
#HASMUSIC:1;
#HASBANNER:0;
#MUSICLENGTH:153.568;
// end cache tags

//---------------dance-single - ----------------
#NOTES:
     dance-single:
     :
     Hard:
     11:
     0.916,1.000,0.111,0.326,1.000,918.000,17.000,50.000,0.000,47.000:
0000
0000
0000
0000
,
0000
0000
0000
0000
,
0000
0000
0000
0000
,
0000
0000
0000
0000
,
1000
0100
0010
0001
,
0010
0100
1000
0100
,
0010
0100
1000
0100
,
0010
0001
1010
0100
,
1010
0001
0010
0100
,
1000
0100
1000
0100
,
0010
0001
0010
0100
,
1000
0100
0010
0100
,
1001
0100
0010
0001
,
1000
0010
1000
0100
,
1000
0010
1000
0001
,
1000
0010
1000
0100
,
1010
0001
0010
0100
,
1000
0100
1010
0001
,
0010
0100
0011
0100
,
0010
0001
1100
0010
,
1001
0100
0010
0001
,
0010
0100
1000
0100
,
0010
0100
1000
0100
,
0010
0001
1010
0100
,
1010
0001
0010
0100
,
1000
0100
1000
0100
,
0010
0001
0010
0100
,
1000
0100
0010
0100
,
1001
0100
0010
0001
,
1000
0010
1000
0100
,
1000
0010
1000
0001
,
1000
0010
1000
0100
,
1010
0001
0010
0100
,
1000
0100
1010
0001
,
0010
0100
0011
0100
,
0010
0001
1100
0010
,
1001
0000
0000
0100
0000
0000
0010
0000
0001
0010
0000
0001
0010
0100
0000
1000
,
0100
0000
0000
0010
0000
0000
0100
0000
1000
0100
0000
0010
0000
0100
0000
0010
,
0001
0000
0000
0010
0000
0000
0100
0000
1000
0100
0000
0010
0000
0100
1000
0100
,
0010
0001
0000
0010
0000
0000
0100
0000
0000
0010
0000
0001
0000
0010
0000
0001
,
1000
0000
0000
0010
0000
0000
0100
0000
1000
0100
0000
0001
0100
0010
0000
1000
,
0100
0000
0000
0010
0000
0000
0100
0000
1000
0100
0000
0010
0000
0100
0000
0010
,
0001
0000
0000
1000
0000
0000
0100
0000
1000
0001
0000
0010
0000
0100
1000
0100
,
0001
0010
0000
1000
0000
0000
0100
0000
0000
0010
0000
0001
0000
1000
0000
0001
,
1000
0100
0010
0001
,
0010
0100
0010
0001
,
0010
0100
1000
0100
,
0010
0100
1000
0100
,
0010
0001
0010
0100
,
1000
0010
0100
0001
,
0100
0010
1000
0100
,
0010
0001
0010
0100
,
0010
0001
0010
0001
,
0010
0100
1000
0100
,
0010
0001
0010
0100
,
1000
0001
1000
0010
,
1000
0100
1000
0100
,
0010
0001
1000
0001
,
0100
0001
0010
0001
,
0010
0100
1000
0100
,
0010
0100
1000
0100
,
0010
0001
0010
0001
,
0100
0001
1000
0001
,
0010
0100
1000
0100
,
0010
0001
0010
0100
,
1000
0100
0010
0001
,
0010
0100
0010
0001
,
0100
0010
1000
0001
,
0100
0010
1000
0010
,
0100
0001
1000
0100
,
0010
0001
0010
0100
,
1000
0100
0010
0100
,
1000
0100
0010
0001
,
0001
0010
0100
1000
,
1000
0100
0010
0100
,
1000
0100
0010
0001
,
1000
0000
0000
0100
0000
0000
0010
0000
0001
0010
0000
0001
0010
0100
0000
1000
,
0100
0000
0000
0010
0000
0000
0100
0000
1000
0100
0000
0010
0000
0100
0000
0010
,
0001
0000
0000
0010
0000
0000
0100
0000
1000
0100
0000
0010
0000
0100
1000
0100
,
0010
0001
0000
0010
0000
0000
0100
0000
0000
0010
0000
0001
0000
0010
0000
0001
,
1000
0000
0000
0010
0000
0000
0100
0000
1000
0100
0000
0001
0100
0010
0000
1000
,
0100
0000
0000
0010
0000
0000
0100
0000
1000
0100
0000
0010
0000
0100
0000
0010
,
0001
0000
0000
1000
0000
0000
0100
0000
1000
0001
0000
0010
0000
0100
1000
0100
,
0001
0010
0000
1000
0000
0000
0100
0000
0000
0010
0000
0001
0000
1000
0000
0001
,
1000
0000
0000
0100
0000
0000
0010
0000
0001
0010
0000
0010
0001
0010
0000
0100
1000
0000
0000
0100
0000
0000
0010
0000
0001
1000
0000
0100
0000
1000
0000
0100
,
0001
0000
0000
0100
0000
0000
1000
0000
0100
0010
0000
0001
0000
0010
0100
1000
0100
0010
0000
0001
0000
0000
0010
0000
0000
1000
0000
0010
0000
0001
0000
0010
,
1000
0000
0000
0100
0000
0000
0010
0000
0001
0010
0000
0100
0001
0010
0000
0100
1000
0000
0000
0100
0000
0000
0010
0000
0001
1000
0000
0100
0000
1000
0000
0010
,
1000
0000
0000
0100
0000
0000
0010
0000
0100
0010
0000
0001
0000
0010
0100
1000
0010
0100
0000
0001
0000
0000
0010
0000
0000
1000
0000
0010
0000
0001
0000
0010
,
1000
0000
0000
0100
0000
0000
0010
0000
0001
0010
0000
0001
0010
0100
0000
1000
,
0100
0000
0000
0010
0000
0000
0100
0000
1000
0100
0000
0010
0000
0100
0000
0010
,
0001
0000
0000
0010
0000
0000
0100
0000
1000
0100
0000
0010
0000
0100
1000
0100
,
0010
0001
0000
0010
0000
0000
0100
0000
0000
0010
0000
0001
0000
0010
0000
0001
,
1000
0000
0000
0100
0000
0000
0010
0000
,
0001
0010
0000
0001
0010
0100
0000
1000
,
0100
0000
0000
0010
0000
0000
0100
0000
,
1000
0100
0000
0010
0000
0100
0000
0010
,
0001
0000
0000
0010
0000
0000
0100
0000
,
1000
0100
0000
0010
0000
0100
1000
0100
,
0010
0001
0000
0010
0000
0000
0100
0000
,
0000
0010
0000
0001
0000
0010
0000
0001
,
1000
0100
0010
0001
0010
0100
1000
0100
,
0010
0001
0010
0001
0010
0100
1000
0100
,
0010
0100
1000
0100
0010
0001
0010
0100
,
1000
0100
0010
0001
0010
0001
0100
0001
,
1000
0100
0010
0001
0010
0100
1000
0100
,
0010
0001
0010
0100
1000
0100
0010
0100
,
1000
0100
0010
0001
0010
0100
0010
0001
,
0010
0100
1000
0100
0010
0001
0100
0010
,
1000
0100
0010
0001
0010
0100
1000
0100
0010
0001
0010
0100
0010
0001
0010
0100
,
1000
0100
0010
0100
1000
0100
0010
0001
0010
0100
1000
0100
0010
0001
0100
0010
,
1000
0100
0010
0001
0010
0100
1000
0010
0100
0001
0010
0100
1000
0100
0010
0001
,
1000
0100
0010
0001
0010
0100
1000
0100
0010
0100
1000
0100
0010
0100
1000
0100
,
1000
0100
0010
0001
,
0010
0100
1000
0100
,
0010
0100
1000
0100
,
0010
0000
0001
0000
0010
1000
0100
0001
,
0010
0100
0001
0000
0010
0000
0100
0000
,
1000
0100
1000
0100
,
0010
0001
0010
0100
,
1000
0100
0010
0100
,
1000
0010
0100
0000
0010
0000
0001
0000
,
1000
0010
1000
0100
,
1000
0010
1000
0001
,
1000
0010
1000
0100
,
0010
1000
0001
0000
0010
0000
0100
0000
,
1000
0000
0100
0000
0010
0100
0001
0000
,
0010
0000
0100
0000
0001
0010
0100
0000
,
0010
0000
0001
0000
0100
1000
0010
0000
,
1000
0001
0100
0000
0010
0000
0001
0000
0010
0000
0100
0000
1000
0000
0100
0000
0010
0000
0100
0000
1000
0000
0100
0000
0010
0000
0001
0000
0010
1000
0100
0001
0010
0100
0001
0000
0010
0000
0100
0000
1000
0000
0100
0000
1000
0000
0100
0000
0010
0000
0001
0000
0010
0000
0100
0000
1000
0000
0100
0000
0010
0000
0100
0000
,
1000
0010
0100
0000
0010
0000
0001
0000
1000
0000
0010
0000
1000
0000
0100
0000
1000
0000
0010
0000
1000
0000
0001
0000
1000
0000
0010
0000
1000
0000
0100
0000
0010
1000
0001
0000
0010
0000
0100
0000
1000
0000
0100
0000
0010
0100
0001
0000
0010
0000
0100
0000
0001
0010
0100
0000
0010
0000
0001
0000
0100
1000
0010
0000
,
2000
0000
0000
0200
0000
0000
0020
0000
,
0002
0000
3000
2000
0000
0030
0020
0300
,
0200
0000
0003
0002
0000
3000
2000
0300
,
0200
0000
0000
0000
0000
0000
0000
0000
0030
0000
0000
0000
0020
0000
0000
0000
0000
0000
0000
0000
0003
0000
0000
0000
0002
0000
0000
0000
0000
0000
0000
3000
,
2000
0000
0300
0200
0030
0000
0020
0003
0002
3000
0000
2000
0000
0030
0020
0300
0200
0000
0003
0002
0000
3000
2000
0300
0200
0000
0030
0020
0000
0003
0002
3000
,
2000
0000
0000
0000
0300
0000
0000
0000
0000
0200
0000
0000
0030
0000
0000
0000
0000
0000
0020
0000
0003
0000
0000
0000
0002
0000
0000
0000
0000
0000
0000
0000
3000
2000
0000
0000
0000
0000
0000
0030
0000
0000
0320
0000
0000
0000
0000
0000
0200
0000
0000
0000
0000
0000
0003
0000
0000
0002
0000
0000
0000
0000
0000
3000
0000
0000
2000
0000
0000
0300
0000
0000
0200
0000
0000
0030
0000
0000
0000
0000
0000
0020
0000
0000
0000
0000
0000
0003
0000
0000
0002
0000
0000
3000
0000
0000
2000
0000
0000
0000
0000
0000
0000
0000
0000
0000
0000
0000
0300
0000
0000
0000
0000
0000
0200
0000
0000
0000
0000
0000
0000
0000
0000
0000
0000
0000
0000
0000
0000
0030
0000
0000
0020
0000
0000
0000
0000
0000
0000
0000
0000
0003
0000
0000
0002
0000
0000
0000
0000
0000
0000
0000
0000
0000
0000
0000
3000
0000
0000
0000
0000
0000
2000
0000
0000
0000
0000
0000
0000
0000
0000
0000
0000
0000
0030
0000
0000
0000
0000
0000
0020
0000
0000
0000
0000
0000
0300
0000
0000
0000
0000
0000
,
0200
0000
0003
0002
0000
3000
2000
0300
0200
0000
0030
0020
0000
0003
0002
3000
1333
0000
0000
0000
0000
0000
0100
0000
0000
0000
0000
0000
0010
0000
0000
0000
,
0001
0010
0000
0001
0010
0100
0000
1000
0100
0000
0000
0010
0000
0000
0100
0000
,
1000
0100
0000
0010
0000
0100
0000
0010
0001
0000
0000
0010
0000
0000
0100
0000
,
1000
0100
0000
0010
0000
0100
1000
0100
0010
0001
0000
0010
0000
0000
0100
0000
,
0000
0000
0010
0000
0000
0000
0001
0000
0000
0000
0010
0000
0000
0000
0001
0000
1000
0000
0000
0100
0000
0000
0010
0000
0001
0010
0000
0001
0010
0100
0000
1000
,
0100
0000
0000
0010
0000
0000
0100
0000
1000
0100
0000
0010
0000
0100
0000
0010
0001
0000
0000
0010
0000
0000
0100
0000
1000
0100
0000
0010
0000
0100
1000
0100
,
0010
0001
0000
0010
0000
0000
0100
0000
0000
0010
0000
0001
0000
0010
0000
0001
2002
0000
0000
0000
0000
0000
0000
0000
0000
0000
0000
0000
0000
0000
0000
0000
,
3003
0000
0000
0000
;
