#TITLE:LOVE PHANTOM;
#SUBTITLE:;
#ARTIST:B'z;
#TITLETRANSLIT:;
#SUBTITLETRANSLIT:;
#ARTISTTRANSLIT:;
#CREDIT:;
#BANNER:ba.jpg;
#BACKGROUND:bg.jpg;
#LYRICSPATH:lyric.lrc;
#CDTITLE:cd.png;
#MUSIC:Love Phantom.mp3;
#OFFSET:-1.160;
#SAMPLESTART:79.640;
#SAMPLELENGTH:19.700;
#SELECTABLE:YES;
#BPMS:0.000=52.060,16.000=38.960,44.000=50.800,46.000=66.500,54.000=133.000,362.000=66.500,378.000=133.000;
#STOPS:16.000=0.720
;
#BGCHANGES:;
// cache tags:
#FIRSTBEAT:0.000;
#LASTBEAT:485.750;
#SONGFILENAME:Songs/toune 2/(AS)LOVE PHANTOM/LP.sm;
#HASMUSIC:1;
#HASBANNER:1;
#MUSICLENGTH:281.658;
// end cache tags

//---------------dance-single - ----------------
#NOTES:
     dance-single:
     :
     Hard:
     11:
     1.000,1.000,0.976,0.437,1.000,1582.000,275.000,123.000,0.000,0.000:
0200
0000
0000
0000
0000
0000
0000
0000
0000
0000
0000
0000
0000
0000
0000
0300
0020
0000
0000
0000
0000
0000
0000
0000
0000
0000
0000
0000
0000
0000
0000
0030
0002
0000
0000
0000
0000
0000
0000
0000
0000
0000
0000
0000
0000
0000
0000
0000
0000
0000
0000
0000
0000
0000
0000
0000
0000
0000
0000
0000
0000
0000
0000
0000
,
2000
0000
0000
0000
0000
0000
0000
0000
0000
0000
0000
0000
0000
0000
0000
0000
0000
0000
0000
3000
0020
0000
0000
0000
0000
0000
0000
0000
0000
0000
0000
0000
0000
0000
0000
0000
0000
0000
0000
0000
0000
0030
0200
0000
0000
0000
0000
0000
0000
0000
0000
0000
0000
0000
0000
0000
0000
0000
0000
0000
0000
0000
0000
0300
,
0020
0000
0000
0000
0000
0000
0000
0000
0000
0000
0000
0000
0000
0000
0000
0030
0200
0000
0000
0000
0000
0000
0000
0000
0000
0000
0000
0000
0000
0000
0000
0300
2000
0000
0000
0000
0000
0000
0000
0000
0000
3000
0200
0000
0000
0000
0000
0000
0000
0000
0000
0000
0000
0000
0000
0000
0000
0000
0000
0000
0000
0000
0000
0303
,
2020
0000
0000
0000
0000
0000
0000
0000
0000
0000
0000
0000
0000
0000
0000
0000
0000
0000
0000
0000
0000
0000
0000
0000
0000
0000
0000
0000
0000
0000
0000
0000
0000
0000
0000
0000
0000
0000
0000
0000
0000
0000
0000
0000
0000
0030
0000
0000
0001
0000
0000
0000
0000
0000
0000
0000
0000
0000
0000
0000
0000
0000
0000
0000
0100
0000
0000
0000
0000
0000
0000
0000
0000
0000
0000
0000
0001
0000
0000
0000
0000
0000
0000
0000
0000
0000
0000
0000
0100
0000
0000
0000
0000
0000
0000
0000
0000
0000
0000
0000
0001
0000
0000
0000
0000
0000
0000
0000
0100
0000
0000
0000
0000
0000
0000
0000
0001
0000
0000
0000
0000
0000
0000
0000
0100
0000
0000
0000
0000
0000
0000
0000
0001
0000
0000
0000
0000
0000
0000
0000
0100
0000
0000
0000
0000
0000
0000
0000
0000
0000
0000
0000
0001
0000
0000
0000
0000
0000
0000
0000
0000
0000
0000
0000
0100
0000
0000
0000
0000
0000
0000
0000
0000
0000
0000
0000
0001
0000
0000
0000
0000
0000
0000
0000
0000
0000
0000
0000
0000
3000
0000
0000
,
0110
0000
0000
0000
0000
0000
0000
0000
2000
0000
0000
0000
0000
0000
0000
3000
0200
0000
0000
0000
0000
0000
0000
0300
0020
0000
0000
0000
0000
0000
0000
0030
2002
0000
0000
0000
0000
0000
0000
0000
0000
0000
0000
0000
0000
0000
0000
3003
0200
0000
0000
0300
0020
0000
0000
0030
2002
0000
0000
0000
0000
0000
0000
3000
,
1000
0000
0000
0000
0100
0000
0000
0000
0020
0000
0000
0030
0200
0000
0000
0303
2020
0000
0000
0000
0000
0000
0000
3030
0220
0000
0000
0000
0000
0000
0000
0330
0202
0000
0000
0000
0000
0000
0000
0303
0220
0000
0000
0000
0000
0000
0000
0000
0000
0000
0000
0000
0000
0000
0000
0300
2000
0000
0000
3000
0200
0000
0000
0330
,
0022
0000
0000
0000
0000
0000
0000
0000
0000
0000
0000
0000
0000
0000
0000
0030
2000
0000
0000
0000
0000
0000
0000
3000
0200
0000
0000
0000
0000
0000
0000
0003
1000
0000
0000
0000
0001
0000
0000
0300
0020
0000
0000
0030
0200
0000
0000
0300
2002
0000
0000
0000
0000
0000
0000
3003
0202
0000
0000
0000
0000
0000
0000
0303
,
2020
0000
0000
0000
0000
0000
0000
3030
2200
0000
0000
0000
0000
0000
0000
0300
0010
0000
0000
0000
0001
0000
0000
3000
0020
0000
0000
0030
0200
0000
0000
0300
2002
0000
0000
0000
0000
0000
0000
3000
1000
0000
0100
0000
0010
0000
0000
0003
0200
0000
0000
0300
0020
0000
0000
0030
2002
0000
0000
0000
0000
0000
0000
0003
,
0001
0000
0010
0000
0100
0000
0000
3000
0002
0000
0000
0003
0200
0000
0000
0300
2020
0000
0000
0000
0000
0000
0000
3030
0220
0000
0000
0000
0000
0000
0000
0330
0202
0000
0000
0000
0000
0000
0000
0303
0022
0000
0000
0030
1000
0100
0010
0100
1000
0000
0100
0000
0010
0000
0100
0003
2000
0000
0000
3000
0200
0000
0000
0300
,
0022
0000
0000
0000
0000
0000
0000
0030
0200
0000
0000
0000
0000
0000
0000
0303
2020
0000
0000
0000
0000
0000
0000
3030
0220
0000
0000
0000
0000
0000
0000
0300
0001
0100
1000
0100
0001
0000
0000
0030
0200
0000
0000
0300
0002
0000
0000
0003
2200
0000
0000
0000
0000
0000
0000
0300
0020
0000
0000
0000
0000
0000
0000
0030
,
0002
0000
0000
0000
0000
0000
0000
0003
0020
0000
0000
0000
0000
0000
0000
0000
0000
0000
0000
0000
0000
0000
0000
0000
0000
0000
0000
0000
0000
0000
0000
0030
0200
0000
0000
0000
0000
0000
0000
0000
0000
0000
0000
0000
0000
0000
0000
0300
0002
0000
0000
0000
0000
0000
0000
0003
0020
0000
0000
0000
0000
0000
0000
0000
,
0000
0000
0000
0000
0000
0000
0000
0000
0000
0000
0000
0000
0000
0000
3030
0000
1000
0100
0010
0001
0100
0010
1000
0100
0010
0100
0010
0001
0010
0001
0100
0001
,
0100
1000
0010
1000
0100
0010
0100
1000
0100
0010
0001
0100
0010
0001
0010
0100
0010
0001
0100
0001
0010
0100
1000
0100
0010
0100
1000
0010
0100
1000
0100
0010
,
0001
0100
0001
0100
0010
0001
0010
0100
1000
0010
1000
0100
0010
0001
0100
0010
0001
0000
0100
0000
0010
0000
0001
0000
0110
0000
1000
0000
0010
0000
0100
0000
,
0010
0001
0100
0001
0100
0010
0100
1000
0100
0010
0001
0100
1001
0100
0010
0001
,
0010
0100
1000
0001
1000
0100
0010
0001
0010
0100
1000
0100
1010
0001
0010
0100
,
1000
0000
0000
0000
0010
0000
0000
0000
1000
0000
0000
0000
0100
0000
0000
0000
0010
0000
0000
0000
0001
0000
0000
0000
0010
0000
0000
0000
0100
0000
0000
0000
2001
0000
0000
0000
0000
0000
0000
0000
0010
0000
0000
0000
0000
0000
0000
0000
0100
0000
0000
0000
0000
0000
0000
0000
0010
0000
0000
0000
0000
0000
0000
3000
,
0110
0000
0110
0000
0000
0000
0010
0000
1000
0100
0010
0001
1000
0100
0010
0001
1000
0000
0010
0000
0001
0000
0000
0000
1010
0000
0000
0000
0100
0000
0010
0000
,
0001
0000
1000
0010
0101
0000
0100
0000
1000
0010
0001
0010
1100
0001
0000
0001
,
1000
0000
0100
0010
1001
0000
0100
1000
0010
0000
0100
0010
0101
0000
0010
0000
,
0100
0000
0010
0000
0001
0000
0010
0000
1100
0000
0010
0000
0001
0000
0000
0000
0100
0000
0010
0000
0000
0000
0010
0000
1001
0010
0100
1000
0010
0000
0000
0000
,
0100
0000
0000
0000
1001
0100
0010
0001
0100
0000
0010
0000
0101
0010
0100
1000
,
0100
0000
0000
0000
0001
0000
0010
0000
1100
0000
0000
0000
0100
0000
0010
0000
0001
0000
0010
0000
1000
0100
0010
0000
1001
0000
0010
0000
0100
0000
1000
0000
,
0100
0010
0001
0010
1001
0000
0010
0100
0010
0001
0000
0100
1010
0000
0100
0000
,
0011
0100
1000
0100
0010
0010
0101
0101
1010
0000
1010
0000
0110
0000
0110
0000
,
0101
0011
0101
0011
1010
1010
0110
0110
,
0101
0000
0101
0000
0101
0000
0101
0000
0010
0000
0000
0100
1001
0000
0100
0000
,
0010
0000
0010
0000
0011
0000
0010
0000
0100
0010
0001
0000
1010
0100
0010
0000
,
0001
0000
0000
0000
0000
0000
0010
0000
0100
0000
1000
0000
0010
0000
0100
0000
1000
0000
0010
0000
0100
0000
1000
0000
0010
0000
0000
0000
0000
0000
0000
0000
0000
0100
0000
0000
0011
0000
0000
0000
0000
0000
0100
0000
0000
0000
0000
0000
,
1000
0000
0000
0000
1000
0000
0000
0000
1010
0000
0000
0000
1000
0000
0100
0000
0010
0000
0000
0000
0001
0010
0100
0000
0001
0010
0100
0000
0001
0010
0100
0000
,
0001
0010
0100
0000
0001
0010
0100
0000
0001
0010
0100
1000
0100
0010
0001
0000
0100
0000
0000
0000
0000
0000
0010
0000
1100
0000
0000
0000
0010
0000
0001
0000
,
0100
1000
0000
0010
0101
0000
0010
0000
0100
0010
0001
0100
1010
0000
0100
0000
,
0010
0000
1001
0100
0010
0000
0101
0000
,
0010
1000
0000
1000
0101
0010
0001
0010
1100
0000
1100
0000
1100
1100
0000
1100
,
0011
0000
0000
0000
0000
0000
0000
0000
0000
0000
0000
0000
0000
0000
0000
0000
0000
0000
0000
0000
0000
0000
0000
0000
0010
0000
0000
0000
0000
0000
0000
0000
0100
0000
0000
0000
0000
0000
0000
0000
0010
0000
0000
0000
0000
0000
0000
0000
1000
0000
0000
0000
0000
0000
0100
0000
0000
0000
0000
0000
0010
0000
0000
0000
0000
0000
0001
0000
0000
0000
0000
0000
1000
0000
0000
0000
0000
0000
0100
0000
0000
0000
0000
0000
0010
0000
0000
0000
0000
0000
0001
0000
0000
0000
0000
0000
0100
0000
0000
0000
0000
0000
0000
0000
0000
0000
0000
0000
0010
0000
0000
0000
0000
0000
0000
0000
0000
0000
0000
0000
1000
0000
0000
0000
0000
0000
0000
0000
0000
0000
0000
0000
0000
0000
0000
0000
0000
0000
0000
0000
0000
0000
0000
0000
1001
0000
0000
0000
0000
0000
0000
0000
0000
0000
0000
0000
0100
0000
0000
0000
0000
0000
0000
0000
0000
0000
0000
0000
0000
0000
0000
0000
0000
0000
0000
0000
0000
0000
0000
0000
0010
0000
0000
0000
0000
0000
0000
0000
0000
0000
0000
0000
,
0100
0000
1000
0100
0011
0000
0010
0100
1000
0100
0010
0000
1001
0100
0000
0010
,
0001
0010
0000
0100
1010
0000
0010
0100
1000
0100
0000
0010
1001
0000
0100
0000
,
1000
0001
1000
0001
1100
0010
0100
0010
1000
0001
0100
0010
1001
0100
0010
0100
,
1000
0000
0000
0000
0101
1000
0000
0010
0100
0000
0010
0100
1001
0000
0100
0001
,
1000
0000
0000
0000
0100
0000
0000
0000
1010
0000
0000
0000
0001
0000
0010
0000
1000
0100
0010
0000
0001
0000
0100
0000
1010
0000
0001
0000
0000
0000
0001
0000
,
0010
0100
0000
0100
1001
0000
0010
0100
1000
0000
0100
0000
0110
0001
0010
0100
,
1000
0100
0010
0001
0010
0010
1001
1001
0110
0000
0110
0000
1100
0000
1100
0000
,
0101
0000
0110
0000
1010
0000
0110
0000
0001
0010
0100
0010
1001
0100
0010
0001
,
0100
0010
0100
1000
0001
0010
1000
0100
0010
0001
0010
0100
0011
0100
1000
0100
,
0010
1000
0100
0010
1000
0100
0001
0010
0100
0010
0001
1000
0101
0010
0100
1000
,
0001
0010
0100
0010
0001
1000
0010
1000
0100
0010
0001
0100
1010
0001
0010
0001
,
0010
0100
0001
0010
0100
1000
0001
0100
1000
0100
0010
0001
1100
0010
0001
0010
,
0100
0001
0100
0001
0010
0100
0001
1000
0100
0001
0010
1000
0011
0100
0010
0001
,
1000
0010
0100
0001
0100
0010
0001
0010
0100
0001
0010
0100
1010
0100
0010
0001
,
1000
0100
0010
0100
1000
0001
0100
0001
0010
1000
0001
0100
0010
0001
0010
0100
,
1001
0000
1001
0000
1010
0000
1010
0000
0100
0000
0000
0010
1001
0000
0100
0010
,
0100
0000
1000
0010
0101
0000
0010
0000
0100
0010
0000
0010
1001
0100
0000
0100
,
0010
0000
0000
0001
0000
0000
1000
0000
0100
0000
1000
0000
0010
0000
0100
0000
0010
0000
1000
0000
0100
0000
1000
0000
0010
0000
0000
0000
0000
0000
0000
0000
0000
0100
0000
0000
1100
0000
0000
0000
0000
0000
0010
0000
0000
0100
0000
0000
,
1000
0000
0000
0000
0100
0000
0000
0000
1001
0000
0010
0000
0100
0000
0010
0000
0001
0100
1000
0000
0001
0100
1000
0000
0001
0100
1000
0000
0001
0100
1000
0000
,
0001
0100
1000
0000
0001
0100
1000
0000
0001
0100
1000
0000
0001
0010
0100
1000
0010
0000
0001
0000
0000
0000
0100
0000
1010
0000
0000
0000
0100
0000
0010
0000
,
0001
0000
1000
0100
0011
0000
0100
0000
0001
0010
0100
1000
0011
1000
0100
0010
,
0001
0000
0010
0000
1001
0000
0100
1000
0100
0010
0001
0100
0011
0100
0001
0100
,
1001
0001
0010
0100
1000
0100
0100
0100
1010
0000
1010
0000
1010
1010
0000
1010
,
0101
0000
0000
0000
0000
0000
0000
0000
0000
0000
0000
0000
0000
0000
0000
0000
0000
0000
0000
0000
0000
0000
0000
0000
0001
0000
0000
0000
0000
0000
0000
0000
0010
0000
0000
0000
0000
0000
0000
0000
1000
0000
0000
0000
0000
0000
0000
0000
0001
0000
0000
0000
0000
0000
0010
0000
0000
0000
0000
0000
0100
0000
0000
0000
0000
0000
1000
0000
0000
0000
0000
0000
0001
0000
0000
0000
0000
0000
0010
0000
0000
0000
0000
0000
0100
0000
0000
0000
0000
0000
1000
0000
0000
0000
0000
0000
0010
0000
0000
0000
0000
0000
0000
0000
0000
0000
0000
0000
0100
0000
0000
0000
0000
0000
0000
0000
0000
0000
0000
0000
0000
0000
0000
0000
0000
0000
0000
0000
0000
0000
0000
0000
0010
0000
0000
0000
0000
0000
0000
0000
0000
0000
0000
0000
0101
0000
0000
0000
0000
0000
0000
0000
0000
0000
0000
0000
0000
0000
0000
0000
0000
0000
0000
0000
0000
0000
0000
0000
0010
0000
0000
0000
0000
0000
0000
0000
0000
0000
0000
0000
0100
0000
0000
0000
0000
0000
0000
0000
0000
0000
0000
0000
,
1000
0100
0000
0010
1001
0100
0010
0000
0100
1000
0010
1000
0101
0010
0100
1000
,
0100
0010
0000
0010
0101
0000
0010
0000
0100
0010
0001
0000
0110
0000
0010
0100
,
1000
0000
0100
0000
0010
0000
0000
0000
0101
0000
0010
0000
0100
0000
1000
0000
0100
0010
0001
0000
0010
0100
1000
0000
0101
0000
0000
0000
0010
0000
0000
0000
,
0100
0010
0000
0010
1001
0100
0000
0100
1000
0100
0010
0000
0101
0010
0100
1000
,
0100
0010
0001
0000
0110
0001
1000
0100
0010
0001
0100
0000
0011
0100
0000
0100
,
1000
0100
0000
0100
0011
0000
0100
0010
0001
0010
0000
0100
1001
0000
0100
0000
,
0010
0000
0000
0000
1000
0000
0000
0000
0010
0000
0000
0000
0100
0000
0000
0000
1001
0000
0000
0000
0010
0000
0000
0000
0100
0000
0000
0000
1000
0000
0000
0000
0002
0000
0000
0000
0100
0000
0000
0003
0020
0000
0000
0000
0001
0000
0000
0030
1200
0000
0000
0000
0010
0000
0000
0300
2000
0000
0000
0000
0100
0000
0000
3000
,
0002
0000
0000
0000
0010
0000
0000
0000
0100
0000
0000
0000
0010
0000
0000
0003
0001
0000
0100
0000
0010
0000
1000
0000
0001
0000
0100
0000
0010
0000
1000
0000
0001
0000
0000
0000
0010
0000
0000
0000
0100
0000
0000
0000
0001
0000
0000
0000
1010
0000
0000
0000
0100
0000
0000
0000
0001
0000
0000
0000
0100
0000
0000
0000
,
0001
0010
0100
1000
0101
0010
0001
0100
1000
0100
0010
0001
1010
0100
0010
0001
,
0100
0010
0000
0010
1001
0000
0010
0100
1000
0000
0100
0010
1001
0000
0100
0000
,
0010
0000
0100
0000
1000
0000
0100
0000
0011
0000
0100
0000
0010
0000
0001
0000
0010
0100
1000
0100
0010
0000
0001
0000
1010
0000
0100
0000
0000
0000
0100
0000
,
0010
0001
0000
0001
1010
0000
0100
0010
1000
0100
0000
0100
0011
0100
1000
0100
,
0010
0000
0000
0000
0100
0000
0000
0000
1001
0100
0010
0000
0001
0000
0010
0000
1000
0100
0010
0000
0001
0000
0100
0000
1001
0000
0010
0000
0000
0000
0010
0000
,
0100
1000
0000
1000
0101
0000
0010
0100
1000
0100
0010
0001
0110
1000
0100
0010
,
0001
0010
0100
0010
1001
1001
0011
0011
1010
0000
1010
0000
0110
0000
0110
0000
,
1010
0000
0101
0000
0110
0000
1010
0000
2100
0000
0010
0000
0001
0010
0000
0010
,
0100
0000
0000
0000
0000
0000
0000
0000
0001
0000
0000
0000
0000
0000
0000
3000
0010
0000
0000
0000
0000
0000
0000
0000
0100
0000
0000
0000
0000
0000
0000
0000
0021
0000
0000
0000
0000
0000
0000
0000
0100
0000
0000
0000
0000
0000
0000
0000
1000
0000
0000
0000
0100
0000
0000
0000
0000
0000
0000
0000
0100
0000
0000
0000
,
1000
0000
0000
0000
0000
0000
0000
0000
0100
0000
0000
0000
0000
0000
0000
0030
1000
0000
0000
0000
0000
0000
0000
0000
0010
0000
0000
0000
0000
0000
0000
0000
0201
0000
0000
0000
0000
0000
0000
0000
0010
0000
0000
0000
0000
0000
0000
0000
1000
0000
0000
0000
0000
0000
0000
0300
1020
0000
0000
0000
0001
0000
0000
0000
,
0000
0000
0000
0000
0100
0000
0000
0000
1000
0000
0000
0000
0000
0000
0000
0030
0102
0000
0000
0000
0000
0000
0000
0000
0010
0000
0000
0000
0000
0000
0000
0003
2100
0000
0000
0000
0000
0000
0000
0000
0010
0000
0000
0000
0000
0000
0000
0000
0001
0000
0000
0000
0000
0000
0000
0000
0010
0000
0000
0000
0000
0000
0000
0000
,
0100
0000
0000
0000
0000
0000
0000
0000
0000
0000
0000
0000
0000
0000
0000
3000
0001
0000
0000
0000
0010
0000
0000
0000
1000
0000
0000
0000
0000
0000
0000
0000
0210
0000
0000
0000
0000
0000
0000
0000
0001
0000
0000
0000
0000
0000
0000
0000
0010
0000
0000
0000
1000
0000
0000
0000
0000
0000
0000
0000
0010
0000
0000
0000
,
0001
0000
0000
0000
0000
0000
0000
0000
1000
0000
0000
0000
0000
0000
0000
0300
0021
0000
0000
0000
0000
0000
0000
0000
0100
0000
0000
0000
0000
0000
0000
0030
2001
0000
0000
0000
0100
0000
0000
0000
0000
0000
0000
0000
0010
0000
0000
0000
0100
0000
0000
0000
0000
0000
0000
0000
0010
0000
0000
0000
0001
0000
0000
0000
,
0000
0000
0000
0000
0100
0000
0000
0000
0001
0000
0000
0000
0000
0000
0000
3000
0100
0000
0000
0000
0000
0000
0000
0000
0010
0000
0000
0000
0000
0000
0000
0000
1200
0000
0000
0000
0000
0000
0000
0000
0001
0000
0000
0000
0000
0000
0000
0300
1020
0000
0000
0000
0100
0000
0000
0000
0000
0000
0000
0000
0001
0000
0000
0000
,
0100
0000
1000
0000
0100
0000
0001
0100
0000
1000
0100
0000
0001
0000
0100
0000
,
0001
0000
0100
0000
1000
0000
0000
0030
2000
0000
0000
0100
0000
0000
3010
0000
,
0200
0000
0000
0001
0000
0000
1300
0000
0020
0000
0000
1000
0000
0000
0130
0000
,
0002
0000
0010
0100
1000
0100
0013
0000
2000
0010
0000
0010
0001
0000
3010
0000
,
0200
0001
0000
0001
0010
0000
1300
0000
0020
0100
0000
0100
0001
0000
0130
0000
,
0002
0000
0000
0010
0000
0000
0000
0000
0000
0010
0000
0000
0100
0000
0000
0000
0000
0000
1003
0000
0000
0000
0000
0000
0001
0000
0010
0000
0100
0000
1000
0000
0001
0000
0010
0000
0100
0000
1000
0000
0100
0000
0010
0000
0001
0000
1000
0000
,
0100
0010
0001
0100
0010
0001
0010
0100
1000
0001
0010
0100
1000
0001
0010
0100
0010
0001
0100
0010
0001
0010
0100
1000
,
0100
0010
0001
0010
0100
1000
0001
0010
0100
1000
0100
0010
0002
0000
0010
0000
0100
0000
1000
0000
0010
0000
1000
0000
,
0100
0000
0000
0000
0000
0000
0000
0000
0000
0000
0000
0000
0000
0000
0000
0000
0010
0000
0000
0000
0000
0000
0000
0000
0000
0000
0000
0000
0000
0000
0000
0000
0100
0000
0000
0000
0000
0000
0000
0000
0000
0000
0000
0000
0000
0000
0000
0000
1000
0000
0000
0000
0000
0000
0000
0000
0000
0000
0000
0000
0000
0000
0000
0000
0000
0000
0000
0000
0000
0000
0000
0000
0000
0000
0000
0000
0000
0000
0000
0000
0000
0000
0000
0000
0000
0000
0000
0000
0000
0000
0000
0000
0000
0003
0000
0000
1000
0000
0000
0000
0000
0000
0100
0000
0000
0000
0000
0000
0010
0000
0000
0000
0000
0000
0001
0000
0000
0000
0000
0000
0100
0000
0000
0000
0000
0000
0000
0000
0010
0000
0000
0000
0000
0000
0000
0000
0001
0000
0000
0000
0000
0000
0000
0000
1000
0000
0000
0000
0000
0000
0000
0000
0100
0000
0000
0000
0000
0000
0000
0000
0010
0000
0000
0000
0000
0000
0000
0000
0001
0000
0000
0000
0000
0000
0000
0000
0010
0000
0000
0000
0000
0000
0000
0000
0100
0000
0000
0000
0000
0000
0000
0000
,
1000
0001
0010
0100
0010
0001
0010
0000
0000
0100
0000
0000
1100
0000
0000
0100
0000
0000
0110
0000
0000
0100
0000
0000
,
1010
0010
0110
0010
1001
0100
0110
0010
,
1100
0100
1010
0010
0101
0010
1001
0100
,
0110
0010
0101
0001
0110
0100
1010
1000
,
0110
0000
0000
0000
0000
0000
0000
0000
0000
0000
0000
0000
0110
0000
0000
0000
0000
0000
0000
0000
0000
0000
0000
0000
0101
0000
0000
0000
0000
0000
0000
0000
0000
0000
0000
0000
0011
0000
0000
0000
0000
0000
0000
0000
0000
0000
0000
0000
0101
0000
0000
0000
0000
0000
0000
0000
0000
0000
0000
0000
0010
0000
0000
0000
0100
0000
0000
0000
0010
0000
0000
0000
0001
0000
0000
0010
0000
0000
0100
0000
0000
1000
0000
0000
0001
0000
0000
0010
0000
0000
0100
0000
0000
1000
0000
0000
0001
0000
0000
0000
0000
0000
0000
0000
0000
0000
0000
0000
0010
0000
0000
0000
0000
0000
0000
0000
0000
0000
0000
0000
0001
0000
0000
0000
0000
0000
0000
0000
0000
0000
0000
0000
0100
0000
0000
0000
0000
0000
0000
0000
0000
0000
0000
0000
1010
0000
0000
0000
0000
0000
0000
0000
0000
0000
0000
0000
0100
0000
0000
0000
0000
0000
0000
0000
0000
0000
0000
0000
0010
0000
0000
0000
0000
0000
0000
0000
0000
0000
0000
0000
0001
0000
0000
0000
0000
0000
0000
0000
0000
0000
0000
0000
,
0010
1000
0010
0001
1010
0100
0010
0001
0100
1000
0010
0001
0110
1000
0100
0010
,
0001
0100
0000
0100
1001
0010
0100
0000
1000
0100
0010
0100
1001
0010
0100
1000
,
0001
0000
0010
0000
0100
0000
0001
0000
1100
0000
0010
0000
0001
0000
1000
0000
0100
0010
0001
0000
1000
0100
0001
0000
1010
0000
0100
0000
0000
0000
0100
0000
,
0010
0000
0100
0000
1000
0000
0100
0000
1001
0010
0100
0000
1000
0000
0100
0000
0010
1000
0100
0000
0010
0000
0001
0000
1100
0010
0001
0000
0100
0000
0010
0000
,
1000
0010
0001
0000
0100
0000
1000
0000
0101
0000
0010
0000
0000
0000
0100
0000
1000
0000
0000
0000
0010
0000
0000
0000
1001
0000
0100
0000
0000
0000
0100
0000
,
0010
0001
0000
0001
1010
0000
0100
0010
0001
1000
0100
0010
1001
0010
1000
0010
,
0100
0010
0001
0010
1100
1100
0110
0110
1001
0000
1010
0000
1100
0000
0110
0000
,
0101
1010
0110
0101
0110
0101
1010
1100
,
0101
0000
0110
0000
1010
0000
0101
0000
0002
0010
0100
0010
1000
0010
0100
1000
,
0100
0000
0000
0000
0010
0000
0000
0000
1000
0000
0000
0000
0100
0000
0000
0003
0010
0000
0000
0000
0000
0000
0000
0000
0100
0000
0000
0000
0000
0000
0000
0000
2000
0000
0000
0000
0100
0000
0000
0000
0010
0000
0000
0000
0001
0000
0000
0000
0010
0000
0000
0000
0100
0000
0000
0000
0001
0000
0000
0000
0010
0000
0000
0000
,
0100
0000
0000
0000
0001
0000
0000
0000
0010
0000
0000
0000
0100
0000
0000
3000
1000
0000
0000
0000
0000
0000
0000
0000
0001
0000
0000
0000
0000
0000
0000
0000
0020
0000
0000
0000
0001
0000
0000
0000
0100
0000
0000
0000
1000
0000
0000
0000
0001
0000
0000
0000
0100
0000
0000
0000
0001
0000
0000
0000
0100
0000
0000
0000
,
1000
0000
0000
0000
0100
0000
0000
0000
1000
0000
0000
0000
0001
0000
0000
0000
0100
0000
0000
0000
0001
0000
0000
0000
0100
0000
0000
0000
1000
0000
0000
0000
0100
0000
0000
0000
0001
0000
0000
0030
0010
0000
0000
0000
0000
0000
0000
0000
0101
0000
0000
0000
0000
0000
0000
0000
0010
0000
0000
0000
0000
0000
0000
0000
,
0101
0000
0010
0000
0101
0010
0010
0000
0200
0010
0001
0010
1000
0001
1000
0001
,
0010
0000
0000
0000
1000
0000
0000
0000
0010
0000
0000
0000
0001
0000
0000
0300
0010
0000
0000
0000
0000
0000
0000
0000
0100
0000
0000
0000
0000
0000
0000
0000
0020
0000
0000
0000
0001
0000
0000
0000
0100
0000
0000
0000
1000
0000
0000
0000
0100
0000
0000
0000
1000
0000
0000
0000
0100
0000
0000
0000
0001
0000
0000
0000
,
0100
0000
0000
0000
1000
0000
0000
0000
0001
0000
0000
0000
0100
0000
0000
0030
1000
0000
0000
0000
0000
0000
0000
0000
0100
0000
0000
0000
0000
0000
0000
0000
2000
0000
0000
0000
0100
0000
0000
0000
0010
0000
0000
0000
0001
0000
0000
0000
0100
0000
0000
0000
0010
0000
0000
0000
0100
0000
0000
0000
0001
0000
0000
0000
,
0010
0100
0001
0010
0100
0010
0100
0001
0100
0001
0100
0010
0001
0010
0100
0010
,
0001
0000
0000
0000
0001
0000
0000
3000
0010
0000
0000
0000
0010
0000
0000
0000
0101
0000
0000
0000
0101
0000
0000
0000
0101
0000
0000
0000
0010
0000
0000
0000
0002
0000
0000
0000
1000
0000
0000
0000
0010
0000
0000
0000
0100
0000
0000
0000
0010
0000
0000
0000
0100
0000
0000
0000
1000
0000
0000
0000
0010
0000
0000
0000
,
1000
0000
0000
0000
0010
0000
0000
0000
1000
0000
0000
0000
0100
0000
0000
0003
0010
0000
0000
0000
0000
0000
0000
0000
0100
0000
0000
0000
0000
0000
0000
0000
0020
0000
0000
0000
0100
0000
0000
0000
0001
0000
0000
0000
0100
0000
0000
0000
1000
0000
0000
0000
0100
0000
0000
0000
1000
0000
0000
0000
0001
0000
0000
0000
,
0100
0000
0000
0000
0001
0000
0000
0000
0100
0000
0000
0000
1000
0000
0000
0030
0100
0000
0000
0000
0000
0000
0000
0000
0010
0000
0000
0000
0000
0000
0000
0000
2000
0000
0000
0000
0100
0000
0000
0000
0010
0000
0000
0000
0001
0000
0000
0000
0010
0000
0000
0000
0100
0000
0000
0000
0001
0000
0000
0000
0100
0000
0000
0000
,
0001
0000
0000
0000
0010
0000
0000
0000
0001
0000
0000
0000
0100
0000
0000
0000
0001
0000
0000
0000
0100
0000
0000
0000
0010
0000
0000
0000
0100
0000
0000
0000
0001
0000
0000
0000
0100
0000
0000
0000
0001
0000
0000
0000
0010
0000
0000
0000
0001
0000
0000
0000
0010
0000
0000
3000
0100
0000
0000
0000
0000
0000
0000
0000
,
1010
0100
0000
0001
0110
0000
0100
0000
0020
0001
0100
0001
1000
0100
0001
1000
,
0100
0000
0000
0000
1000
0000
0000
0000
0001
0000
0000
0000
0100
0000
0000
0030
1000
0000
0000
0000
0000
0000
0000
0000
0001
0000
0000
0000
0000
0000
0000
0000
0200
0000
0000
0000
1000
0000
0000
0000
0010
0000
0000
0000
0001
0000
0000
0000
0010
0000
0000
0000
0001
0000
0000
0000
1000
0000
0000
0000
0010
0000
0000
0000
,
0001
0000
0000
0000
0001
0000
0000
0300
0010
0000
0000
0000
0010
0000
0000
0000
1100
0000
0000
0000
1100
0000
0000
0000
1010
0000
0000
0000
1010
0000
0000
0000
0100
0000
0000
0000
0000
0000
0000
0000
1010
0000
0000
0000
0000
0000
0000
0000
0110
0000
0000
0000
0000
0000
0000
0000
0101
0000
0000
0000
0000
0000
0000
0000
,
0110
1001
1010
1100
0110
1010
0101
0011
,
0101
0110
1100
0110
0101
0011
1001
1010
,
1100
0110
0101
0011
1001
1010
1100
1010
,
0110
0000
0101
0000
0011
0000
2002
3003
0000
0000
0000
0000
0000
0000
0000
0000
;

//---------------dance-single - ----------------
#NOTES:
     dance-single:
     :
     Medium:
     8:
     0.763,0.992,0.699,0.522,0.547,1160.000,197.000,147.000,0.000,0.000:
0200
0000
0000
0300
0020
0000
0000
0030
0202
0000
0000
0000
0000
0000
0000
0303
,
2000
0000
0000
0000
0000
0000
0000
0000
3000
0000
0020
0000
0000
0000
0000
0000
0000
0000
0000
0030
0000
0200
0000
0000
0000
0000
0000
0000
0000
0000
0300
0000
,
0020
0000
0000
0000
0000
0000
0030
0000
0200
0000
0000
0000
0000
0000
0300
0000
2000
0000
0000
3000
0000
0200
0000
0000
0000
0000
0000
0000
0000
0000
0300
0000
,
2020
0000
0000
0000
0000
0000
0000
0000
0000
0000
0000
0000
0000
0000
0000
3030
,
0000
0000
0000
0000
2000
0000
0000
3000
0200
0000
0000
0300
0020
0000
0000
0030
2002
0000
0000
0000
0000
0000
0000
3003
0200
0300
0020
0030
2002
0000
0000
0000
,
0000
0000
0000
3003
0020
0030
0200
0300
2020
0000
0000
3030
0220
0000
0000
0330
0202
0000
0000
0303
0220
0000
0000
0000
0000
0000
0000
0330
2000
3000
0200
0300
,
0022
0000
0000
0000
0000
0000
0000
0033
2000
0000
0000
3000
0202
0000
0000
0000
0000
0000
0000
0303
0020
0030
0200
0300
2002
0000
0000
3003
0202
0000
0000
0303
,
2020
0000
0000
3030
2200
0000
0000
0000
0000
0000
0000
3300
0020
0030
0200
0300
2002
0000
0000
0000
0000
0000
0000
3003
0200
0300
0020
0030
2002
0000
0000
0000
,
0000
0000
0000
3003
0020
0030
0200
0300
2020
0000
0000
3030
0220
0000
0000
0330
0202
0000
0000
0303
0022
0000
0000
0000
0000
0000
0000
0033
2000
3000
0200
0300
,
0022
0000
0000
0030
0200
0000
0000
0303
2020
0000
0000
3030
0202
0000
0000
0000
0000
0000
0000
0303
0020
0030
0002
0003
2200
0000
0000
0000
0000
0000
0000
0300
,
0002
0000
0000
0003
0020
0000
0000
0000
0000
0000
0000
0000
0000
0000
0000
3030
0202
0000
0000
0000
0000
0000
0000
0300
2000
0000
0000
3000
0200
0000
0000
0000
,
0000
0000
0000
0000
0000
0000
0000
0303
2020
0000
0000
0000
0000
0000
0000
3030
,
2002
0000
0000
0000
0000
0000
0000
3003
0220
0000
0000
0000
0300
2000
0000
0000
,
0000
0000
0000
0000
0000
0000
0000
3030
0100
0000
0010
0000
1100
0000
0001
0010
,
0100
0000
0010
0000
0001
0000
1000
0000
0010
0000
0100
0000
1001
0000
0100
0001
,
0100
0000
1000
0000
0010
0000
0001
0000
0100
0000
0001
0000
1010
0000
0001
0010
,
1000
0000
0000
0000
0000
0000
0000
0000
0100
0000
0000
0000
0000
0000
0000
0000
1000
0000
0000
0000
0000
0000
0000
0000
0010
0000
0000
0000
0000
0000
0000
0000
2001
0000
0000
0000
0000
0000
0000
0000
0010
0000
0000
0000
0000
0000
0000
0000
0100
0000
0000
0000
0000
0000
0000
0000
0010
0000
0000
0000
0000
0000
0000
3000
,
0001
0100
0000
0100
0001
0010
0100
1000
0100
0010
0001
0000
1010
0000
0100
0010
,
0001
0000
0010
0000
0101
0000
1000
0000
0100
0000
0010
0000
1100
0000
0001
0010
,
0100
0000
0010
0000
1001
0000
0100
1000
0100
0000
0001
0000
0110
0000
0001
0000
,
0100
0000
0010
0000
1001
0000
0010
0000
0100
0000
0010
0000
1002
0010
0100
0000
,
0013
0000
0000
0000
1000
0010
1000
0010
1000
0000
0100
0000
0001
1000
0001
1000
,
0001
0000
0010
0000
1001
0000
0100
0000
0001
0000
1000
0010
0002
0000
0100
0000
,
1003
0000
0010
0000
1001
0000
0010
0000
0100
0000
0000
1000
0000
0000
0100
0000
,
0001
0000
0010
0000
1000
0010
0001
0010
1100
0000
1100
0000
1010
0000
1010
0000
,
0101
0101
0101
0101
0011
0011
1010
1010
,
0110
0000
0110
0000
0110
0000
0110
0000
0001
0000
0010
0100
1000
0000
0100
0000
,
0010
0000
0010
0000
0001
0000
0010
0000
1000
0010
0001
0000
1000
0100
0000
0002
,
0000
0000
1000
0000
0100
0000
0013
0000
0100
0000
0001
0010
0100
0000
0010
0000
,
1000
0000
1000
0000
0010
0000
1000
0100
0020
0000
1000
0000
0100
0000
1000
0000
,
0100
0000
1000
0000
0130
0010
0001
0000
0100
0000
0001
0010
1000
0000
0100
0001
,
0100
0000
0010
0000
0001
0000
0010
0000
0100
0010
0001
0010
0100
0000
1000
0000
,
0110
0000
1001
0100
0010
0000
0101
0000
,
0010
1000
0010
1000
0010
0001
0010
0100
1001
0000
1010
0000
1000
0100
0000
0100
,
1001
0000
0000
0000
1000
0001
1000
0001
0100
0000
0010
0000
0001
0100
1000
0100
,
0001
0000
0010
0100
1000
0000
0010
0100
1000
0100
0010
0000
0100
0010
0000
0001
,
0000
0000
0100
0000
1010
0000
0100
0000
0010
0000
0000
0100
0000
0000
0001
0000
,
1000
0001
1000
0001
0100
0010
0100
0010
1100
0000
0100
0000
1002
0000
0000
0000
,
0103
0000
0000
0000
0010
1000
0010
0000
0100
0001
0100
0000
1000
0000
0100
0010
,
0001
0000
0100
0000
1010
0000
0001
0010
1000
0010
0001
0010
2000
0000
0010
0000
,
3001
0000
0000
0000
0100
0000
0001
0100
0001
0000
0010
0000
0100
0000
0010
0100
,
1000
0100
0010
0001
1000
0100
0001
0010
0101
0000
0101
0000
1010
0000
1010
0000
,
0110
0000
0110
0000
0101
0000
0110
0000
0001
0010
0100
0010
0001
0010
0100
1000
,
0001
0010
0100
1000
0100
0010
0100
0010
0001
0010
0100
1000
0100
0010
0001
0010
,
1000
0010
1000
0010
0100
0010
0001
0010
0100
0001
0100
0001
0010
0100
1000
0100
,
0010
0001
0010
0100
0001
0010
0100
1000
0010
0100
1000
0100
0010
1000
0010
1000
,
0010
0100
0001
0010
0100
1000
0001
0100
1000
0100
0010
0001
0100
0010
0001
0010
,
0100
0001
0100
0001
1000
0100
0010
0001
0010
0100
1000
0001
1000
0001
1000
0100
,
0010
0001
1000
0100
0010
0100
1000
0100
0010
1000
0010
1000
0010
0100
1000
0100
,
0010
0001
0010
0100
1000
0001
1000
0001
0100
0010
0001
0010
0100
1000
0100
0010
,
1001
0000
1001
0000
1010
0000
1010
0000
0100
0000
0001
0010
1000
0000
0001
0010
,
0100
0000
0010
0000
0101
0000
0010
0000
0101
0000
1000
0010
0001
0010
0000
0200
,
0000
0000
1000
0000
0010
0000
0301
0000
1010
0000
0001
0010
1000
0000
0001
0100
,
0001
0100
1001
0100
0002
0100
1000
0100
,
0010
0000
1000
0100
0013
0000
0001
0100
1000
0100
0000
0010
0001
0000
0010
0000
,
1001
0000
0010
0100
1000
0000
0100
0000
0001
0010
0100
1000
0001
1000
0100
0010
,
0001
0000
0010
0000
1001
0000
0100
0000
1000
0010
0000
0100
0001
0000
0010
0100
,
1000
0100
0001
0010
0100
1000
0001
0100
1010
0000
1010
0000
1100
0010
0000
0010
,
0101
0000
0000
0000
0001
0100
0001
0100
1000
0000
0100
0000
1001
0000
0010
0100
,
1000
0000
0100
0000
1001
0000
0010
0000
0100
1000
0010
1000
0001
0010
0100
1000
,
0001
0000
0100
0000
1001
0000
0010
0000
0100
0010
0001
0000
0110
0000
0010
0100
,
1000
0100
0010
0000
1000
0000
0001
0000
0100
0010
0100
0000
0002
0010
0100
0000
,
1003
0000
0000
0000
1000
0010
0001
0000
0010
1000
0010
0000
0001
0010
0100
1000
,
0100
0010
0001
0000
0110
0000
1000
0000
0010
0000
0100
0000
0002
0010
0100
0000
,
1003
0000
0100
0000
1001
0000
0100
0000
0001
0010
0000
0100
1000
0000
0100
0000
,
0001
0000
0000
0000
0010
0000
0000
0000
0100
0000
0000
0000
1000
0000
0000
0000
0100
0000
0000
0000
0010
0000
0000
0000
0001
0000
0000
0000
0010
0000
0000
0000
0002
0000
0000
0000
0000
0000
0000
0003
0020
0000
0000
0000
0000
0000
0000
0030
0200
0000
0000
0000
0000
0000
0000
0300
2000
0000
0000
0000
0000
0000
0000
3000
,
0002
0000
0000
0000
0000
0000
0000
0000
0100
0000
0000
0000
0000
0000
0000
0003
1000
0000
0000
0000
0100
0000
0000
0000
0010
0000
0000
0000
0001
0000
0000
0000
0000
0000
0000
0000
0010
0000
0000
0000
0100
0000
0000
0000
0000
0000
0000
0000
1000
0000
0000
0000
0010
0000
0000
0000
1000
0000
0000
0000
0010
0000
0000
0000
,
0001
0010
0100
1000
0100
0000
0001
0000
1010
0000
0100
0000
1000
0100
0010
0000
,
0100
0000
0010
0000
1001
0000
0010
0100
1000
0000
0100
0010
0001
0000
0100
0000
,
0001
0100
1000
0100
0001
0000
0100
0000
0010
1000
0010
0000
2002
0000
0000
0000
,
3003
0000
0000
0000
0110
0000
0001
0010
1000
0100
0000
0010
0001
0000
1000
0100
,
0010
0000
0100
0000
1000
0010
0001
0010
1000
0010
0001
0100
2000
0000
0100
0000
,
3001
0000
0000
0000
0101
0000
0010
0100
1000
0000
0010
0001
0010
0000
0100
0000
,
0001
0010
0100
0010
1000
0001
1000
0001
1010
0000
1010
0000
0110
0000
0110
0000
,
1001
1001
1001
1010
2100
0010
0001
0000
,
0010
0000
0000
0000
0000
0000
0000
0000
0100
0000
0000
0000
0000
0000
0000
3000
0001
0000
0000
0000
0000
0000
0000
0000
0100
0000
0000
0000
0000
0000
0000
0000
0021
0000
0000
0000
0000
0000
0000
0000
0100
0000
0000
0000
0000
0000
0000
0000
1000
0000
0000
0000
0000
0000
0000
0000
0000
0000
0000
0000
0000
0000
0000
0000
,
0100
0000
0000
0000
0000
0000
0000
0000
0001
0000
0000
0000
0000
0000
0000
0030
1000
0000
0000
0000
0000
0000
0000
0000
0010
0000
0000
0000
0000
0000
0000
0000
0201
0000
0000
0000
0000
0000
0000
0000
0010
0000
0000
0000
0000
0000
0000
0000
0001
0000
0000
0000
0000
0000
0000
0300
1020
0000
0000
0000
0000
0000
0000
0000
,
0100
0000
0000
0000
0000
0000
0000
0000
1000
0000
0000
0000
0000
0000
0000
0030
0102
0000
0000
0000
0000
0000
0000
0000
0010
0000
0000
0000
0000
0000
0000
0003
2100
0000
0000
0000
0000
0000
0000
0000
0010
0000
0000
0000
0000
0000
0000
0000
0001
0000
0000
0000
0000
0000
0000
0000
0010
0000
0000
0000
0000
0000
0000
0000
,
0100
0000
0000
0000
0000
0000
0000
0000
0000
0000
0000
0000
0000
0000
0000
3000
0001
0000
0000
0000
0010
0000
0000
0000
1000
0000
0000
0000
0000
0000
0000
0000
0210
0000
0000
0000
0000
0000
0000
0000
0001
0000
0000
0000
0000
0000
0000
0000
0010
0000
0000
0000
0000
0000
0000
0000
0000
0000
0000
0000
0000
0000
0000
0000
,
0001
0000
0000
0000
0000
0000
0000
0000
1000
0000
0000
0000
0000
0000
0000
0300
0021
0000
0000
0000
0000
0000
0000
0000
0100
0000
0000
0000
0000
0000
0000
0030
2001
0000
0000
0000
0000
0000
0000
0000
0010
0000
0000
0000
0000
0000
0000
0000
0100
0000
0000
0000
0000
0000
0000
0000
0000
0000
0000
0000
0000
0000
0000
0000
,
0010
0000
0000
0000
0000
0000
0000
0000
0001
0000
0000
0000
0000
0000
0000
3000
0100
0000
0000
0000
0000
0000
0000
0000
0010
0000
0000
0000
0000
0000
0000
0000
1200
0000
0000
0000
0000
0000
0000
0000
0001
0000
0000
0000
0000
0000
0000
0300
1020
0000
0000
0000
0000
0000
0000
0000
0001
0000
0000
0000
0000
0000
0000
0000
,
0100
0000
0100
0001
1000
0100
0001
0100
,
0001
0000
0100
0000
1000
0000
0000
0030
2000
0000
0000
0100
0000
0000
3010
0000
,
0200
0000
0000
0001
0000
0000
1300
0000
0020
0000
0000
1000
0000
0000
0130
0000
,
0002
0000
0000
0100
0000
0000
0013
0000
2100
0000
0000
0010
0000
0000
3001
0000
,
0210
0000
0000
0001
0000
0000
1300
0000
0021
0000
0000
0100
0000
0000
0130
0000
,
1002
0000
0000
0010
0000
0000
1003
0000
0001
0010
0100
1000
0001
0010
0100
1000
,
0010
0100
1000
0001
1000
0001
1000
0010
1000
0010
0100
0010
0001
0010
0100
1000
,
0001
0000
0000
0010
0000
0000
0100
0000
0000
1000
0000
0000
0100
0000
0000
0010
0000
0000
0001
0000
0000
0010
0000
0000
0002
0000
0000
0000
0010
0000
0000
0000
0100
0000
0000
0000
1000
0000
0000
0000
0010
0000
0000
0000
1000
0000
0000
0000
,
0100
0000
0000
0000
0000
0000
0000
0000
0000
0000
0000
0000
0000
0000
0000
0000
0010
0000
0000
0000
0000
0000
0000
0000
0000
0000
0000
0000
0000
0000
0000
0000
0100
0000
0000
0000
0000
0000
0000
0000
0000
0000
0000
0000
0000
0000
0000
0000
1000
0000
0000
0000
0000
0000
0000
0000
0000
0000
0000
0000
0000
0000
0000
0000
0000
0000
0000
0000
0000
0000
0000
0000
0000
0000
0000
0000
0000
0000
0000
0000
0000
0000
0000
0000
0000
0000
0000
0000
0000
0000
0000
0000
0000
0003
0000
0000
0010
0000
0000
0000
0000
0000
0000
0000
0000
0000
0000
0000
0100
0000
0000
0000
0000
0000
0000
0000
0000
0000
0000
0000
1000
0000
0000
0000
0000
0000
0000
0000
0000
0000
0000
0000
0100
0000
0000
0000
0000
0000
0000
0000
0000
0000
0000
0000
0010
0000
0000
0000
0000
0000
0000
0000
0000
0000
0000
0000
0001
0000
0000
0000
0000
0000
0000
0000
0000
0000
0000
0000
0010
0000
0000
0000
0000
0000
0000
0000
0000
0000
0000
0000
1000
0000
0000
0000
0000
0000
0000
0000
0000
0000
0000
0000
,
0010
0000
0000
1000
0000
0000
0100
0000
0010
0000
0001
0000
0010
0000
0000
0000
0000
0000
0100
0000
0000
0000
0000
0000
1100
0000
0000
0000
0000
0000
0100
0000
0000
0000
0000
0000
0110
0000
0000
0000
0000
0000
0100
0000
0000
0000
0000
0000
,
1010
0010
0110
0010
1001
0100
0110
0010
,
1100
0100
1010
0010
0101
0010
1001
0100
,
0110
0010
0101
0001
0110
0100
1010
1000
,
0110
0000
0110
0000
0101
0000
0011
0000
0101
0000
0000
0000
0001
0010
0100
1000
0001
0000
0010
0000
0001
0000
0100
0000
1000
0000
0100
0000
0010
0000
0001
0000
,
0010
1000
0010
0001
0010
0100
0010
0001
0100
1000
0010
0001
0010
1000
0100
0010
,
0001
0000
0010
0000
0101
0000
0010
0000
1000
0100
0000
0010
0001
0000
0100
0000
,
1000
0100
0010
0000
1000
0010
0001
0000
0100
0001
0100
0001
2000
0100
0010
0000
,
3001
0000
0000
0000
0001
0100
1000
0100
0001
0000
0010
0000
1000
0010
0001
0010
,
1000
0000
0100
0000
0001
0010
0000
0100
1000
0000
0010
0000
2001
0000
0100
0000
,
3001
0000
0000
0000
1000
0000
0100
0010
0001
1000
0100
0010
0001
0010
1000
0010
,
0100
0010
0001
0010
1000
0100
0001
0010
1001
0000
1001
0000
1010
0000
1010
0000
,
0101
1010
0101
1010
0101
0101
1010
1010
,
0011
1100
0011
1100
0002
0100
1000
0100
,
0010
0000
0000
0000
0000
0000
0000
0000
1000
0000
0000
0000
0100
0000
0000
0003
0010
0000
0000
0000
0000
0000
0000
0000
0100
0000
0000
0000
0000
0000
0000
0000
2000
0000
0000
0000
0000
0000
0000
0000
0010
0000
0000
0000
0000
0000
0000
0000
0001
0000
0000
0000
0000
0000
0000
0000
0010
0000
0000
0000
0000
0000
0000
0000
,
0100
0000
0000
0000
0000
0000
0000
0000
0001
0000
0000
0000
0010
0000
0000
3000
0100
0000
0000
0000
0000
0000
0000
0000
0001
0000
0000
0000
0000
0000
0000
0000
0020
0000
0000
0000
0000
0000
0000
0000
0100
0000
0000
0000
0000
0000
0000
0000
0001
0000
0000
0000
0000
0000
0000
0000
1000
0000
0000
0000
0000
0000
0000
0000
,
0100
0000
0000
0000
0000
0000
0000
0000
1000
0000
0000
0000
0000
0000
0000
0000
0100
0000
0000
0000
0000
0000
0000
0000
0001
0000
0000
0000
0000
0000
0000
0000
1000
0000
0000
0000
0100
0000
0000
0030
0001
0000
0000
0000
0000
0000
0000
0000
0101
0000
0000
0000
0000
0000
0000
0000
0010
0000
0000
0000
0000
0000
0000
0000
,
0101
0000
0010
0000
0101
0010
0001
0000
0200
0000
0001
0000
0010
0000
1000
0000
,
0010
0000
0000
0000
0000
0000
0000
0000
1000
0000
0000
0000
0010
0000
0000
0300
0001
0000
0000
0000
0000
0000
0000
0000
0100
0000
0000
0000
0000
0000
0000
0000
0020
0000
0000
0000
0000
0000
0000
0000
0100
0000
0000
0000
0000
0000
0000
0000
1000
0000
0000
0000
0000
0000
0000
0000
0001
0000
0000
0000
0000
0000
0000
0000
,
0100
0000
0000
0000
0000
0000
0000
0000
0001
0000
0000
0000
0100
0000
0000
0030
1000
0000
0000
0000
0000
0000
0000
0000
0100
0000
0000
0000
0000
0000
0000
0000
2000
0000
0000
0000
0000
0000
0000
0000
0010
0000
0000
0000
0000
0000
0000
0000
0100
0000
0000
0000
0000
0000
0000
0000
0001
0000
0000
0000
0000
0000
0000
0000
,
0100
0010
0001
0100
0010
0100
0001
0010
,
0100
0000
0000
0000
0010
0000
0000
3000
0001
0000
0000
0000
0010
0000
0000
0000
0100
0000
0000
0000
1000
0000
0000
0000
0100
0000
0000
0000
0000
0000
0000
0000
0002
0000
0000
0000
0000
0000
0000
0000
0010
0000
0000
0000
0000
0000
0000
0000
1000
0000
0000
0000
0000
0000
0000
0000
0100
0000
0000
0000
0000
0000
0000
0000
,
1000
0000
0000
0000
0000
0000
0000
0000
0010
0000
0000
0000
1000
0000
0000
0003
0010
0000
0000
0000
0000
0000
0000
0000
0100
0000
0000
0000
0000
0000
0000
0000
0020
0000
0000
0000
0000
0000
0000
0000
0001
0000
0000
0000
0000
0000
0000
0000
1000
0000
0000
0000
0000
0000
0000
0000
0100
0000
0000
0000
0000
0000
0000
0000
,
0001
0000
0000
0000
0000
0000
0000
0000
1000
0000
0000
0000
0100
0000
0000
0030
0001
0000
0000
0000
0000
0000
0000
0000
0010
0000
0000
0000
0000
0000
0000
0000
2000
0000
0000
0000
0000
0000
0000
0000
0010
0000
0000
0000
0000
0000
0000
0000
0100
0000
0000
0000
0000
0000
0000
0000
0001
0000
0000
0000
0000
0000
0000
0000
,
0010
0000
0000
0000
0000
0000
0000
0000
0001
0000
0000
0000
0000
0000
0000
0000
0100
0000
0000
0000
0000
0000
0000
0000
0001
0000
0000
0000
0000
0000
0000
0000
0010
0000
0000
0000
0000
0000
0000
0000
0100
0000
0000
0000
0000
0000
0000
0000
0001
0000
0000
0000
0010
0000
0000
3000
0100
0000
0000
0000
0000
0000
0000
0000
,
1010
0100
0000
0001
0110
0000
0100
0000
0020
0000
0100
0000
1000
0000
0001
0000
,
0100
0000
0000
0000
0000
0000
0000
0000
0001
0000
0000
0000
0100
0000
0000
0030
1000
0000
0000
0000
0000
0000
0000
0000
0001
0000
0000
0000
0000
0000
0000
0000
0200
0000
0000
0000
0000
0000
0000
0000
0010
0000
0000
0000
0000
0000
0000
0000
0001
0000
0000
0000
0000
0000
0000
0000
1000
0000
0000
0000
0000
0000
0000
0000
,
0001
0000
0000
0000
0010
0000
0000
0300
1000
0000
0000
0000
0100
0000
0000
0000
1000
0000
0000
0000
0100
0000
0000
0000
0010
0000
0000
0000
0001
0000
0000
0000
1001
0000
0000
0000
0000
0000
0000
0000
1001
0000
0000
0000
0000
0000
0000
0000
1010
0000
0000
0000
0000
0000
0000
0000
0101
0000
0000
0000
0000
0000
0000
0000
,
1010
1001
1010
1001
0110
0110
1001
0011
,
1001
0110
1001
0110
1001
0011
1001
0011
,
1100
1010
1100
1010
0101
0101
1100
1010
,
1010
0000
1010
0000
0101
0000
2002
3003
0000
0000
0000
0000
0000
0000
0000
0000
;
