#TITLE:MaxX ResurrexXion;
#SUBTITLE:;
#ARTIST:DJ Demon;
#TITLETRANSLIT:;
#SUBTITLETRANSLIT:;
#ARTISTTRANSLIT:;
#CREDIT:;
#BANNER:maxx_resurrexxion.png;
#BACKGROUND:maxx_resurrexxionbg.png;
#LYRICSPATH:;
#CDTITLE:;
#MUSIC:maxx_resurrexxion.mp3;
#OFFSET:-3.240;
#SAMPLESTART:79.971;
#SAMPLELENGTH:12.000;
#SELECTABLE:YES;
#BPMS:0.000=75.000,4.000=300.000,164.000=150.000,196.000=300.000,260.000=105.000,261.000=100.000,262.000=77.000,262.250=66.000,262.500=55.000,262.750=30.000,263.000=300.000,456.000=150.000;
#STOPS:263.000=0.640
;
#BGCHANGES:;
// cache tags:
#FIRSTBEAT:4.000;
#LASTBEAT:470.000;
#SONGFILENAME:Songs/IzzySM Keyboard Mega Pack/MaxX ResurrexXion (DJ Demon)/maxx_resurrexxion.sm;
#HASMUSIC:1;
#HASBANNER:1;
#MUSICLENGTH:114.703;
// end cache tags

//---------------dance-single - BASIC----------------
#NOTES:
     dance-single:
     BASIC:
     Easy:
     6:
     0.503,0.922,0.575,0.323,0.022,301.000,66.000,37.000,0.000,0.000:




0000
0000
0000
0000
,
1001
0000
0010
0000
,
1000
0000
0100
0000
,
0010
0000
0001
0000
,
1000
0001
1000
0000
,
0010
0100
0010
0000
,
0001
1000
0001
0000
,
1000
0100
0010
0001
,
1000
0010
0100
0001
,
1001
0000
0010
0000
,
0110
0000
1000
0000
,
1001
0000
0001
0000
,
1000
0100
0010
0001
,
1100
0000
0010
0000
,
1010
0000
0010
0000
,
0101
0000
0001
0000
,
0001
0100
0010
1000
,
0011
0000
0001
0000
,
1100
0000
0001
0000
,
0101
0000
0010
0000
,
1010
1000
0100
0010
,
1001
0000
0010
0000
,
1100
0000
0010
0000
,
1001
0000
0010
0000
,
1000
0100
0010
0001
,
1001
0000
0010
0000
,
0110
0000
0010
0000
,
1010
0000
0001
0000
,
0011
0000
1000
0000
,
1100
0000
0001
0000
,
0101
0000
1001
0000
,
0110
0000
1000
0000
,
1010
0000
0011
0000
,
1000
0100
0010
0001
,
1000
0010
0100
0001
,
0010
1000
0100
0010
,
0001
1000
0010
0100
,
0001
1000
0100
0010
,
0001
1000
0010
0100
,
0001
1000
0001
0010
,
1000
0010
0001
0000
,
2002
0000
0000
0000
0000
0000
0000
0000
0000
0000
0000
0000
0003
0000
0000
0200
,
0000
0000
0000
0300
0000
0000
0020
0000
0000
0000
0030
0000
0002
3003
0000
0000
,
2002
0000
0000
0000
0000
0000
0000
0000
0000
0000
0000
0000
3000
0000
0000
0200
,
0000
0000
0000
0300
0000
0000
0020
0000
0000
0000
0000
0030
2000
3003
0000
0000
,
2002
3003
0022
0033
,
0202
0000
0000
0300
0000
2000
0000
0000
0000
3000
0000
0020
0000
0033
0000
0000
,
2002
3003
2200
3300
,
2200
0000
0000
0300
0000
0020
0000
0000
0030
0000
0002
0000
0000
3003
0000
0000
,
1001
0000
0010
0000
,
1000
0000
0100
0000
,
0010
0000
0001
0000
,
1000
0000
0010
0000
,
0001
0000
1000
0000
,
0100
0000
0010
0000
,
0001
0000
1000
0000
,
0100
0000
0010
0000
,
0001
0000
1000
0000
,
0100
0000
0010
0000
,
0001
0000
1000
0000
,
0010
0000
0100
0000
,
0001
0000
1000
0000
,
0100
0000
0010
0000
,
0001
1000
0100
0010
,
0001
1000
0010
0100
,
2002
0000
0000
0000
,
3003
0000
0000
0000
,
1001
0000
1000
0000
,
1001
0000
1010
0000
,
1100
0000
1001
0000
,
0001
0000
0011
0000
,
1001
0000
0101
0000
,
1001
0000
0110
0000
,
1001
0000
0110
0000
,
1001
0000
0110
0000
,
1000
0100
0010
0001
,
1000
0100
0010
0001
,
0100
0010
0001
1000
,
0100
0010
0001
1000
,
1001
0100
0010
1000
,
0001
0100
0010
0001
,
1000
0100
0001
1000
,
0100
0010
0001
1000
,
1000
0010
0100
0010
,
0001
1000
0100
0010
,
0001
1000
0001
0010
,
0100
1000
1000
0100
,
1001
0000
1001
0000
,
0110
0110
0000
0000
,
0110
0000
0000
0000
,
1001
0000
0000
0000
,
0110
0000
0000
0000
,
1001
0000
0000
0000
,
1010
0000
0000
0000
,
0101
0000
0000
0000
,
0011
0000
0000
0000
,
1100
0000
0000
0000
,
1001
0000
0000
0000
,
0110
0000
1001
0000
,
1001
0000
1000
0000
,
0100
0000
0010
0000
,
0001
0000
0010
0000
,
1000
0000
0100
0000
,
0010
0000
0001
0000
,
1000
0000
0100
0000
,
0001
0000
0010
0000
,
1000
0000
0100
1000
,
0100
0010
0001
1000
,
0001
0010
0100
0001
,
0010
1000
0001
0010
,
1000
0001
0010
0000
,
1000
0010
0001
0010
,
1000
0010
0001
0010
,
1000
0100
0001
0100
,
1000
0100
0001
0100
,
2000
3200
0320
0032
,
0203
0302
2003
3010
,
2002
0000
3003
0000;

//---------------dance-single - ANOTHER----------------
#NOTES:
     dance-single:
     ANOTHER:
     Medium:
     8:
     0.572,0.769,0.828,0.288,0.000,331.000,95.000,33.000,0.000,0.000:




0000
0000
0000
0000
,
1001
0000
1001
0000
,
1001
0000
1001
0000
,
0110
0000
0110
0000
,
0110
0000
0110
0000
,
1010
0000
1010
0000
,
0101
0000
0101
0000
,
0011
0000
0011
0000
,
1100
0000
1100
1001
,
0110
0000
0000
0000
,
1001
0000
0000
0000
,
0110
0000
0000
0000
,
1000
0100
0010
0001
,
0011
0000
0000
0000
,
1100
0000
0000
0000
,
1010
0000
0000
0000
,
0001
0010
0100
1000
,
0110
0000
0000
0000
,
0101
0000
0000
0000
,
1010
0000
0000
0000
,
0100
0010
1000
0001
,
1001
0000
0000
0000
,
0101
0000
0000
0000
,
0011
0000
0000
0000
,
0100
1000
0001
0010
,
1001
0100
0010
1000
,
0001
0010
0100
0001
,
1000
0100
0010
0001
,
0100
0010
0001
1000
,
0100
0001
0010
1000
,
0001
0100
1000
0001
,
0100
0010
0001
1000
,
0100
0010
1000
0001
,
1001
1001
1001
1001
,
0110
0110
0110
0110
,
1010
1010
1010
1010
,
0101
0101
0101
0101
,
0011
0011
0011
0011
,
1100
1100
1100
1100
,
0110
0110
1001
1001
,
0011
1100
1010
0101
,
2000
3002
0203
0320
,
2030
3200
0302
0023
,
2030
3200
0320
0032
,
2003
3200
2300
3002
,
0023
0230
0302
2003
,
3020
0230
2300
3200
,
0302
0023
2030
3200
,
0320
0032
2003
3001
,
1000
1000
1000
1000
,
0001
0001
0001
0001
,
1000
1000
1000
1000
,
0001
0001
0001
0001
,
0100
0100
0100
0100
,
0010
0010
0010
0010
,
0100
0100
0100
0100
,
0010
0010
0010
0010
,
1001
1001
1001
1001
,
1001
1001
1001
1001
,
0110
0110
0110
0110
,
0110
0110
0110
0110
,
1000
0100
0010
0001
,
0100
0001
1000
0010
,
0001
0100
0001
1000
,
0100
0010
0001
1000
,
2002
0000
0000
0000
,
3003
0000
0000
0000
,
1000
0100
0010
0001
,
1000
0100
0001
0010
,
1000
0100
0010
0001
,
1000
0100
0001
1000
,
0010
0001
0100
0010
,
0001
1000
0100
0001
,
0010
1000
0100
0001
,
0001
1000
0100
0010
,
0001
0010
0001
0000
1000
0100
1000
0000
,
0010
0100
0010
0000
1000
0001
1000
0000
,
0001
1000
0001
0000
0001
0010
0001
0000
,
1000
0100
1000
0000
0100
0010
0100
0000
,
1000
0001
0100
0000
0001
0010
1000
0000
,
0100
0001
1000
0000
0010
0100
1000
0000
,
0100
0010
0001
0000
0001
0010
0100
0000
,
1000
0100
0010
0000
1000
0001
0100
0000
,
1001
0000
0110
0000
,
1001
0000
0110
0000
,
1010
0000
0101
0000
,
1010
0000
0101
0000
,
0011
0000
1100
0000
,
0011
0000
1100
0000
,
1010
0000
0101
0000
,
1010
0000
0101
0000
,
1000
0100
0010
0001
,
1000
0100
0001
0100
,
0010
1000
0001
0100
,
0001
0100
0010
1000
,
0001
0100
1000
0010
,
1000
0100
0010
0001
,
0100
0010
0100
0001
,
1000
00;

//---------------dance-single - MANIAC----------------
#NOTES:
     dance-single:
     MANIAC:
     Hard:
     10:
     0.984,0.918,0.950,0.898,0.017,578.000,109.000,103.000,0.000,0.000:

0000
0000
0000
0000
,
1000
0000
0100
0000
0010
0001
0000
0010
,
0001
0000
0100
0000
0010
1000
0000
0010
,
1000
0000
0001
0000
0100
0010
0000
0100
,
0010
2000
0002
3003
,
1100
1100
1001
1001
,
0101
0101
1001
1001
,
1000
0010
1000
0000
0001
0100
0001
0000
,
1000
0010
0100
0001
0010
0100
1000
0001
,
2000
0000
0010
0000
3000
0100
0000
0100
,
0002
0000
0010
0000
0003
0100
0000
0100
,
2000
0000
0001
0000
3000
0001
0000
0001
,
1001
1100
1001
0101
,
0002
0000
0010
0000
0003
0100
0000
0100
,
2000
0000
0010
0000
3000
0100
0000
0100
,
0002
0000
1000
0000
0003
1000
0000
1000
,
1001
1100
1001
0101
,
0020
0000
0200
0000
0330
0001
0000
0001
,
0020
0000
0200
0000
0330
1000
0000
1000
,
0002
0000
0200
0000
0303
0010
0000
0010
,
0110
0101
1001
0011
,
0020
0000
0200
0000
0330
1000
0000
1000
,
0020
0000
0200
0000
0330
0001
0000
0001
,
2000
0000
0200
0000
3300
0010
0000
0010
,
0110
1100
1001
1010
,
1000
0100
1000
0200
0000
0310
0000
0010
,
0001
0100
0001
0200
0000
0310
0000
0010
,
1000
0001
0010
0200
0000
0310
0000
0010
,
0011
1001
1010
1001
,
0001
0100
0001
0200
0000
0310
0000
0010
,
1000
0100
1000
0200
0000
0310
0000
0010
,
0001
1000
0010
0200
0000
0310
0000
0010
,
1010
1001
0011
1001
,
1100
1100
1100
1100
,
0101
0101
0101
0101
,
0011
0011
0011
0011
,
1010
1010
1010
1010
,
0010
1000
0010
1000
0010
1000
0010
1000
,
0001
0100
0001
0100
0001
0100
0001
0100
,
0001
0010
0100
1000
0010
0100
0001
0010
,
0100
1000
0010
0100
0001
1000
0100
0010
,
0002
1000
0100
1003
,
0200
0000
0010
2300
0000
0010
3002
0000
,
2003
0001
0100
3001
,
0200
0000
0010
0302
0000
0010
2003
0000
,
3020
1000
0001
1030
,
0002
0000
0100
0023
0000
0001
0230
0000
,
0320
0001
1000
0031
,
2000
0000
0100
3020
0000
1000
0230
0000
,
0301
0000
0100
0001
0000
1000
0001
0000
,
1000
0010
0000
0100
0010
0000
1001
0000
,
1100
0000
0100
1000
0000
0001
1000
0000
,
0001
0010
0000
0100
0010
0000
1001
0000
,
0110
0000
0100
1000
0000
1000
0001
0000
,
0001
0010
0000
0010
0100
0000
1001
0000
,
0110
0000
0100
0001
0000
0001
1000
0000
,
1000
0010
0000
0010
0100
0000
1001
0000
,
1100
1100
0101
0101
,
1100
1100
0101
0101
,
1010
1010
0011
0011
,
1010
1010
0011
0011
,
0010
0001
0010
0001
0100
0000
1001
0000
,
0010
1000
0010
1000
0100
0000
1001
0000
,
1000
0100
0010
0001
0100
0010
1000
0001
,
0010
0100
1000
0001
0100
0010
1000
0000
,
2002
0000
0000
3003
,
2000
0010
3000
0020
0100
0030
0200
0001
,
0300
0002
1000
0000
0010
0000
1003
0000
,
0002
0010
0003
0020
0100
0030
0200
1000
,
0300
2000
0001
0000
0010
0000
3001
0000
,
0020
0100
0030
0200
0001
0300
0002
1000
,
0003
2000
0020
3000
0230
0000
0301
0000
,
0020
0100
0030
0200
1000
0300
2000
0001
,
3000
0002
0020
0003
0230
0000
1300
0000
,
2000
0001
3000
0002
0100
0003
0200
0010
,
0300
0020
2000
0030
0100
0000
3010
0000
,
0002
1000
0003
2000
0100
3000
0200
0010
,
0300
0020
0002
0030
0100
0000
0013
0000
,
0200
0010
0300
0020
0100
0030
0002
1000
,
0003
2000
0001
0000
0010
0000
3100
0000
,
0200
0010
0300
0020
0100
0030
2000
0001
,
3000
0002
1000
0000
0010
0000
0103
0000
,
0102
0000
0000
2000
0003
0000
3010
0100
,
0001
0010
0100
1100
,
2100
0000
0000
0002
3000
0000
0013
0100
,
1000
0010
0100
0101
,
0021
0000
0000
0200
0030
0000
1300
0010
,
0100
0001
1000
0110
,
1020
0000
0000
0200
0030
0000
0301
0010
,
0100
1000
0001
0110
,
0010
1000
0100
0020
0001
0000
0031
0100
,
0010
0110
1001
0110
,
0010
0001
0100
0020
1000
0000
1030
0100
,
0010
0110
1001
0110
,
0002
0100
1000
0013
,
2000
0000
0100
0000
0001
0000
3010
0200
,
0001
0300
0002
0010
0003
0020
0200
0030
,
1000
0300
2000
0010
3000
0010
0100
0000
,
1001
0000
1000
0001
1000
0000
0001
1000
,
0001
0110
1001
0110
,
1001
0000
0001
1000
0001
0000
1000
0001
,
1000
1001
0110
1001
,
0110
0000
0100
0010
1000
0000
0100
0010
,
0001
1001
0110
1001
,
0110
0000
0010
0100
0001
0000
0010
0100
,
1000
1100
1001
0101
,
1000
0100
0010
0001
1000
0100
0010
0001
,
1000
0101
0001
1100
,
0001
0100
0010
1000
0001
0100
0010
1000
,
0001
1100
1000
0101
,
1000
0100
1000
0100
0010
0001
0010
0001
,
1000
0010
1000
0010
0100
0001
0100
0001
,
1000
0010
0100
0001
0010
0100
1000
0001
,
0100
0010
1000
0001
1000
0100
0010
0001
,
2000
0000
0100
0000
0000
0010
0000
0000
0001
0000
0000
0010
0000
0000
0100
0000
,
3002
0000
1000
0000
0000
0010
0000
0000
0100
0000
0000
0010
0000
0000
1003
0000
,
2002
0000
0000
0000
,
3003
0000
0000
0000;
