#TITLE:Mr. Vain;
#SUBTITLE:;
#ARTIST:S3rl feat. Tamika;
#TITLETRANSLIT:;
#SUBTITLETRANSLIT:;
#ARTISTTRANSLIT:;
#CREDIT:;
#BANNER:../Banner.png;
#BACKGROUND:../BG.png;
#LYRICSPATH:;
#CDTITLE:../CDTitleRP.png;
#MUSIC:01 Mr Vain (feat. Tamika).ogg;
#OFFSET:-0.303;
#SAMPLESTART:34.568;
#SAMPLELENGTH:21.600;
#SELECTABLE:YES;
#BPMS:0.000=175.000;
#STOPS:;
#BGCHANGES:;
// cache tags:
#FIRSTBEAT:0.000;
#LASTBEAT:547.500;
#SONGFILENAME:Songs/Index Tesseract/Mr Vain - [rparty]/Mr. Vain.sm;
#HASMUSIC:1;
#HASBANNER:1;
#MUSICLENGTH:189.753;
// end cache tags

//---------------dance-single - ----------------
#NOTES:
     dance-single:
     :
     Challenge:
     13:
     1.000,1.000,0.448,0.769,0.854,1215.000,85.000,146.000,72.000,0.000:

0000
0000
0000
0000
,
0201
0000
0320
0000
2030
0000
3100
0010
0000
0100
0010
0000
0100
0000
1000
0000
,
0002
0000
0203
0000
0320
0000
1030
0100
0000
0010
0001
0000
1000
0000
0100
0000
,
0020
0000
0032
0000
0023
0000
0130
1000
0000
0001
0100
0000
0010
0000
1000
0000
,
0100
0000
1000
0000
0001
0000
0100
0001
0000
1000
0100
0000
0010
0000
0001
0000
,
0100
0000
0010
0000
1000
0000
0100
0010
0000
0100
0010
0000
0001
0000
0100
0000
,
0010
0000
1000
0000
0100
0000
0010
0001
0000
1000
0100
0000
0010
0000
0001
0000
,
0100
0100
0010
0010
1000
1000
0100
0100
,
0010
0010
0001
0001
0100
0100
0110
0000
,
1000
0000
0100
0000
0010
0000
0001
0100
0000
0010
1000
0000
0001
0000
0100
0000
,
0010
0000
1000
0000
0100
0000
0010
0001
0000
1000
0010
0000
0100
0000
0010
0000
,
1000
0000
0100
0000
0010
0000
0001
0100
0000
0010
1000
0000
0001
0000
0100
0000
,
0020
0000
1030
0000
0100
0000
0010
0001
0000
0001
0100
0000
0010
0000
1000
0000
,
0100
0000
0010
0000
0001
0000
0010
0100
1000
0001
0100
0000
0010
0000
1000
0000
,
0200
0000
0310
0000
0002
0000
0103
0010
0000
1000
0100
0000
0020
0000
0031
0000
,
0200
0000
0310
0000
1000
0000
0001
0100
0000
0010
1000
0000
0001
0000
0100
0000
,
0002
0103
0010
1000
0200
0310
0001
1000
,
0001
0010
0100
1000
0001
0100
0010
0100
0001
1000
0100
0010
0100
1000
0001
0100
,
0010
1000
0100
0010
0100
1000
0001
0100
0010
1000
0001
0010
0100
1000
0001
0100
,
0010
1000
0100
0010
0100
1000
0001
0100
0010
1000
0001
0010
0100
1000
0001
0100
,
0010
1000
0100
0010
0100
1000
0001
0010
0100
1000
0001
0100
0010
1000
0100
0010
,
0100
1000
0001
0100
0010
0100
0001
1000
0100
0010
0100
1000
0001
0010
0100
1000
,
0001
0100
0010
0100
0001
1000
0100
0010
0100
1000
0001
0100
0010
1000
0001
0010
,
0100
1000
0100
1000
0001
0100
0001
0100
0010
1000
0010
1000
0001
0100
0001
0100
,
0010
0000
1000
0001
0100
0000
0110
0000
,
2000
3200
2300
3200
2300
3002
0103
0002
,
1003
0200
0320
0230
2300
3010
0100
0001
,
2000
3020
0230
0302
0203
0310
1000
0100
,
1100
0001
0100
0010
1010
0100
0001
0100
,
0020
2030
3020
2030
3002
0203
0310
2000
,
3001
0200
0320
2030
3200
0300
0010
0001
,
0200
0320
0230
0301
2000
3000
0001
0000
,
1000
0100
0010
0100
1000
0001
0100
0010
1000
0000
0001
0000
0100
0000
0010
1000
,
0001
0100
0101
0010
1000
0010
1010
0100
,
0001
0100
1010
0100
0001
0100
1010
0100
,
0002
0000
0103
0000
0202
0303
0100
0000
0220
0000
0330
0000
1001
0000
1000
0000
,
0002
0000
0103
0000
0020
0000
2030
0000
3200
0000
0310
0000
0001
0000
1000
0001
,
0100
0000
0000
0000
0110
0000
0000
0000
0010
1000
0000
0010
0000
0000
1000
0000
,
0002
0003
1001
1000
0010
0000
1001
0000
,
0002
0003
0202
0303
0200
0300
0000
0010
,
2000
0000
3001
0100
0010
0000
0000
0000
,
2000
0000
0000
0000
3001
0100
0001
0000
2000
0000
0000
3020
0000
0000
0130
0000
,
0002
0000
0000
0000
1003
0010
0100
0001
1000
0100
0010
0100
1000
0000
0001
0100
,
0002
0000
1003
0000
0200
0000
0320
0000
0230
0000
0000
1300
0000
0000
1001
0000
,
0001
0000
0100
0000
0010
1000
0100
1000
0001
0010
0100
1000
0001
0000
0100
0010
,
1000
0000
0010
0000
0110
0000
0000
0000
1000
0000
0000
0001
0000
0000
0100
0000
,
0020
0000
0000
1030
0001
0100
0010
1000
0100
0010
0100
1000
0001
0000
1000
0010
,
0100
0000
0001
0000
1000
0000
0001
0100
0001
0000
0000
1000
0000
0000
1001
0000
,
0010
0000
0100
0010
0100
0000
0010
1000
0100
0010
0100
1000
0001
0000
1000
0010
,
0100
0000
0000
0000
0001
0100
0010
0000
2010
0000
0000
0010
0000
0000
3100
0000
,
1010
0000
0000
0000
0100
0010
0100
0001
1000
0100
0010
0100
0010
0000
0100
0010
,
0000
0000
0000
0000
1001
0000
0010
0000
0100
0000
0000
0001
0000
0000
0110
0000
,
0010
0000
0000
0100
0010
1000
0100
1000
0001
0010
0100
1000
0001
0000
1000
0010
,
0100
0000
0110
0000
1001
0000
0000
0000
0002
0000
0000
0103
0010
0000
1000
0000
,
1001
0000
0000
0000
0001
0010
0100
1000
0001
0100
0010
1000
0001
0000
1000
0001
,
0100
0001
0010
0100
1000
0001
0100
0010
1000
0100
0010
0100
1000
0001
0100
0010
,
0100
0000
0000
0000
,
0001
1000
0001
0000
1001
0000
1000
0000
0001
0100
0010
0000
1000
0100
0010
0000
,
0001
0010
0001
0000
0011
0000
0001
0000
1000
0000
0010
1000
0010
0000
0100
0000
,
0001
0010
0100
0000
0110
0000
0010
0000
0001
1000
0001
0000
0100
0010
0100
0000
,
0001
1000
0001
0000
1001
0000
0010
0000
0100
0000
0010
0100
0010
0000
0100
0000
,
0001
0100
0010
0000
0110
0000
0010
0000
1000
0001
0010
0100
1000
0001
0100
0000
,
0010
1000
0001
0000
1001
0000
0010
0100
0001
0000
1000
0100
0010
0000
0001
0000
,
1000
0010
0100
0001
1000
0000
0010
0000
0100
0001
0100
0000
0010
1000
0010
0000
,
0100
0000
0100
0000
0010
0000
0010
0000
0100
0010
0100
0000
0100
0010
0100
0000
,
0120
0M31
0020
0M31
2000
3M02
0023
0M31
,
2000
3M20
2030
3M02
2003
3M20
2030
3M01
,
0020
M130
0020
M031
0200
M302
0023
M130
,
0020
M032
0023
M230
0302
M203
0320
M130
,
0020
013M
0020
103M
0200
130M
0020
013M
,
0020
103M
0200
031M
0200
130M
0020
103M
,
0002
1M03
0020
1M30
0002
2M03
3020
1M30
,
0002
2M03
3020
2M30
3002
2M03
3010
1M00
,
0100
0000
0110
0000
0100
0010
0110
0000
,
1000
0001
0100
0010
1000
0010
1010
0000
,
0100
0000
1010
0000
0100
0001
1010
0000
,
1000
0100
0011
0100
1000
0001
1001
0000
,
1000
1000
0100
0100
0010
0010
0100
0100
,
0010
0100
0110
0010
0100
0010
0110
0000
,
1000
0100
0010
0100
1000
0001
0100
0010
1000
0100
0010
0100
1000
0001
0100
0010
,
1000
0100
0010
0100
0001
0100
0010
0000
,
2000
0000
3200
0000
0320
0000
0031
1000
0010
0100
0001
0000
1001
0000
2000
0000
,
3100
0000
0020
0000
0032
0000
0103
0010
1000
0001
1000
0000
1010
0000
0100
0000
,
0002
0000
0023
0000
0230
0000
1300
0001
0100
0010
1000
0000
0101
0000
0010
0000
,
2000
0000
3010
0000
0100
0000
0001
1000
0010
0100
0001
0000
1001
0000
0010
0000
,
0200
0000
0302
0000
0203
0000
0310
1000
0100
1000
0010
0000
0101
0000
0010
0000
,
1000
0000
0200
0000
0320
0000
0031
1000
0010
0100
0001
0000
1010
0000
1000
0000
,
0002
0000
0203
0000
0320
0000
1030
0100
0010
0100
1000
0000
1001
0000
0010
0000
,
4000
0000
0000
0000
3001
0100
0010
1000
0100
0010
0100
1000
0001
0000
0000
0000
,
0110
MMMM
1000
MMMM
0001
MMMM
0010
MMMM
,
0100
MMMM
1000
MMMM
0010
MMMM
0100
MMMM
,
0001
MMMM
0100
MMMM
0010
0000
1000
0001
,
0100
0000
0010
1000
0001
0000
0000
0000
,
0100
0000
0010
0100
0010
0000
0000
0000
,
1000
0000
0001
0100
0010
0000
0000
0000
,
1001
0000
1001
0000
1001
0000
1001
0100
,
0010
0000
0100
0010
0100
0000
0100
0000
,
0110
0100
0100
0100
,
0040
0030
0040
0030
0040
0030
0040
0030
,
1000
0100
0010
0100
1000
0001
0100
0010
1000
0100
0010
0100
1000
0001
0010
0100
,
1000
0001
0100
0010
0100
0001
1000
0100
0010
0100
1000
0001
0010
0100
1000
0100
,
0010
0100
1000
0010
0100
0001
1000
0100
0010
0100
1000
0001
0100
0010
1000
0100
,
0010
0100
1000
0001
0010
0100
1000
0001
0100
0010
0100
0001
1000
0100
0010
0100
,
1000
0001
0010
0100
1000
0001
0100
0010
1000
0100
0010
0100
1000
0001
0010
0100
,
1000
0000
0000
0000
,
2000
0000
0000
0000
3001
0100
0010
0000
2000
0000
0000
0010
0000
0000
3010
0000
,
0101
0000
0000
0000
0100
0010
0100
0001
1000
0100
0010
0100
1000
0000
0001
0100
,
0020
0000
0030
0000
0010
0000
1000
0000
0010
0000
0000
0100
0000
0000
0110
0000
,
0010
0000
0000
0000
0001
0100
0010
0100
0010
0100
0001
0100
0010
0000
0100
0000
,
0012
0003
1001
0000
0110
0000
0000
0000
0020
0000
0000
0100
0000
0000
0130
0000
,
0020
0000
0000
0000
1030
0100
0010
0100
1000
0001
0100
0010
0100
0000
0000
0000
,
0100
0000
0000
0000
0010
0000
0100
0010
0200
0000
0000
0010
0000
0000
0310
0000
,
1000
0000
0001
0100
0010
0000
1000
0100
0010
0100
1000
0001
0100
0000
0010
0000
,
1001
0000
1000
0000
0100
0010
0100
0000
1000
0000
0100
0010
0000
0010
0100
0000
,
1001
0000
0000
0000
0010
0100
0010
1000
0100
0010
0100
1000
0010
0000
0000
0000
,
0110
0000
0000
0000
0200
0000
0320
0000
0230
0000
0000
0310
0000
0000
0110
0000
,
1001
0000
0000
0000
1000
0100
0010
0100
1000
0001
0100
0010
0100
0000
0000
0000
,
0110
0000
1001
0000
0110
0000
0000
0000
0020
0000
0000
0100
0000
0000
0130
0000
,
0110
0000
0000
0000
1000
0100
0010
0100
1000
0001
0100
0010
1000
0000
0000
0000
,
0010
0100
0010
0100
0010
1000
0010
0100
0010
1000
0100
0010
0100
1000
0010
0100
,
0010
0010
0010
0010
,
1001
0000
1000
0000
0010
0000
0010
0000
0100
0000
0000
0100
0000
0000
0100
0000
,
0110
0000
0000
0000
1000
0001
1000
0001
1000
0001
1000
0001
1000
0000
0000
0000
,
0110
0000
0000
0000
0010
0100
0010
0000
0100
0000
0000
0100
0000
0000
0100
0000
,
0110
0000
0000
0000
1000
0001
1000
0001
1000
0001
1000
0001
1000
0000
0000
0000
,
1001
0000
0010
0000
1001
0000
0100
0000
0020
0000
0000
0100
0000
0000
0130
0000
,
0110
0000
0000
0000
1000
0001
1000
0001
1000
0001
1000
0001
0100
0000
0000
0000
,
0010
0000
0100
0000
0010
0100
0010
0000
0100
0000
0000
0100
0000
0000
0110
0000
,
0010
0000
0000
0000
1000
0100
0010
0100
1000
0001
0100
0010
1000
0000
0000
0000
,
1001
0000
0000
0000
0101
0000
0000
0000
0010
1000
0000
0010
0000
0000
0100
0000
,
0001
0000
1000
0010
1000
0000
0001
0100
,
1010
0000
0000
0000
1001
0000
0000
0000
0110
0000
0000
0010
0000
0000
0100
0000
,
0010
0000
0000
0000
1000
0100
0010
0100
1000
0001
0100
0010
1000
0000
0000
0000
,
1001
0000
0010
0000
0110
0000
0100
0010
0100
0010
0100
0010
0100
0010
0100
0010
,
0100
1000
0010
0100
0001
1000
0100
0010
0100
1000
0001
0010
0100
1000
0001
0100
,
0010
0000
1000
0000
0001
0000
0000
0010
,
0100
0000
0100
0010
0001
0000
0000
0000
;

//---------------dance-single - ----------------
#NOTES:
     dance-single:
     :
     Hard:
     11:
     0.754,1.000,0.743,0.126,0.232,833.000,141.000,24.000,128.000,2.000:
2001
0000
0000
0000
0000
0000
0000
3000
,
1111
0000
0000
0000
,
0000
0000
0000
0000
,
0000
0000
0000
0000
,
0000
0000
0000
0000
,
1000
0001
0100
0001
0010
0001
0100
0001
,
1000
0010
0100
0001
1000
0100
0010
0100
,
1000
0001
0010
0100
1000
0001
1000
0001
,
0100
0001
1000
0100
0010
0001
0100
0000
,
1000
0001
0100
0001
,
0010
0001
1000
0100
,
1000
0001
0010
0001
,
2000
3100
0002
0013
,
1000
0001
0100
0010
,
1000
0100
1000
0001
,
0010
0100
1000
0002
,
0103
2000
3010
0001
,
1001
1100
0101
1010
,
1100
0101
0011
1001
,
1010
1100
0011
0101
,
1001
0101
1010
1100
,
0001
0010
0001
0100
0001
0010
0001
0100
,
0010
1000
0100
1000
0010
0100
0010
1000
,
0101
1100
0101
1001
,
0000
0000
0000
0000
,
1000
0100
0010
0100
0010
0001
1000
0001
,
0010
0100
1000
0001
0100
1000
0001
0010
,
0001
0100
1000
0010
0001
0100
0001
0010
,
0200
1000
0301
0100
0020
1000
0130
0010
,
0001
1000
0100
1000
0001
0100
0001
1000
,
0100
1000
0010
0100
0001
0100
0001
0100
,
0001
1000
0100
1000
0010
0100
0020
1000
,
0130
0010
0200
1000
0301
0010
0100
0000
,
1100
0100
0110
0010
,
0011
0001
0101
0100
,
0110
0010
1010
1000
,
1001
0001
0101
0100
,
0110
0010
1010
1000
,
1100
0100
0110
0010
,
0011
0001
0101
0100
,
1100
0000
0000
0000
,
1000
0000
0100
0000
0001
0100
0001
0000
1000
0000
0100
0000
0010
0000
0001
0000
,
0010
0000
0001
0000
0100
0000
0010
0000
1000
0100
0010
0001
0010
0100
1000
0000
,
0001
0100
0001
0001
1000
0010
0100
0001
,
1000
0000
0100
0000
1000
0100
0010
0001
0010
0100
1000
0000
0001
0000
0100
0000
,
1100
0011
1100
0000
0101
0100
0001
1000
,
0100
0000
1000
0000
0010
0000
0100
0000
0001
1000
0010
0100
0001
0010
0100
1000
,
0100
0000
0010
0000
0001
1000
0010
0100
0001
0000
0100
0000
0001
0000
1000
0000
,
0100
0000
0010
0000
0001
0010
0100
1000
0001
0010
0100
1000
0001
0000
0000
0000
,
1001
0000
0000
0000
1000
0010
1000
0010
1000
0000
0000
0001
0000
0000
0001
0000
,
1000
0000
0100
0000
0010
0000
0001
0100
,
1000
0000
0000
0000
0010
0000
0010
0000
0100
0000
0000
0100
0000
0000
1000
0000
,
0000
0001
0000
0001
0000
0001
1000
0010
,
0100
0000
0101
0000
1100
0000
0000
0000
0101
0000
0000
1000
0000
0000
1000
0000
,
0010
0110
0101
0010
,
1000
0000
0001
0000
0100
0010
0100
0001
0100
0000
0010
0000
1000
0000
0001
0000
,
2000
0000
3002
0000
,
0003
1000
0000
0001
0000
0100
0000
0010
,
0000
1000
0000
0100
0000
1000
0000
0001
,
0000
0100
0000
0001
0000
0001
0000
1000
,
0000
0100
0000
1000
0000
0100
0000
0010
,
0000
0001
0000
0100
0000
0001
0000
1000
,
0000
0100
0000
1000
0000
0010
0000
0100
,
0000
0001
0000
1000
0000
0100
0000
0010
,
0000
0001
0000
0100
0000
1000
0000
0010
,
1001
0000
1001
0000
1100
0100
0110
0000
,
0101
0100
0110
0010
1010
1000
1100
0000
,
1001
0000
1001
0000
1010
1000
1100
0000
,
0101
0001
0011
0010
0110
0100
1100
0000
,
0101
0001
1001
1000
1100
0100
0110
0010
,
0011
0001
0101
0100
0110
0010
1010
0000
,
1100
0000
0101
0000
1001
1000
1001
0000
,
1010
1000
1010
0010
0110
0100
0110
0000
,
1000
0100
0010
0001
0100
0001
1000
0100
,
0010
0001
0010
0100
1000
0001
0100
0001
,
0010
0100
0100
1000
0010
0100
0001
1000
,
0100
0010
0001
0100
0001
0100
0001
0010
,
1000
0010
1000
0100
1000
0010
0100
0001
,
0010
1000
0100
0001
0100
1000
0010
0001
,
1000
0001
0100
0010
1000
0100
0010
0001
,
0000
0000
0000
1001
,
1100
0001
0100
0001
,
1000
0100
0010
0100
,
1000
0001
0100
0001
,
2000
3100
0002
0013
,
1000
0001
0100
0001
,
1000
0100
0010
0100
,
1000
0001
0010
0200
,
1300
0020
0031
1000
,
0101
MMMM
0001
MMMM
0001
MMMM
0001
MMMM
,
0001
MMMM
0001
MMMM
0001
MMMM
0001
MMMM
,
0001
MMMM
0001
MMMM
0001
MMMM
0001
MMMM
,
0001
MMMM
0001
MMMM
0001
MMMM
0001
MMMM
,
0001
MMMM
0100
MMMM
1000
MMMM
0010
MMMM
,
0100
MMMM
1000
MMMM
0010
MMMM
0001
MMMM
,
1000
MMMM
0100
MMMM
0010
MMMM
0100
MMMM
,
0001
MMMM
1000
MMMM
0100
MMMM
0010
MMMM
,
1001
1000
1000
0001
,
0001
1000
1000
0001
,
0001
0000
0000
0000
1000
0100
1000
0000
0001
0100
0001
0000
1000
0100
1000
0000
,
0001
0100
0001
0000
1000
0100
1000
0000
0001
0100
0001
0000
1000
0100
1000
0000
,
0001
1000
0001
1000
0001
1000
0001
1000
0001
1000
0001
1000
0001
1000
0001
1000
,
0001
1000
0001
1000
0001
1000
0001
1000
0001
1000
0001
1000
0001
1000
0001
1000
,
0001
1000
0001
1000
0001
1000
0001
1000
0001
1000
0001
1000
0001
1000
0001
1000
,
0001
0000
0000
0000
0000
0000
0100
1001
,
1111
1100
0101
0011
,
1001
1010
0101
0011
,
1010
1100
0101
1001
,
0011
1010
1100
0101
,
0011
0110
1001
0000
1010
0000
1100
0000
,
0011
0110
1001
1100
,
0011
0101
1010
1001
,
1000
0100
1000
0100
1000
0100
0010
0001
0010
0100
1000
0001
0100
0000
0000
0000
,
1001
0000
0000
0000
0001
1000
0001
1000
0001
0000
0000
0001
0100
0000
0100
0000
,
0110
0000
0000
0000
1001
0000
0000
0000
1000
0100
0010
0001
1000
0100
0010
0001
,
1000
0000
0000
0000
0101
0000
0001
0000
1100
0000
0000
1000
0000
0000
0001
0000
,
0100
0000
0010
0000
1000
0100
0010
0001
0010
0100
1000
0000
0001
0000
0100
0000
,
0000
0000
0011
0000
1100
0000
0000
0000
1001
0000
1000
0010
0000
0000
0010
0000
,
0110
0000
0101
0000
0110
0000
0001
0100
,
1000
0000
0001
0000
1000
0100
0010
0001
1000
0000
0000
1000
0000
0000
1000
0000
,
1001
0000
1001
0000
1001
0000
1001
0110
,
1001
0010
1000
0100
0010
0001
0010
0100
,
1000
0001
0100
0001
1000
0100
0010
0001
,
0010
0100
1000
0001
0100
0001
1000
0100
,
0020
0001
0130
0010
0200
0001
1300
0010
,
0101
0010
0100
1000
0001
0100
0001
1000
,
0100
0010
0001
0010
0100
1000
0001
0100
,
0001
1000
0100
0010
0001
0010
0200
1000
,
0310
0100
0020
0100
1030
0001
0100
0001
,
1001
0000
0000
0000
0001
0010
0001
0000
1000
0000
0001
1000
0000
1000
0100
0000
,
0011
0000
1010
0010
0110
0000
0101
1000
,
1010
0000
0000
0000
0101
0000
0001
0000
0011
0000
0000
0001
1000
0000
0001
0000
,
0101
0000
0100
0000
0001
0010
0100
1000
0100
0010
0001
0100
0010
0000
0100
0000
,
0010
1000
0010
0000
0100
0000
0001
0000
0100
0001
0100
0000
0010
0000
1000
0000
,
0001
0010
0001
0000
1000
0100
1000
0000
1001
0000
0010
0000
0010
0000
0001
0000
,
1000
0000
0100
0000
0010
0000
0000
0001
,
2000
3200
0302
0023
2030
0000
0000
3000
;
