#TITLE:Miota Nim Jak Szatan;
#SUBTITLE:;
#ARTIST:Loffciamcore;
#TITLETRANSLIT:;
#SUBTITLETRANSLIT:;
#ARTISTTRANSLIT:;
#CREDIT:;
#BANNER:../Jawn - ban.png;
#BACKGROUND:../Jawn - bg.png;
#LYRICSPATH:;
#CDTITLE:;
#MUSIC:Miota Nim Jak Szatan.ogg;
#OFFSET:0.009;
#SAMPLESTART:30.502;
#SAMPLELENGTH:12.000;
#SELECTABLE:YES;
#BPMS:0.000=259.953;
#STOPS:;
#BGCHANGES:;
// cache tags:
#FIRSTBEAT:0.000;
#LASTBEAT:562.000;
#SONGFILENAME:Songs/Jimmy Jawns/Miota Nim Jak Szatan - [Aoreo]/Miota Nim Jak Szatan.sm;
#HASMUSIC:1;
#HASBANNER:1;
#MUSICLENGTH:131.538;
// end cache tags

//---------------dance-single - J. Nero----------------
#NOTES:
     dance-single:
     J. Nero:
     Challenge:
     17:
     1.000,1.000,0.076,0.190,1.000,1279.000,10.000,25.000,4.000,1.000:
1000
0010
1000
0001
0100
0100
0100
0001
,
1000
0001
0100
0100
1000
0001
0100
0100
,
1000
0010
0100
0001
1000
0010
0100
0100
,
1000
0001
0100
0100
1000
0001
0100
0100
,
1000
0001
0010
0001
0100
0100
0100
0001
,
1000
0010
0100
0100
1000
0001
0100
0100
,
2000
0000
3000
0000
0002
0003
0020
0030
,
0200
0000
0000
0000
4300
3000
0004
0003
,
1000
0100
0010
0100
1000
0001
0100
0010
,
0100
0000
0001
0000
1000
0000
0100
0000
1000
0001
0100
0001
1000
0100
0010
0001
,
1000
0001
0100
0010
0100
0001
1000
0001
,
0010
0000
0100
0000
1000
0000
0010
0000
0100
0000
0001
1000
0001
0000
1000
0100
,
0010
0100
1000
0001
0100
0010
0100
0001
,
1000
0000
0000
0000
0001
0000
0000
0000
1000
0100
1000
0001
0100
0010
0100
0001
,
1000
0001
0010
0100
1000
0001
0100
0010
0100
0000
0001
0000
0010
0000
0100
0000
,
1000
0000
0001
0000
0100
0000
0010
0000
1000
0100
1000
0010
0100
0001
0010
0100
,
1000
0001
0010
0100
0010
0001
1000
0010
,
0100
0000
0001
0000
0010
0000
0001
0000
1000
0010
0100
0001
1000
0100
0010
0100
,
1000
0001
0100
0010
1000
0100
0010
0100
,
1000
0000
0001
0000
0100
0000
0010
0000
1000
0100
1000
0001
0010
0100
1000
0000
,
0001
1000
0001
0100
0010
0100
0001
1000
,
0100
0000
1000
0000
0001
0000
0100
0000
0010
1000
0010
0100
0001
1000
0100
0010
,
0002
0000
0000
0000
0003
0000
0000
0000
1000
0100
1000
0010
0100
0001
0010
0100
,
1000
0001
1000
0010
0100
0000
0000
0000
0001
0000
0000
0000
1000
0000
0000
0000
,
0001
0100
0001
1000
0010
0100
0010
1000
0001
1000
0100
0010
0001
1000
0100
1000
,
0001
0100
0010
0100
0001
1000
0001
0010
0100
1000
0001
1000
0010
0100
0001
1000
,
0100
0010
0100
1000
0001
0100
0010
0100
0001
1000
0100
0010
0001
1000
0100
1000
,
0001
0100
0010
1000
0001
1000
0100
0010
0001
0000
1000
0000
0040
0030
0000
0000
,
0100
0001
1000
0001
0010
0100
1000
0001
1000
0010
0100
0010
1000
0001
0100
0001
,
1000
0100
1000
0001
0010
0100
1000
0001
0100
0010
1000
0100
1000
0001
0010
0001
,
0100
0010
0100
0001
1000
0100
0010
0001
1000
0001
0100
0010
0100
0001
1000
0100
,
1000
0000
0000
0000
,
0001
0100
0001
1000
0100
0010
0001
1000
0100
1000
0001
0100
0001
1000
0001
0100
,
0010
0100
0001
1000
0100
0010
0100
1000
0001
0100
0001
1000
0010
0100
0001
1000
,
0001
0100
0001
1000
0100
0010
0001
0000
,
0000
0000
0000
0000
0000
0000
0000
0000
1000
0100
1000
0001
0200
0000
0300
0000
,
0001
0100
0001
1000
0100
0010
0100
1000
0001
0100
0010
0100
0001
1000
0100
0010
,
0001
1000
0001
0100
0010
0100
0001
1000
0100
0010
0001
1000
0010
1000
0001
0100
,
0001
0000
1000
0000
0100
0000
1000
0000
0001
0010
0100
1000
0040
0000
0030
0000
,
2000
0000
0000
3000
0002
0003
0040
0030
,
0110
0000
0100
0000
1100
0000
1000
0001
,
0100
0001
1000
0010
0100
0000
0001
0010
,
0100
0000
1000
0000
1001
0000
0001
0100
,
0010
0100
0001
0000
1000
0100
0010
0100
,
1000
0000
0001
0000
0101
0000
0100
0001
,
0010
0000
0100
0000
1000
0000
0000
0000
0001
0000
0000
0000
1000
0100
1000
0001
,
0100
0000
0001
0000
0011
0000
0010
0100
,
1000
0000
0001
0000
0100
0000
0000
0000
0001
1000
0001
0100
0010
1000
0001
0010
,
0100
0000
1000
0000
1001
0000
0001
0100
,
0010
1000
0100
0010
0001
0000
1000
0010
,
0100
0000
0001
0000
0011
0000
0010
0100
,
1000
0001
0100
0000
0001
0100
0010
0100
,
0001
0000
1000
0000
1100
0000
0100
1000
,
0010
0000
0100
0000
0001
0000
0100
0000
0010
0000
0000
0000
1000
0100
0010
0001
,
1000
0000
0001
0000
0101
0000
0100
0001
,
0010
0100
1000
0001
0400
0000
0300
0000
0020
0000
0030
0000
2000
0000
3000
0000
,
0001
0000
0100
0000
0001
0000
1000
0000
0100
0000
0010
0000
0001
0000
1000
0010
,
0100
0000
0001
0000
0010
0000
0001
0000
1000
0000
0100
0000
1000
0000
0001
0010
,
0100
0000
1000
0000
0001
0000
0100
0000
0010
0000
0100
0000
0001
0000
1000
0100
,
0010
0000
0100
0000
1000
0000
0001
0000
0100
0001
1000
0100
0040
0000
0030
0000
,
0001
1000
0100
1000
0010
0100
0001
1000
0001
0000
0100
0000
0010
0000
0100
0001
,
1000
0000
0100
0000
0010
0000
0100
0000
1000
0000
0001
0000
0100
0000
0010
1000
,
0100
0000
1000
0000
0001
0000
0100
0000
0010
0000
1000
0000
0010
0000
0100
0001
,
2000
0000
0000
0000
0000
0000
0000
3000
0001
0100
0001
1000
0400
0000
0300
0000
,
0010
0000
0100
0000
1000
0000
0001
0000
0100
0000
0010
0000
1000
0000
0100
1000
,
0001
0000
0100
0000
0010
0000
0100
0000
0001
0000
0010
0000
0100
0000
1000
0001
,
0100
0000
0010
0000
0100
0000
0001
0000
1000
0000
0001
0000
0010
0000
0100
1000
,
0001
0000
0100
0000
0010
0000
0100
0000
0001
1000
0001
0010
0100
1000
0010
0100
,
0001
0000
1000
0000
0100
0000
0010
0000
0100
0000
1000
0000
0001
0000
0100
0001
,
1000
0000
0100
0000
1000
0000
0001
0000
0100
0001
1000
0001
0010
0100
1000
0001
,
4000
0000
3000
0000
0010
0000
0100
0000
0004
0000
0003
0000
0010
0100
1000
0001
,
1000
0010
0100
0001
1000
0100
0010
0001
,
1000
0100
1000
0001
0100
0100
0100
0001
,
1000
0001
0100
0100
1000
0001
0100
0100
,
1000
0100
0010
0100
1000
0001
0100
0100
,
1000
0010
0100
0100
1000
0001
0100
0100
,
1000
0001
1000
0001
0100
0100
0100
0001
,
1000
0010
0100
0100
1000
0001
0100
0100
,
1000
0100
0010
0100
1000
0001
0100
0100
,
1000
0001
0100
0100
1000
0001
0100
0100
,
1000
0001
0000
0010
0100
1000
0000
0001
,
0000
0001
0000
1000
0010
0100
0000
0001
,
1000
0000
0100
0000
0000
0000
1000
0000
0010
0000
0100
0000
0001
1000
0001
0000
,
1000
0000
0100
0000
0000
0000
1000
0000
0001
0100
0001
1000
0100
0010
0100
1000
,
0001
0100
0000
0001
1000
0100
0000
1000
,
0000
1000
0000
0010
0100
0001
0000
1000
,
0100
0000
0010
0000
0000
0000
0001
0000
1000
0000
0100
0000
1000
0001
1000
0000
,
0002
0003
0000
0000
0020
0030
0000
0000
0100
1000
0001
0100
0040
0000
0030
0000
,
1000
0100
0010
0100
1000
0001
0100
0010
,
0100
0000
0001
0000
1000
0000
0100
0000
0010
0001
1000
0010
1000
0001
0100
0001
,
1000
0000
0001
0000
0010
0000
0100
0000
1000
0000
0001
0000
0010
0100
1000
0000
,
0001
0000
0100
0000
0010
0000
0100
0000
0001
1000
0100
1000
0001
0100
0010
0100
,
0001
0000
1000
0000
0100
0000
0010
0000
0100
0000
1000
0000
0001
0000
0100
0010
,
0100
0000
0001
0000
0010
0000
0100
0000
1000
0100
1000
0001
0100
0010
0100
0001
,
1000
0000
0100
0000
0010
0000
0100
0000
1000
0000
0001
0000
0100
0010
1000
0100
,
0010
0000
0001
0000
0100
0000
0010
0000
0100
0001
1000
0001
0010
0100
1000
0001
,
1000
0000
0010
0000
0100
0000
0001
0000
1000
0000
0100
0000
0010
0000
0100
1000
,
0001
0000
0100
0000
0010
0000
1000
0000
0100
1000
0001
0100
0001
0010
0100
1000
,
0001
0000
0100
0000
0010
0000
0100
0000
0001
0000
1000
0000
0100
1000
0001
0000
,
0100
0000
0010
0000
0100
0000
0001
0000
1000
0100
1000
0001
0010
0100
1000
0001
,
0100
0000
0010
0000
0100
0000
0001
0000
1000
0000
0001
0000
0010
0000
0100
1000
,
0001
0000
0100
0000
0010
0000
0100
0000
0001
1000
0100
1000
0001
0010
0100
0000
,
1000
0000
0001
0000
0100
0000
0010
0000
0100
0000
0001
0000
1000
0001
0010
0100
,
2000
0000
0000
0000
0000
0000
0000
0000
3002
0203
0320
2030
3002
0000
0003
0000
,
1000
0100
0010
0100
1000
0001
0100
0001
,
1000
0000
0010
0000
0100
0000
0001
0000
1000
0010
1000
0001
0100
0001
1000
0100
,
0010
0001
1000
0001
0100
0010
0100
0001
1000
0000
0001
0000
0010
0000
0100
0000
,
1000
0000
0001
0000
0100
0000
0010
0000
0100
0001
1000
0100
0010
0000
0100
0000
,
1000
0010
0100
0010
1000
0001
0100
0001
,
1000
0000
0000
0000
0001
0000
0000
0000
1000
0100
1000
0001
0100
0010
0100
0001
,
0010
0100
1000
0001
0400
0000
0300
0000
0001
0000
1000
0000
0100
0000
1000
0000
,
0010
0000
0100
0000
0001
0000
1000
0000
0001
0100
0010
0100
0001
1000
0100
0010
,
0001
1000
0010
0100
0010
1000
0100
0010
,
0001
0000
1000
0000
0001
0000
0100
0000
0010
1000
0010
0100
0001
1000
0001
0010
,
0100
1000
0001
0100
0010
0100
0001
1000
,
0100
0000
0010
0000
0001
0000
1000
0000
0010
0100
0010
1000
0004
0003
0400
0300
,
0001
0010
0100
1000
0001
0100
0010
0100
,
0001
0000
1000
0000
0100
0000
1000
0000
0001
0100
0001
1000
0100
0010
0001
1000
,
0002
0000
0003
0000
0000
0000
0000
0000
1000
0010
1000
0001
0100
0001
1000
0100
,
0010
0100
1000
0001
0400
0300
0000
0000
0001
0000
0000
0000
1000
0000
0000
0000
,
0001
0100
0001
1000
0100
0010
0100
1000
0001
0100
0010
0100
0001
1000
0100
0010
,
0001
1000
0001
0100
0010
0100
0001
1000
0100
0010
0100
1000
0010
0100
0001
1000
,
0001
0010
0100
1000
0010
0100
0001
1000
0001
0010
0100
1000
0001
0100
0001
1000
,
0001
0010
0100
1000
0001
0100
0010
1000
0001
0000
0100
0000
0010
0000
0000
0000
,
1000
0100
0010
0100
1000
0001
0100
0010
0100
0001
1000
0100
0010
0001
1000
0001
,
0100
0010
0100
0001
1000
0001
0010
0100
1000
0010
0100
0001
0010
0001
1000
0100
,
0010
0001
1000
0001
0100
0010
0100
0001
1000
0001
0010
0100
1000
0001
0100
0001
,
4000
0000
0000
0000
0000
0000
0000
3000
,
0001
0100
0010
1000
0001
1000
0010
0100
0001
1000
0100
1000
0001
0010
0100
1000
,
0001
1000
0010
0100
0001
1000
0100
0010
0100
1000
0001
0100
0004
0003
0000
0000
,
1000
0000
0000
0100
0000
0000
1000
0000
0000
0010
0000
0000
0100
0000
0000
0001
0000
0000
0010
0000
0000
0100
0000
0000
1000
0000
0000
0000
0001
0000
0000
0000
0010
0000
0000
0000
0100
0000
0000
0000
1000
0000
0000
0000
0010
0000
0000
0000
,
0100
0000
0000
0000
0001
0000
0000
0000
1000
0000
0000
0000
0100
0000
0000
0000
0010
0000
0000
0000
0001
0000
0000
0000
1000
0000
0000
0001
0000
0000
0100
0000
0000
0010
0000
0000
0100
0000
0000
0001
0000
0000
1000
0000
0000
0001
0000
0000
,
0010
0100
1000
0001
0100
0001
1000
0010
0100
0010
1000
0001
0100
0001
1000
0100
,
0010
0001
1000
0100
1000
0001
0100
0010
0100
0001
0010
0100
1000
0001
0100
0001
,
1000
0000
0000
0000
,
0002
0000
0023
0230
,
2302
0000
0000
0000
,
3003
0000
0000
0000
,
0000
0000
0000
0000
,
0000
0000
0000
0000
,
0000
0000
MMMM
0000
;
