#TITLE:My Spirit Will Go On;
#SUBTITLE:;
#ARTIST:Unknown artist;
#TITLETRANSLIT:;
#SUBTITLETRANSLIT:;
#ARTISTTRANSLIT:;
#CREDIT:;
#BANNER:;
#BACKGROUND:;
#LYRICSPATH:;
#CDTITLE:;
#MUSIC:My Spirit Will Go On.mp3;
#OFFSET:0.000;
#SAMPLESTART:100.000;
#SAMPLELENGTH:12.000;
#SELECTABLE:YES;
#BPMS:0.000=60.000,7.000=449.998,315.000=419.999;
#STOPS:;
#BGCHANGES:;
// cache tags:
#FIRSTBEAT:7.000;
#LASTBEAT:478.000;
#SONGFILENAME:Songs/My Creations/My Spirit Will Go On/My Spirit Will Go On.sm;
#HASMUSIC:1;
#HASBANNER:0;
#MUSICLENGTH:478.328;
// end cache tags

//---------------dance-single - ----------------
#NOTES:
     dance-single:
     :
     Easy:
     1:
     0.000,0.000,0.000,0.000,0.000,0.000,0.000,0.000,0.000,0.000:
0000
0000
0000
0000
;

//---------------dance-single - ----------------
#NOTES:
     dance-single:
     :
     Challenge:
     1:
     0.218,0.212,0.111,0.163,0.000,599.000,53.000,78.000,0.000,0.000:
0000
0000
0000
0000
,
0000
0000
0000
1000
,
0010
0100
0001
0000
,
0010
0100
1000
0001
,
0100
0010
0100
0001
,
1000
0100
0010
1000
,
0010
0100
0100
0001
,
0010
0001
0100
0010
,
1000
0010
0010
1000
,
0001
0100
0001
0010
,
1000
0010
0100
0001
,
0100
1000
0001
0100
,
0001
0100
1000
0010
,
0010
0100
0001
1000
,
0010
0100
1000
0100
,
0010
0001
1000
0100
,
0010
0001
0001
0010
,
0100
1000
0010
0100
,
0010
0100
0010
0100
,
1000
0100
0010
0001
,
1000
0100
0010
0001
,
0010
0100
1000
0001
,
0010
0001
0010
1000
,
0100
0010
0001
0100
,
0010
0001
0100
0010
,
0100
1000
0001
1000
,
0001
0010
0100
0010
,
0100
0100
0010
0100
,
0010
1000
0001
0100
,
0010
0001
1000
0010
,
0100
0001
1000
0010
,
0100
0100
0010
1000
,
0001
0010
0100
0001
,
0100
0010
0001
0010
,
0100
1000
0001
1000
,
0100
0010
0001
0100
,
1000
0001
0010
1000
,
0010
0010
0001
0010
,
1100
1100
1100
1100
,
1100
0000
0000
0011
,
0000
1100
1100
1100
,
1100
1100
0000
0000
,
0011
0000
1100
1100
,
1100
1100
1100
0000
,
0011
0000
0000
1100
,
1100
1100
1100
1100
,
0000
0011
0000
0000
,
0110
0110
0110
0110
,
0110
0000
1100
0000
,
0000
0011
0011
0011
,
0011
0011
0000
1100
,
0000
0000
0110
0110
,
0110
0110
0110
0000
,
0000
1100
0000
0000
,
0110
0110
0110
0110
,
0110
0000
1100
0000
,
2000
3200
0320
0032
,
0023
0230
0302
2003
,
3002
0203
0320
2030
,
3200
0302
0023
0230
,
2300
3020
0230
2300
,
3002
0203
0302
0003
,
1000
0102
0203
0320
,
0030
1002
0203
0320
,
2030
3020
2030
3002
,
0203
0302
2003
3020
,
0230
0302
0203
0320
,
0030
1000
0201
0300
,
0001
1000
0010
0102
,
0203
0320
2030
3002
,
0203
0320
2030
3002
,
2003
3200
0302
0203
,
0320
0030
2000
3020
,
0230
0300
0002
0203
,
0320
0030
1200
0302
,
0023
2030
3020
0230
,
0302
2003
3200
0320
,
2030
3002
0023
2030
,
3002
0000
0203
0000
0300
0000
1000
0100
,
0010
0001
0010
0100
1000
0100
0010
0001
,
0010
0100
1000
0100
0010
0001
0010
0100
,
0010
0001
0010
0100
1000
0100
1000
0010
,
0001
0010
0001
0100
1000
0010
0100
0001
,
1000
0010
0100
0001
1000
0100
0010
1000
,
0001
0100
0010
1000
0001
1000
0001
0100
,
0010
0010
0100
0001
0010
0100
1000
0100
,
1000
0100
0010
0001
0010
0001
0010
1000
,
0001
0100
0010
1000
0100
0010
0001
1000
,
0100
0010
0001
0010
0100
1000
0100
0010
,
0001
0010
0100
1000
0010
0100
0010
0001
,
1000
0100
0010
0100
0001
1000
0100
0010
,
0100
0010
0001
1000
0100
0010
0001
0010
,
0100
0010
0100
1000
0100
0010
0100
0010
,
0001
0010
0100
1000
0010
0100
0010
0100
,
1000
0100
0010
0001
0010
0001
0010
1000
,
0000
0100
0010
0001
0010
0001
0010
0100
,
1000
0100
1000
0100
0010
0001
0010
0001
,
0010
0100
0010
0100
0010
0001
0010
0100
,
1000
0100
1000
0100
0010
0001
0010
0100
,
1000
0100
1000
0100
0010
0100
0010
0100
,
1000
0100
1000
0100
0010
0001
0010
0100
,
1000
0100
1000
0100
0010
0100
1000
0100
,
0010
0001
0010
0100
0010
0001
0010
0100
,
1000
0100
0010
0001
0010
0001
0010
0001
,
0010
0010
0100
1000
0100
0010
0100
1000
,
0100
0010
0001
0010
0100
0010
0100
0001
,
0010
0100
1000
0100
0010
0001
0010
0100
,
0010
0100
1000
0100
0010
1000
0100
0010
,
0001
0010
0000
0100
0001
0010
0100
0001
,
0010
0001
0010
1000
0100
0010
1000
0100
,
0010
0000
0001
0010
0001
0010
1000
0100
,
0010
0001
1000
0100
0010
0001
0001
0010
,
0100
1000
0010
0100
0010
0100
0010
0001
,
0010
0100
0001
0010
0100
0010
0100
0010
,
0100
1000
0100
0010
0001
1000
0100
0010
,
0001
1000
0100
0010
0001
0010
0001
0010
,
0001
0010
0100
1000
0100
0010
0001
0010
,
0100
1000
0001
0010
0100
0001
0010
0100
,
1000
0001
0010
0100
0001
0010
0100
0010
,
0100
1000
0100
1000
0100
0000
0000
0000
;

//---------------dance-single - Copied from----------------
#NOTES:
     dance-single:
     Copied from:
     Edit:
     1:
     0.022,0.023,0.010,0.000,0.000,68.000,5.000,0.000,0.000,0.000:
0000
0000
0000
0000
,
0000
0000
0000
1000
,
0100
0010
0001
1000
,
0100
0010
0001
0010
,
0100
1000
0100
0010
,
0001
0010
0100
1000
,
0100
0010
0001
0010
,
0100
1000
0100
0010
,
0001
0010
0100
1000
,
0100
0010
0001
0010
,
0100
1000
0100
0010
,
0001
0010
0100
1000
,
0100
0010
0001
0010
,
0100
1000
0100
0010
,
0001
0010
0100
1000
,
0110
0010
0001
0110
,
0100
1000
0110
0010
,
0001
0110
0100
1000
,
0110
0010
0001
0000
;
