#TITLE:La Di Da;
#SUBTITLE:;
#ARTIST:Baracuda feat. Nightcore;
#TITLETRANSLIT:;
#SUBTITLETRANSLIT:;
#ARTISTTRANSLIT:;
#CREDIT:owenviau1;
#BANNER:../owenviau1 Simfiles 5-bn.png;
#BACKGROUND:../owenviau1 Simfiles 5-bg.png;
#LYRICSPATH:;
#CDTITLE:../ov1_title.png;
#MUSIC:Nightcore - La Di Da.mp3;
#OFFSET:-0.719;
#SAMPLESTART:30.500;
#SAMPLELENGTH:29.999;
#SELECTABLE:YES;
#DISPLAYBPM:162.470;
#BPMS:0.000=162.501,1.000=162.491,2.000=162.481,3.000=162.471,61.000=162.481,62.000=162.461,63.000=162.471,64.000=162.481,65.000=162.471,68.000=162.481,69.000=162.471,72.000=162.481,73.000=162.471,81.000=165.904,82.000=162.471,85.000=162.481,86.000=162.471,122.000=162.481,123.000=162.471,126.000=162.461,127.000=162.471,128.000=162.481,129.000=162.471,136.000=162.481,137.000=162.471,144.000=162.481,145.000=162.471,185.000=162.481,186.000=162.471,193.000=162.481,194.000=162.471,201.000=162.481,202.000=162.471,244.000=162.481,245.000=162.471,252.000=162.481,253.000=162.471,255.000=162.461,256.000=162.471,257.000=162.481,258.000=162.471,273.000=162.481,274.000=162.471,289.000=162.481,290.000=162.471,311.000=162.481,312.000=162.471,327.000=162.481,328.000=162.471,343.000=162.481,344.000=162.471,370.000=162.481,371.000=162.471,386.000=162.481,387.000=162.471,402.000=162.481,403.000=162.471;
#STOPS:;
#BGCHANGES:;
// cache tags:
#FIRSTBEAT:16.500;
#LASTBEAT:410.000;
#SONGFILENAME:Songs/owenviau1 Simfiles 5/La Di Da - [owenviau1] v1.3/La Di Da.sm;
#HASMUSIC:1;
#HASBANNER:1;
#MUSICLENGTH:152.215;
// end cache tags

//---------------dance-single - ----------------
#NOTES:
     dance-single:
     :
     Hard:
     8:
     0.692,0.673,0.013,0.493,0.033,660.000,2.000,75.000,14.000,0.000:
0000
0000
0000
0000
,
0000
0000
0000
0000
,
0000
0000
0000
0000
,
0000
0000
0000
0000
,
0000
0002
2003
3200
0320
0030
0020
0030
,
0002
0003
2000
3200
0300
0020
0000
0030
,
M000
0002
0023
0230
2300
3000
2000
3000
,
0020
0000
0030
0000
0200
0000
0302
0000
0000
0000
0003
0000
0000
0000
0000
00M0
,
0M00
M00M
0020
0000
0230
0000
2300
0000
3002
0000
0003
0000
0002
0000
0003
0000
,
0200
0300
0020
2030
3000
2000
3000
0002
,
0003
0200
0000
0300
0000
0000
0020
0030
,
0200
0000
0000
0000
0300
0000
0000
0000
2000
0000
0000
0000
3002
0000
0000
0000
0000
0000
0000
0000
0003
0000
0000
0000
0000
0000
0000
0000
00M0
0M00
M000
000M
,
M000
0020
0230
2300
3002
0003
0002
0003
,
0200
0300
0020
2030
3000
0002
0003
0200
,
0000
0300
0020
2030
3200
0300
0200
0300
,
0200
0000
0000
0300
0000
0000
0020
0000
0000
0032
0000
0000
0000
0000
0000
0003
M000
0000
0000
0000
0000
0000
0000
0000
,
00M0
0M00
000M
0000
2000
0000
0000
0000
3200
0000
0000
0000
0320
0000
0000
0000
0032
0000
0000
0000
0003
0000
0000
0000
0002
0000
0000
0000
0003
0000
0000
0000
,
2000
3000
0020
0230
0300
0002
0003
2000
,
3000
0020
0000
0030
0000
2000
3002
0203
,
0320
0000
0000
0000
2030
0000
3200
0000
0000
0000
0000
0300
0020
0000
0030
0000
,
0002
0000
0000
0003
1000
0001
0010
0100
,
1000
0010
0100
0001
0010
0001
1000
0010
,
0100
0001
0010
0100
1000
0010
1000
0001
,
0010
0001
1000
0010
0100
0001
0010
0100
,
1000
0010
0100
0001
1000
0001
0010
0001
,
1000
0010
0100
0001
0010
0100
1000
0010
,
1000
0001
0010
0100
1000
0010
0100
0001
,
1000
0001
0010
0001
0100
0010
1000
0001
,
0010
0100
1000
0010
0100
0001
0010
0001
,
1000
0010
0100
0001
0010
0100
1000
0010
,
1000
0001
0100
0010
1000
0100
0010
0001
,
0100
0001
1000
0100
1000
0010
0100
0001
,
1000
0010
0100
0001
1000
0010
1000
0100
,
0010
0001
0100
0010
1000
0100
0010
0001
,
0100
0001
0010
0100
1000
0010
1000
0001
,
0010
0100
1000
0010
0100
0001
1000
0001
,
0010
0001
0100
0010
1000
0000
0010
0000
,
0001
1000
0001
0000
1000
0000
0001
1000
0001
0000
1000
0000
0100
0000
0010
0000
,
0001
0100
1000
0001
0100
0010
1000
0100
,
0010
0001
0100
0010
1000
0001
0010
0001
,
0100
0010
1000
0100
1000
0001
0100
0001
,
1000
0010
1000
0001
0010
0100
1000
0010
,
0100
0001
1000
0001
0010
0001
1000
0010
,
0100
0001
0010
0100
1000
0010
0100
0001
,
1000
0001
0100
0001
0010
0100
1000
0010
,
1000
0001
0010
0100
1000
0010
0100
0001
,
1000
0001
0010
0001
1000
0010
0100
0001
,
0010
0100
1000
0010
1000
0001
0010
0100
,
1000
0010
0100
0001
1000
0001
0010
0001
,
0100
0010
1000
0001
0010
0100
1000
0010
,
1000
0001
0010
0100
1000
0010
0100
0001
,
1000
0001
0010
0001
0100
0010
1000
0100
,
1000
0001
0010
0100
1000
0010
1000
0100
,
0010
0001
0100
0010
1001
0001
0010
1000
,
0100
0010
0001
0100
0010
1000
0100
0010
,
0001
0100
0001
1000
0001
0010
0100
1000
,
0001
0010
0001
0100
0010
1000
0001
0010
,
0100
1000
0010
1000
0100
0010
0001
0100
,
0010
1000
0100
0010
0001
0100
0001
1000
,
0100
1000
0010
0100
0001
1000
0001
0010
,
0001
0100
0010
1000
0001
0010
0100
1000
,
0010
0100
0001
1000
0001
0100
0010
1000
,
0100
0010
0001
0100
0010
1000
0100
1000
,
0001
0100
0010
1000
0100
0010
0001
0100
,
0010
1000
0001
0010
0100
1000
0010
0100
,
0001
1000
0001
0010
0001
0100
0010
1000
,
0001
0010
0100
1000
0010
0100
0001
1000
,
0001
0010
0001
1000
0010
0100
0001
0010
,
0100
1000
0010
1000
0100
0010
0001
0100
,
0010
1000
0001
0010
0100
0000
0000
0000
,
0000
0000
0000
0000
,
0000
0000
0000
0000
,
0000
0000
0000
0000
,
0000
0000
0002
0000
,
2000
0003
0000
0000
0000
0000
0000
0000
0000
0000
0000
0000
0000
0000
0000
0000
0000
0000
0000
0000
0000
0000
0000
0000
0000
0000
0000
0000
0000
0000
0000
0000
0000
0000
0000
0000
0000
0000
0000
0000
0000
0000
0000
0000
0000
0000
0000
0000
0000
0000
0000
0000
0000
0000
0000
0000
0000
0000
0000
0000
0000
0000
0000
0000
0000
0000
0000
0000
0000
0000
0000
0000
0000
0000
0000
0000
0000
0000
0000
0000
0000
0000
0000
0000
0000
0000
0000
0000
0000
0000
0000
0000
0000
0000
0000
0000
3020
0000
0000
0000
0000
0000
0000
0000
0000
0000
0000
0000
0000
0000
0000
0000
0000
0000
0000
0000
0000
0000
0000
0000
0000
0000
0000
0000
0000
0000
0000
0000
0000
0000
0000
0000
0000
0000
0000
0000
0000
0000
0000
0000
0000
0000
0000
0000
0000
0000
0000
0000
0000
0000
0000
0000
0000
0000
0000
0000
0000
0000
0000
0000
0000
0000
0000
0000
0000
0000
0000
0000
0000
0000
0000
0000
0000
0000
0000
0000
0000
0000
0000
0000
0000
0000
0000
0000
0000
0000
0000
0000
0000
0000
0000
0000
,
0230
0302
0000
2003
,
0000
3000
0000
0000
,
0000
0000
0000
0000
1000
0001
0100
0010
,
1000
0001
0010
0100
1000
0010
0100
0001
,
1000
0001
0010
0001
0100
0010
1000
0001
,
0010
0100
1000
0010
0100
0001
0010
0001
,
1000
0010
0100
0001
1000
0100
0010
0001
,
0100
0001
0010
0100
1000
0010
1000
0001
,
0010
0100
1000
0010
0100
0001
1000
0001
,
0010
0001
1000
0010
0100
0001
0010
0100
,
1000
0001
0100
0010
1001
0001
0010
0100
,
1000
0010
0100
0001
0010
0001
1000
0010
,
0100
0001
0010
0100
1000
0010
1000
0001
,
0010
0001
1000
0010
0100
0001
0010
0100
,
1000
0010
0100
0001
1000
0001
0010
0001
,
1000
0010
0100
0001
0010
0100
1000
0010
,
1000
0001
0010
0100
1000
0010
0100
0001
,
1000
0001
0010
0001
0100
0010
1000
0001
,
0010
0100
1000
0010
0100
0001
0010
0001
,
1000
0010
0100
0001
0010
0100
1000
0010
,
1000
0001
0100
0010
1000
0100
0010
0001
,
0100
0001
1000
0100
1000
0010
0100
0001
,
1000
0010
0100
0001
1000
0010
1000
0100
,
0010
0001
0100
0010
1000
0100
0010
0001
,
0100
0001
0010
0100
1000
0010
1000
0001
,
0010
0100
1000
0010
0100
0001
1000
0001
,
0010
0001
0100
0010
2000
0000
0000
0000
,
0000
0000
3000
0000
;

//---------------dance-single - ----------------
#NOTES:
     dance-single:
     :
     Challenge:
     10:
     0.964,0.875,1.000,0.493,0.033,660.000,292.000,75.000,18.000,0.000:
0000
0000
0000
0000
,
0000
0000
0000
0000
,
0000
0000
0000
0000
,
0000
0000
0000
0000
,
0000
0002
2003
3200
0320
0030
0020
0030
,
0002
0003
2000
3200
0300
0020
0000
0030
,
M000
0002
0023
0230
2300
3000
2000
3000
,
0020
0000
0030
0000
0200
0000
0302
0000
0000
0000
0003
0000
0000
0000
0000
00M0
,
0M00
M00M
0020
0000
0230
0000
2300
0000
3002
0000
0003
0000
0002
0000
0003
0000
,
0200
0300
0020
2030
3000
2000
3000
0002
,
0003
0200
0000
0300
0000
0000
0020
0030
,
0200
0000
0000
0000
0300
0000
0000
0000
2000
0000
0000
0000
3002
0000
0000
0000
0000
0000
0000
0000
0003
0000
0000
0000
0000
0000
0000
0000
00M0
0M00
M000
000M
,
M000
0020
0230
2300
3002
0003
0002
0003
,
0200
0300
0020
2030
3000
0002
0003
0200
,
0000
0300
0020
2030
3200
0300
0200
0300
,
0200
0000
0000
0300
0000
0000
0020
0000
0000
0032
0000
0000
0000
0000
0000
0003
M000
0000
0000
0000
0000
0000
0000
0000
,
00M0
0M00
000M
0000
2000
0000
0000
0000
3200
0000
0000
0000
0320
0000
0000
0000
0032
0000
0000
0000
0003
0000
0000
0000
0002
0000
0000
0000
0003
0000
0000
0000
,
2000
3000
0020
0230
0300
0002
0003
2000
,
3000
0020
0000
0030
0000
2000
3002
0203
,
0320
0000
0000
0000
2030
0000
3200
0000
0000
0000
0000
0300
0020
0000
0030
0000
,
0002
0000
0000
0003
1010
0100
0110
0001
,
1001
0010
0101
1000
0110
0001
1100
0001
,
0011
1000
0101
0010
1010
0001
0110
1000
,
1001
0010
0101
0010
1100
0001
0110
1000
,
0011
1000
0101
0010
1001
0100
1010
0001
,
0110
1000
0011
1000
1100
0001
0011
1000
,
0101
1000
1010
0001
0110
1000
1001
0010
,
1100
0001
0011
1000
0101
1000
1010
0001
,
0110
0100
1001
0010
1100
0001
0011
1000
,
0110
0001
1001
0010
0101
0010
1010
0100
,
0011
1000
1100
0001
0110
1000
1001
0010
,
0101
0010
1100
0001
1010
0001
0101
0010
,
1001
0010
0110
1000
0011
0100
1010
0100
,
1001
0010
0101
1000
0110
0001
1100
0001
,
0011
0100
0101
1000
1010
0100
1001
0100
,
0110
0001
1100
0001
0011
1000
0101
1000
,
1001
0010
0101
0010
1100
0000
0110
0000
,
0001
0010
0100
0000
1000
0000
0100
0001
1001
0000
0010
0000
0101
0000
0010
0000
,
1001
1000
0110
0100
1001
0100
1010
0010
,
0101
0001
1010
0001
0110
1000
0011
0001
,
1100
1000
0011
1000
0110
0010
1001
0010
,
1100
0001
0110
0010
0101
0010
1001
1000
,
0110
0001
1010
0100
1001
0010
1100
0001
,
0110
1000
0011
0100
1100
0001
0110
0010
,
0101
0010
1001
1000
0110
0010
1001
0010
,
1100
0001
0110
1000
0011
0010
1100
0001
,
0110
0100
1001
0010
0101
0001
1010
0001
,
0110
1000
0101
0100
1010
0001
1100
0001
,
0110
1000
0011
0001
1100
0010
0011
1000
,
0110
0001
1010
0100
1001
1000
0110
0010
,
0101
1000
0011
0001
1100
0001
1010
0100
,
1001
0010
0101
0010
1001
0001
0110
1000
,
0101
0010
1100
0001
0110
1000
0101
0010
,
1001
1000
0110
0010
1001
0010
1100
0001
,
1001
0010
0101
1000
0110
0001
1100
0001
,
0011
1000
0101
0010
1010
0001
0110
1000
,
1001
0010
0101
0010
1100
0001
0110
1000
,
0011
1000
0101
0010
1001
0100
1010
0001
,
0110
1000
0011
1000
1100
0001
0011
1000
,
0101
1000
1010
0001
0110
1000
1001
0010
,
1100
0001
0011
1000
0101
1000
1010
0001
,
0110
0100
1001
0010
1100
0001
0011
1000
,
0110
0001
1001
0010
0101
0010
1010
0100
,
0011
1000
1100
0001
0110
1000
1001
0010
,
0101
0010
1100
0001
1010
0001
0101
0010
,
1001
0010
0110
1000
0011
0100
1010
0100
,
1001
0010
0101
1000
0110
0001
1100
0001
,
0011
0100
0101
1000
1010
0100
1001
0100
,
0110
0001
1100
0001
0011
1000
0101
1000
,
1001
0010
0101
0010
1100
0000
0000
0000
,
0000
0000
0000
0000
,
0000
0000
0000
0000
,
0000
0000
0000
0000
,
0000
0000
0002
0000
,
2000
0003
0000
0000
0000
0000
0000
0000
0000
0000
0000
0000
0000
0000
0000
0000
0000
0000
0000
0000
0000
0000
0000
0000
0000
0000
0000
0000
0000
0000
0000
0000
0000
0000
0000
0000
0000
0000
0000
0000
0000
0000
0000
0000
0000
0000
0000
0000
0000
0000
0000
0000
0000
0000
0000
0000
0000
0000
0000
0000
0000
0000
0000
0000
0000
0000
0000
0000
0000
0000
0000
0000
0000
0000
0000
0000
0000
0000
0000
0000
0000
0000
0000
0000
0000
0000
0000
0000
0000
0000
0000
0000
0000
0000
0000
0000
3020
0000
0000
0000
0000
0000
0000
0000
0000
0000
0000
0000
0000
0000
0000
0000
0000
0000
0000
0000
0000
0000
0000
0000
0000
0000
0000
0000
0000
0000
0000
0000
0000
0000
0000
0000
0000
0000
0000
0000
0000
0000
0000
0000
0000
0000
0000
0000
0000
0000
0000
0000
0000
0000
0000
0000
0000
0000
0000
0000
0000
0000
0000
0000
0000
0000
0000
0000
0000
0000
0000
0000
0000
0000
0000
0000
0000
0000
0000
0000
0000
0000
0000
0000
0000
0000
0000
0000
0000
0000
0000
0000
0000
0000
0000
0000
,
0230
0302
0000
2000
,
0000
3003
0000
0000
,
0000
0000
0000
0000
1010
0001
0110
1000
,
1001
0010
0101
1000
0110
0001
1100
0001
,
0011
1000
0101
0010
1001
0010
0110
0001
,
1100
0001
0011
0100
1001
0010
0101
1000
,
0110
0001
1100
0010
1001
0010
0110
0001
,
0011
1000
1100
0001
0011
1000
0101
1000
,
1010
0100
1001
0100
0110
0001
1100
0100
,
0011
1000
0101
0001
0110
0010
1001
1000
,
0101
0010
1001
0010
1001
0010
1100
0001
,
1001
0010
0101
1000
0110
0001
1100
0001
,
0011
1000
0101
0010
1010
0001
0110
1000
,
1001
0010
0101
0010
1100
0001
0110
1000
,
0011
1000
0101
0010
1001
0100
1010
0001
,
0110
1000
0011
1000
1100
0001
0011
1000
,
0101
1000
1010
0001
0110
1000
1001
0010
,
1100
0001
0011
1000
0101
1000
1010
0001
,
0110
0100
1001
0010
1100
0001
0011
1000
,
0110
0001
1001
0010
0101
0010
1010
0100
,
0011
1000
1100
0001
0110
1000
1001
0010
,
0101
0010
1100
0001
1010
0001
0101
0010
,
1001
0010
0110
1000
0011
0100
1010
0100
,
1001
0010
0101
1000
0110
0001
1100
0001
,
0011
0100
0101
1000
1010
0100
1001
0100
,
0110
0001
1100
0001
0011
1000
0101
0010
,
1001
1000
0101
0010
1002
0000
M000
0000
,
M000
M000
M003
0000
;
