#TITLE:Word Up;
#SUBTITLE:;
#ARTIST:KoRn;
#TITLETRANSLIT:;
#SUBTITLETRANSLIT:;
#ARTISTTRANSLIT:;
#CREDIT:Arch0wl;
#BANNER:wordup-bn.png;
#BACKGROUND:wordup-bg.png;
#LYRICSPATH:;
#CDTITLE:!Arch0wlTitle.png;
#MUSIC:wordup.ogg;
#OFFSET:0.894;
#SAMPLESTART:50.350;
#SAMPLELENGTH:14.450;
#SELECTABLE:YES;
#BPMS:0.000=116.000;
#STOPS:;
#BGCHANGES:0.000=wordup-bg.png=1.000=0=0=1,
99999=-nosongbg-=1.000=0=0=0 // don't automatically add -songbackground-
;
// cache tags:
#FIRSTBEAT:4.000;
#LASTBEAT:259.000;
#SONGFILENAME:Songs/Archmage and Dark0wl Hammer of Thor UltraHyperMegaPack/Word Up/wordup.sm;
#HASMUSIC:1;
#HASBANNER:1;
#MUSICLENGTH:105.000;
// end cache tags

//---------------dance-single - Arch0wl----------------
#NOTES:
     dance-single:
     Arch0wl:
     Medium:
     8:
     0.561,0.709,0.619,0.010,0.000,346.000,65.000,1.000,0.000,0.000:
0000
0000
0000
0000
,
0000
0000
0000
0000
,
0001
0000
0000
0000
1000
1000
0010
0000
,
0100
0000
0000
0000
0001
0001
1000
0000
,
0010
0000
0000
0000
0100
0100
0001
0000
,
0000
1010
0000
1010
0000
1010
0000
1010
,
0000
0110
0000
0110
0000
0110
0000
0110
,
0000
0101
0000
0101
0000
0101
0000
0101
,
0000
1001
0000
1001
0000
1010
0000
0000
,
0100
0000
0010
1000
0010
0001
0000
1000
,
0100
0000
0001
0100
0000
0000
0010
1000
,
0101
0000
0010
0010
0001
0001
1000
1000
,
0010
0010
0100
0100
0001
0000
1000
0100
,
0010
0010
0000
0001
0010
0010
1000
0010
,
0010
0000
0001
0001
0000
0000
1000
0010
,
0100
0100
0101
0000
1010
0000
1000
0100
,
0010
0010
0001
0001
1000
0000
0001
1000
,
1100
0000
1000
0001
0101
0000
0010
0000
,
1000
0001
0000
0001
0000
0000
0000
0100
,
0000
0000
0010
1000
0100
0100
1000
1000
,
0001
0001
0100
0100
0001
0000
1000
0100
,
0011
0000
0000
1000
0100
0011
0000
0000
,
1000
0100
0010
0000
0011
0000
1001
0000
,
0000
1000
1000
0010
0010
0100
0100
0001
,
0001
0000
1000
0010
0000
0100
0010
0010
,
0000
0000
0000
0010
0000
0010
1000
0100
,
0010
0000
0100
0010
0000
0000
0000
0000
,
0001
0001
1000
1000
0100
0100
0010
0010
,
0001
0001
0010
0010
0100
0000
0010
0010
,
0000
0000
0000
0010
0000
0010
0100
0001
,
1010
0000
0000
0101
0000
0000
0000
1000
,
1100
0100
0010
0010
0001
1000
0000
1000
,
0010
0010
0100
0100
0001
1000
0100
1000
,
0010
1000
0101
0000
1010
0000
0000
0100
,
1001
0000
0100
1001
0000
0000
0010
0000
,
1100
0010
0001
0001
1000
1000
0010
0010
,
0100
0100
0001
0001
1000
1000
0001
0010
,
0100
1000
0000
1000
0100
0000
0000
1000
,
1100
0000
1010
0000
1001
0000
0100
0010
,
1001
0100
0010
0000
1000
0000
0001
0010
,
0100
1000
0001
0000
1001
0000
1000
0010
,
1010
1010
0110
0110
0101
0101
1001
0000
,
1010
0000
0100
1001
0000
0000
0000
0100
,
0000
0100
0001
0001
0010
0010
0100
0100
,
1100
1100
0110
0011
0011
0000
0001
0010
,
1100
0000
0000
0001
0010
1100
0000
0000
,
0001
0010
0100
0010
0001
0000
1002
0000
,
0000
0103
0010
1000
1000
0010
0010
0100
,
1001
0000
0100
1001
0000
0100
0010
0010
,
0000
0000
0000
0100
0000
0100
0001
0010
,
0100
0000
0010
0100
0000
0000
0000
0000
,
1000
1000
0001
0001
0010
0010
0100
0100
,
1000
1000
0100
0100
0010
0000
0010
0010
,
0000
0000
0000
0100
0000
0100
1000
0010
,
0101
0000
0000
1010
0000
0000
0000
0001
,
0011
0010
0100
0100
1000
0001
0000
0001
,
0100
0100
0010
0010
1000
0000
0011
0000
,
1100
0000
0010
0010
0000
0010
1000
0100
,
0010
0000
0100
0010
0000
0000
0000
0000
,
0001
0001
1000
1000
0100
0100
0010
0010
,
0001
0001
0010
0010
0100
0000
0010
0010
,
0000
0000
0000
0010
0000
0010
0100
0001
,
1010
0000
0000
0101
0000
0000
0000
1000
,
1100
0100
0010
0010
0001
1000
0000
1000
,
0010
0010
0100
0100
0001
0000
1001
0000
;

//---------------dance-single - Arch0wl----------------
#NOTES:
     dance-single:
     Arch0wl:
     Hard:
     9:
     0.842,0.863,1.000,0.010,0.048,408.000,210.000,1.000,0.000,0.000:
0000
0000
0000
0000
,
0001
0000
0000
0000
1000
0000
0001
0010
0100
0000
0010
0000
0001
0100
0010
1000
,
0001
0010
0100
0000
1000
0000
0001
0010
0100
0000
0100
0000
1000
0000
0000
0000
,
0100
0000
0000
0000
0010
0000
0001
1000
0100
0000
0100
0000
0010
0001
1000
0010
,
0100
0001
0010
0000
0100
0000
1000
0010
0100
0000
0100
0000
1001
0000
0000
0000
,
0001
1010
0001
1010
0001
1010
0001
1010
,
0001
0110
0001
0110
0001
0110
0001
0110
,
0001
1100
0010
1100
0010
1100
0010
1100
,
0010
1001
0010
1001
0010
0101
1001
0000
,
0101
0000
0010
1001
0010
0001
0000
1000
,
0110
0000
0001
0110
0000
0000
0010
1000
,
0101
0000
0010
0011
1100
0001
1000
1010
,
0101
1010
1100
0011
1001
0000
1001
0100
,
1010
0010
0000
1001
0010
0010
1000
0010
,
0110
0110
0001
0110
0000
0000
1000
0010
,
0101
0100
0101
0010
1010
0000
1000
0101
,
1010
1100
0011
1100
0001
0000
0101
1000
,
1100
0000
1000
0011
0101
0000
1001
0000
,
1010
0001
0000
0101
0000
0000
0001
0100
,
1001
0000
0010
1001
0101
0100
1000
1001
,
0101
0110
1010
0110
1001
0000
1000
0100
,
0011
0000
0000
1100
0100
0011
0000
0000
,
1001
0100
0010
0010
0011
0000
1001
0000
,
0101
1000
1000
0011
1100
0100
0100
0011
,
1100
0011
0101
1010
0000
0101
1010
0110
,
0101
0000
0000
0010
0000
0010
1000
0100
,
0011
0000
0100
0010
0000
0000
0000
0000
,
1001
0001
1000
1001
0101
0100
0010
0011
,
1100
0011
0101
1010
0101
0000
0010
0010
,
1001
0000
0000
0010
0000
0010
0100
0001
,
1010
0000
0000
0101
0000
0000
0000
1000
,
1100
0100
0010
0011
0101
1000
0000
1001
,
0110
1010
0101
0110
1001
1000
0100
1000
,
0110
1000
0101
0010
1010
0000
0000
0100
,
1001
0000
0100
1001
0000
0000
0010
0000
,
1100
0010
0001
0011
1100
1000
0010
1010
,
0101
0011
1100
0011
1001
1000
0001
0010
,
0110
1000
0000
1100
0010
0000
0000
1000
,
1100
0000
1010
0100
1001
0000
0100
0010
,
1001
0100
0010
0001
1001
0000
0001
0011
,
0101
1001
0101
0011
1001
0000
1000
0010
,
1010
1010
0110
0110
0101
0101
1001
0000
,
1010
0000
0100
1001
0000
0000
0000
0100
,
1001
0100
0001
0011
0110
0010
0100
0110
,
1100
1100
0110
0011
0011
0000
0001
0010
,
1100
0000
0000
0011
0010
1100
0000
0000
,
1001
0010
0100
1001
0010
0000
1002
1000
,
1000
0103
0010
1001
1001
0010
0010
0101
,
1001
0101
0011
1001
0000
0101
1010
0110
,
0101
0000
0000
0100
0000
0100
0001
0010
,
1001
0000
0010
1001
0000
0000
0000
0000
,
1100
1000
0001
0011
0110
0010
0100
1100
,
1010
1001
0101
0110
1010
0000
0010
0010
,
1001
0000
0000
0100
0000
0100
1000
0010
,
0101
0000
0000
1010
0000
0000
0000
0001
,
0011
0010
0100
1100
1001
0001
0000
0101
,
0110
0101
0011
0110
1100
0000
0011
0000
,
1100
0000
0010
0010
0000
0010
1000
0100
,
0011
0000
0100
0010
0000
0000
0000
0000
,
0011
0001
1000
1001
0101
0100
0010
0011
,
1001
1100
0110
0011
0101
0000
0010
0010
,
1001
0000
0000
0010
0000
0010
0100
0001
,
1010
0000
0000
0101
0000
0000
0000
1000
,
1100
0100
0010
0011
0101
1000
0000
1010
,
0110
0101
0110
1010
1001
0000
1001
0000
;
