#TITLE:A Reyvateil's Curse;
#SUBTITLE:;
#ARTIST:Helblinde;
#TITLETRANSLIT:;
#SUBTITLETRANSLIT:;
#ARTISTTRANSLIT:;
#CREDIT:;
#BANNER:../banner.png;
#BACKGROUND:../bg.png;
#LYRICSPATH:;
#CDTITLE:;
#MUSIC:A Reyvateil's Curse.ogg;
#OFFSET:-0.085;
#SAMPLESTART:28.860;
#SAMPLELENGTH:24.000;
#SELECTABLE:YES;
#BPMS:0.000=200.003;
#STOPS:;
#BGCHANGES:;
// cache tags:
#FIRSTBEAT:0.000;
#LASTBEAT:464.000;
#SONGFILENAME:Songs/Cirque du Lykan/A Reyvateil's Curse - [Zaia]/A Reyvateil's Curse.sm;
#HASMUSIC:1;
#HASBANNER:1;
#MUSICLENGTH:141.662;
// end cache tags

//---------------dance-single - Zaia - 15(mid)----------------
#NOTES:
     dance-single:
     Zaia - 15(mid):
     Challenge:
     15:
     1.000,1.000,0.028,0.325,1.000,1268.000,4.000,46.000,0.000,5.000:
0001
0100
0001
1000
0010
1000
0001
0010
,
0100
1000
0010
0100
0001
1000
0100
1000
,
0010
1000
0001
0100
0001
1000
0100
0010
,
0100
1000
0001
0100
0010
0100
0001
1000
,
0010
0100
0001
1000
0010
0100
0001
1000
,
0100
0010
0001
1000
0100
0010
0100
1000
,
0001
0100
0010
1000
0001
1000
0010
1000
0001
0010
0100
1000
0001
1000
0001
0010
,
0100
0000
0000
0000
,
1000
0001
0010
0100
0010
0001
1000
0100
1000
0001
1000
0010
0100
0001
1000
0010
,
1000
0100
0010
0001
1000
0001
0010
0001
1000
0010
0100
0010
1000
0001
0100
0001
,
0010
0100
1000
0001
0100
0001
1000
0100
1000
0001
0010
0100
1000
0001
1000
0010
,
0100
0001
0100
0010
1000
0001
1000
0100
0010
0100
1000
0001
0010
0001
1000
0010
,
1000
0001
0100
0010
0100
0001
1000
0010
1000
0001
1000
0100
0010
0001
1000
0100
,
1000
0010
0100
0001
1000
0001
0100
0001
1000
0100
0010
0100
1000
0001
0010
0001
,
0100
0010
1000
0001
0010
0001
1000
0010
1000
0001
0100
0010
1000
0001
1000
0100
,
0010
0000
1100
0000
0100
0010
0100
0010
,
0001
1000
0010
0100
0010
1000
0001
0100
0001
1000
0001
0010
0100
1000
0001
0010
,
0001
0100
0010
1000
0001
1000
0010
1000
0001
0010
0100
0010
0001
1000
0100
1000
,
0010
0100
0001
1000
0100
1000
0001
0100
0001
1000
0010
0100
0001
1000
0001
0010
,
0100
1000
0100
0010
0001
1000
0001
0100
0010
0100
0001
1000
0010
1000
0001
0010
,
0001
1000
0100
0010
0100
1000
0001
0010
0001
1000
0001
0100
0010
1000
0001
0100
,
0001
0010
0100
1000
0001
1000
0100
1000
0001
0100
0010
0100
0001
1000
0010
1000
,
0100
0010
0001
1000
0010
1000
0001
0010
0001
1000
0100
0010
0001
1000
0001
0100
,
0020
0130
0000
0010
1000
0001
1000
0001
,
0020
0000
0230
2300
,
3002
0000
0003
0200
,
0320
0000
2030
3200
,
0320
0230
2300
3020
,
1032
0000
2003
3002
,
0203
0000
0020
2300
,
0032
3000
0023
0000
,
0230
0000
2300
3002
0203
0000
0320
0000
,
2031
0000
3002
0023
,
0230
2300
3002
2003
,
3020
0000
0230
0302
,
0023
0230
2300
3020
,
0230
0000
0320
2030
,
3002
0000
2003
3200
,
0311
0010
0001
1000
0001
0010
0001
0100
,
0010
1000
0010
1000
0001
0100
0001
0100
,
0010
0000
0000
0000
,
0000
0000
0000
0000
,
0000
0000
0000
0000
,
0000
0000
0000
0000
,
1000
0010
0100
0001
1000
0100
1000
0010
,
1000
0100
0010
0001
0100
0010
1000
0010
,
0100
0001
0010
0100
1000
0001
0100
0010
,
1000
0100
0010
0001
0100
0001
0010
0100
,
0010
0001
1000
0010
0100
0001
1000
0100
,
0010
0001
0100
0001
0010
0100
1000
0010
,
0100
0001
1000
0100
0010
0001
0010
0100
,
1000
0010
0100
0001
1000
0001
0010
0001
,
1000
0010
1000
0001
0010
0001
0100
0001
,
0010
0100
1000
0010
0100
0001
0100
0010
,
1000
0100
0010
0001
1000
0010
0100
0001
,
0010
0100
1000
0010
1000
0100
0010
0100
,
1000
0001
0100
0010
1000
0001
0010
0100
,
1000
0010
1000
0100
0010
0001
0100
0010
,
1000
0001
0010
0100
1000
0100
0010
0001
,
0100
0010
1000
0001
1000
0100
1000
0001
,
0100
0010
1000
0001
0010
0100
1000
0001
1000
0010
0100
0010
1000
0001
0010
0001
,
1000
0001
0100
0010
1000
0001
1000
0100
0010
0001
1000
0001
0010
0100
1000
0001
,
0100
0001
1000
0100
1000
0001
1000
0001
0100
0010
1000
0001
1000
0100
0010
0001
,
1000
0010
0100
0001
1000
0010
1000
0001
0010
0001
1000
0100
0010
0001
1000
0001
,
0100
0010
1000
0010
0100
0001
1000
0100
0010
0001
1000
0001
0100
0010
1000
0001
,
1000
0010
1000
0100
0010
0001
0100
0001
1000
0010
1000
0001
0010
0100
1000
0001
,
0010
0001
1000
0010
1000
0001
0010
0100
1000
0001
1000
0001
0100
0010
1000
0001
,
0010
0100
0010
0001
1000
0001
0100
0010
1000
0001
0010
0001
1000
0001
0100
0010
,
1000
0100
1000
0001
0100
0010
1000
0001
1000
0100
0010
0100
1000
0001
0100
0001
,
1000
0001
0010
0100
1000
0001
1000
0010
0100
0001
1000
0001
0100
0010
1000
0001
,
0010
0001
1000
0010
1000
0001
1000
0001
0010
0100
1000
0001
1000
0010
0100
0001
,
1000
0100
0010
0001
1000
0100
1000
0001
0100
0001
1000
0010
0100
0001
1000
0001
,
0010
0100
1000
0100
0010
0001
1000
0010
0100
0001
1000
0001
0010
0100
1000
0001
,
1000
0100
1000
0010
0100
0001
0010
0001
1000
0100
1000
0001
0100
0010
1000
0001
,
0100
0000
0000
0000
,
0000
0000
0000
0000
,
0010
1000
0001
0010
0100
0010
0001
1000
,
0010
0100
0010
1000
0100
1000
0010
0100
,
0001
1000
0100
0010
0001
1000
0010
1000
,
0001
0100
0001
1000
0010
1000
0100
0010
,
0001
1000
0001
0100
0001
1000
0100
1000
,
0001
0100
0010
1000
0001
0100
0001
0010
,
0100
1000
0001
1000
0010
1000
0001
0010
,
0100
0000
0000
0000
,
1000
0001
1000
0001
0100
0001
0010
0100
1000
0001
1000
0001
0010
0001
0100
0010
,
1000
0001
1000
0001
0100
0001
0010
0100
1000
0001
1000
0001
0100
0010
1000
0100
,
0010
0001
0010
0100
1000
0001
1000
0010
0100
0010
1000
0001
0010
0001
1000
0100
,
1000
0001
0100
0010
1000
0001
1000
0100
0010
0100
1000
0001
1000
0001
0100
0010
,
1000
0100
0010
0001
1000
0010
1000
0001
0010
0001
1000
0010
0100
0001
1000
0100
,
0010
0001
1000
0001
0100
0010
0100
0001
1000
0001
0010
0001
1000
0100
1000
0001
,
1000
0010
0100
0001
1000
0001
0010
0100
0010
0001
1000
0001
0100
0010
1000
0001
,
1000
0010
1000
0001
0010
0001
1000
0100
0010
0100
1000
0001
1000
0001
0100
0010
,
1000
0001
1000
0001
0010
0001
0100
0010
1000
0001
1000
0001
0100
0001
0010
0100
,
1000
0001
1000
0001
0010
0001
0100
0010
1000
0001
1000
0001
0010
0100
1000
0010
,
0100
0001
0100
0010
1000
0001
1000
0100
0010
0100
1000
0001
0100
0001
1000
0010
,
1000
0001
0010
0100
1000
0001
1000
0010
0100
0010
1000
0001
1000
0001
0100
0010
,
1000
0100
0010
0001
1000
0010
1000
0001
0010
0001
1000
0010
0100
0001
1000
0100
,
0010
0001
1000
0001
0100
0010
0100
0001
1000
0001
0010
0001
1000
0100
1000
0001
,
1000
0010
0100
0001
1000
0001
0010
0100
0010
0001
1000
0001
0100
0010
1000
0001
,
1000
0010
1000
0001
0010
0001
1000
0100
0010
0100
1000
0001
0100
0000
0000
0000
,
0001
0010
0001
0010
0100
1000
0010
1000
0001
0100
0001
0100
0010
1000
0001
0010
,
0100
1000
0100
1000
0001
0010
0100
0010
0001
1000
0001
1000
0010
0100
0001
0010
,
0100
1000
0100
0010
0001
1000
0001
0100
0010
0100
0001
1000
0100
1000
0001
0010
,
0001
1000
0010
0100
0001
1000
0001
0010
0100
0010
0001
1000
0001
1000
0010
0100
,
0001
0010
0100
1000
0001
0100
0001
1000
0100
1000
0001
0100
0010
1000
0001
0010
,
0100
1000
0001
1000
0010
0100
0010
1000
0001
1000
0100
1000
0001
0010
0001
1000
,
0001
0100
0010
1000
0001
1000
0100
0010
0100
1000
0001
1000
0010
0100
0001
1000
,
0001
0100
0001
1000
0100
1000
0001
0010
0100
0010
0001
1000
0001
1000
0010
0100
,
0001
1000
0010
1000
0010
0100
0001
0010
0001
1000
0100
1000
0100
0010
0001
1000
,
0010
0100
0001
0100
0001
1000
0010
0100
0010
1000
0001
1000
0001
0010
0100
1000
,
0010
0100
0001
0100
0010
1000
0001
1000
0100
0010
0100
1000
0001
0100
0001
1000
,
0010
1000
0001
0010
0100
1000
0001
1000
0010
0100
0010
1000
0001
1000
0001
0010
,
0100
1000
0010
0100
0001
1000
0100
1000
0001
0100
0001
1000
0100
0010
0001
1000
,
0010
0100
0001
1000
0001
0010
0100
0010
0001
1000
0001
0100
0001
1000
0010
1000
,
0001
1000
0100
0010
0001
1000
0010
0100
,
0001
0010
0001
0100
0010
1000
0100
0010
,
0001
0000
0000
0000
;

//---------------dance-single - Zaia - 13(mid)----------------
#NOTES:
     dance-single:
     Zaia - 13(mid):
     Hard:
     13:
     1.000,1.000,0.028,0.325,0.858,1041.000,4.000,46.000,0.000,5.000:
0001
0100
0001
1000
0010
1000
0001
0010
,
0100
1000
0010
0100
0001
1000
0100
1000
,
0010
1000
0001
0100
0001
1000
0100
0010
,
0100
1000
0001
0100
0010
0100
0001
1000
,
0010
0100
0001
1000
0010
0100
0001
1000
,
0100
0010
0001
1000
0100
0010
0100
1000
,
0001
0100
0010
1000
0001
1000
0010
1000
0001
0010
0100
1000
0001
1000
0001
0010
,
0100
0000
0000
0000
,
1000
0000
0100
0000
1000
0001
1000
0000
0010
0000
0100
0000
0001
0100
0001
0000
,
1000
0000
0100
0000
0010
0100
0010
0000
0001
0000
1000
0000
0001
0010
0001
0000
,
1000
0000
0100
0000
0010
0001
0010
0000
0001
0000
1000
0000
0010
0100
0010
0000
,
1000
0000
0001
0000
1000
0100
1000
0000
0010
0000
0100
0000
0001
1000
0001
0000
,
0010
0000
0100
0000
1000
0010
1000
0000
0001
0000
0010
0000
0100
1000
0100
0000
,
0010
0000
0100
0000
1000
0001
1000
0000
0100
0000
0010
0000
0001
0010
0001
0000
,
1000
0000
0010
0000
0100
0001
0100
0000
0010
0000
1000
0000
0001
1000
0001
0000
,
0010
0000
1100
0000
0100
0010
0100
0010
,
0001
0000
1000
0000
0001
0010
0001
0000
0100
0000
0010
0000
1000
0010
1000
0000
,
0001
0000
0010
0000
0100
0010
0100
0000
1000
0000
0001
0000
1000
0100
1000
0000
,
0001
0000
0010
0000
0100
1000
0100
0000
1000
0000
0001
0000
0100
0010
0100
0000
,
0001
0000
1000
0000
0001
0010
0001
0000
0100
0000
0010
0000
1000
0001
1000
0000
,
0100
0000
0010
0000
0001
0100
0001
0000
1000
0000
0100
0000
0010
0001
0010
0000
,
0100
0000
0010
0000
0001
1000
0001
0000
0010
0000
0100
0000
1000
0100
1000
0000
,
0001
0000
0100
0000
0010
1000
0010
0000
0100
0000
0001
0000
1000
0001
1000
0000
,
0020
0130
0000
0010
1000
0001
1000
0001
,
0020
0000
0230
2300
,
3002
0000
0003
0200
,
0320
0000
2030
3200
,
0320
0230
2300
3020
,
1032
0000
2003
3002
,
0203
0000
0020
2300
,
0032
3000
0023
0000
,
0230
0000
2300
3002
0203
0000
0320
0000
,
2031
0000
3002
0023
,
0230
2300
3002
2003
,
3020
0000
0230
0302
,
0023
0230
2300
3020
,
0230
0000
0320
2030
,
3002
0000
2003
3200
,
0311
0010
0001
1000
0001
0010
0001
0100
,
0010
1000
0010
1000
0001
0100
0001
0100
,
0010
0000
0000
0000
,
0000
0000
0000
0000
,
0000
0000
0000
0000
,
0000
0000
0000
0000
,
1000
0010
0100
0001
1000
0100
1000
0010
,
1000
0100
0010
0001
0100
0010
1000
0010
,
0100
0001
0010
0100
1000
0001
0100
0010
,
1000
0100
0010
0001
0100
0001
0010
0100
,
0010
0001
1000
0010
0100
0001
1000
0100
,
0010
0001
0100
0001
0010
0100
1000
0010
,
0100
0001
1000
0100
0010
0001
0010
0100
,
1000
0010
0100
0001
1000
0001
0010
0001
,
1000
0010
1000
0001
0010
0001
0100
0001
,
0010
0100
1000
0010
0100
0001
0100
0010
,
1000
0100
0010
0001
1000
0010
0100
0001
,
0010
0100
1000
0010
1000
0100
0010
0100
,
1000
0001
0100
0010
1000
0001
0010
0100
,
1000
0010
1000
0100
0010
0001
0100
0010
,
1000
0001
0010
0100
1000
0100
0010
0001
,
0100
0010
1000
0001
1000
0100
1000
0001
,
0100
0010
1000
0001
0010
0100
1000
0001
1000
0010
0100
0010
1000
0001
0010
0001
,
1000
0001
0100
0010
1000
0001
1000
0100
0010
0001
1000
0001
0010
0100
1000
0001
,
0100
0001
1000
0100
1000
0001
1000
0001
0100
0010
1000
0001
1000
0100
0010
0001
,
1000
0010
0100
0001
1000
0010
1000
0001
0010
0001
1000
0100
0010
0001
1000
0001
,
0100
0010
1000
0010
0100
0001
1000
0100
0010
0001
1000
0001
0100
0010
1000
0001
,
1000
0010
1000
0100
0010
0001
0100
0001
1000
0010
1000
0001
0010
0100
1000
0001
,
0010
0001
1000
0010
1000
0001
0010
0100
1000
0001
1000
0001
0100
0010
1000
0001
,
0010
0100
0010
0001
1000
0001
0100
0010
1000
0001
0010
0001
1000
0001
0100
0010
,
1000
0100
0010
0001
1000
0010
0100
0001
,
1000
0100
0010
0001
1000
0010
0100
0001
,
1000
0100
0010
0100
1000
0001
0100
0010
,
1000
0100
0010
0001
1000
0001
0100
0001
,
1000
0100
1000
0010
0100
0001
1000
0001
,
0010
0001
1000
0010
0100
0010
1000
0001
,
0100
0000
0000
0000
,
0000
0000
0000
0000
,
0010
1000
0001
0010
0100
0010
0001
1000
,
0010
0100
0010
1000
0100
1000
0010
0100
,
0001
1000
0100
0010
0001
1000
0010
1000
,
0001
0100
0001
1000
0010
1000
0100
0010
,
0001
1000
0001
0100
0001
1000
0100
1000
,
0001
0100
0010
1000
0001
0100
0001
0010
,
0100
1000
0001
1000
0010
1000
0001
0010
,
0100
0000
0000
0000
,
1000
0000
0010
0000
1000
0001
1000
0000
0100
0000
0010
0000
0001
0010
0001
0000
,
1000
0000
0010
0000
0100
0010
0100
0000
0001
0000
1000
0000
0001
0100
0001
0000
,
1000
0000
0010
0000
0100
0001
0100
0000
0001
0000
1000
0000
0100
0010
0100
0000
,
1000
0000
0001
0000
1000
0010
1000
0000
0100
0000
0010
0000
0001
1000
0001
0000
,
0100
0000
0010
0000
1000
0100
1000
0000
0001
0000
0100
0000
0010
1000
0010
0000
,
0100
0000
0010
0000
1000
0001
1000
0000
0100
0000
0010
0000
0001
0100
0001
0000
,
1000
0000
0100
0000
0010
0001
0010
0000
0100
0000
1000
0000
0001
0010
0001
0000
,
0100
0000
0010
0000
1000
0001
1000
0000
0100
0000
0010
0000
0001
0010
0001
0000
,
1000
0000
0010
0000
0100
0010
0100
0000
0001
0000
1000
0000
0001
0100
0001
0000
,
1000
0000
0010
0000
0100
0001
0100
0000
0001
0000
1000
0000
0100
0010
0100
0000
,
1000
0000
0001
0000
1000
0010
1000
0000
0100
0000
0010
0000
0001
1000
0001
0000
,
0100
0000
0010
0000
1000
0100
1000
0000
0001
0000
0100
0000
0010
1000
0010
0000
,
0100
0000
0010
0000
1000
0001
1000
0000
0100
0000
0010
0000
0001
0100
0001
0000
,
1000
0000
0010
0000
0100
0001
0100
0000
0001
0000
0010
0000
0100
0010
0100
0000
,
1000
0000
0001
0000
0100
0010
0100
0000
0001
0000
1000
0000
0100
1000
0100
0000
,
1000
0000
0001
0000
1000
0010
1000
0000
0100
0000
0010
0000
0001
0000
0000
0000
,
1000
0100
1000
0100
0010
0001
0100
0001
1000
0010
1000
0010
0100
0001
1000
0100
,
0010
0001
0010
0001
1000
0100
0010
0100
1000
0001
1000
0001
0100
0010
1000
0100
,
0010
0001
0010
0100
1000
0001
1000
0010
0100
0010
1000
0001
0010
0001
1000
0100
,
1000
0001
0100
0010
1000
0001
1000
0100
0010
0100
1000
0001
1000
0001
0100
0010
,
1000
0100
0010
0001
1000
0010
1000
0001
0010
0001
1000
0010
0100
0001
1000
0100
,
0010
0001
1000
0001
0100
0010
0100
0001
1000
0001
0010
0001
1000
0100
1000
0001
,
1000
0010
0100
0001
1000
0001
0010
0100
0010
0001
1000
0001
0100
0010
1000
0001
,
1000
0010
1000
0001
0010
0001
1000
0100
0010
0100
1000
0001
1000
0001
0100
0010
,
1000
0001
0100
0001
0100
0010
1000
0100
1000
0001
0010
0001
0010
0100
1000
0001
,
0100
0010
1000
0010
1000
0001
0100
0010
0100
0001
1000
0001
1000
0100
0010
0001
,
0100
0010
1000
0010
0100
0001
1000
0001
0010
0100
0010
0001
1000
0010
1000
0001
,
0100
0001
1000
0100
0010
0001
1000
0001
0100
0010
0100
0001
1000
0001
1000
0100
,
0010
0001
0100
0010
1000
0001
0010
0001
1000
0010
1000
0001
0010
0100
1000
0001
,
0100
0010
1000
0001
1000
0100
0010
0100
1000
0001
1000
0010
1000
0001
0100
0001
,
1000
0001
0010
0100
1000
0001
0100
0010
,
1000
0100
1000
0010
0100
0001
0010
0100
,
1000
0000
0000
0000
;

//---------------dance-single - Zaia - 11(low)----------------
#NOTES:
     dance-single:
     Zaia - 11(low):
     Medium:
     11:
     0.936,0.860,0.028,0.325,0.282,878.000,4.000,46.000,0.000,5.000:
0001
0100
0001
1000
0010
1000
0001
0010
,
0100
1000
0010
0100
0001
1000
0100
1000
,
0010
1000
0001
0100
0001
1000
0100
0010
,
0100
1000
0001
0100
0010
0100
0001
1000
,
0010
0100
0001
1000
0010
0100
0001
1000
,
0100
0010
0001
1000
0100
0010
0100
1000
,
0001
0100
0010
1000
0001
1000
0010
1000
0001
0010
0100
1000
0001
1000
0001
0010
,
0100
0000
0000
0000
,
1000
0000
0100
0000
1000
0001
1000
0000
0010
0000
0100
0000
0001
0100
0001
0000
,
1000
0000
0100
0000
0010
0100
0010
0000
0001
0000
1000
0000
0001
0010
0001
0000
,
1000
0000
0100
0000
0010
0001
0010
0000
0001
0000
1000
0000
0010
0100
0010
0000
,
1000
0000
0001
0000
1000
0100
1000
0000
0010
0000
0100
0000
0001
1000
0001
0000
,
0010
0000
0100
0000
1000
0010
1000
0000
0001
0000
0010
0000
0100
1000
0100
0000
,
0010
0000
0100
0000
1000
0001
1000
0000
0100
0000
0010
0000
0001
0010
0001
0000
,
1000
0000
0010
0000
0100
0001
0100
0000
0010
0000
1000
0000
0001
1000
0001
0000
,
0010
0000
1100
0000
0100
0010
0100
0010
,
0001
0000
0010
0000
0001
1000
0001
0000
0100
0000
0010
0000
1000
0010
1000
0000
,
0001
0000
0010
0000
0100
0010
0100
0000
1000
0000
0001
0000
1000
0100
1000
0000
,
0001
0000
0010
0000
0100
1000
0100
0000
1000
0000
0001
0000
0100
0010
0100
0000
,
0001
0000
1000
0000
0001
0010
0001
0000
0100
0000
0010
0000
1000
0001
1000
0000
,
0100
0000
0010
0000
0001
0100
0001
0000
1000
0000
0100
0000
0010
0001
0010
0000
,
0100
0000
0010
0000
0001
1000
0001
0000
0010
0000
0100
0000
1000
0100
1000
0000
,
0001
0000
0100
0000
0010
1000
0010
0000
0100
0000
0001
0000
1000
0001
1000
0000
,
0020
0130
0000
0010
1000
0001
1000
0001
,
0020
0000
0230
2300
,
3002
0000
0003
0200
,
0320
0000
2030
3200
,
0320
0230
2300
3020
,
1032
0000
2003
3002
,
0203
0000
0020
2300
,
0032
3000
0023
0000
,
0230
0000
2300
3002
0203
0000
0320
0000
,
2031
0000
3002
0023
,
0230
2300
3002
2003
,
3020
0000
0230
0302
,
0023
0230
2300
3020
,
0230
0000
0320
2030
,
3002
0000
2003
3200
,
0311
0010
0001
1000
0001
0010
0001
0100
,
0010
1000
0010
1000
0001
0100
0001
0100
,
0010
0000
0000
0000
,
0000
0000
0000
0000
,
0000
0000
0000
0000
,
0000
0000
0000
0000
,
1000
0010
0100
0001
1000
0100
1000
0010
,
1000
0100
0010
0001
0100
0010
1000
0010
,
0100
0001
0010
0100
1000
0001
0100
0010
,
1000
0100
0010
0001
0100
0001
0010
0100
,
0010
0001
1000
0010
0100
0001
1000
0100
,
0010
0001
0100
0001
0010
0100
1000
0010
,
0100
0001
1000
0100
0010
0001
0010
0100
,
1000
0010
0100
0001
1000
0001
0010
0001
,
1000
0010
1000
0001
0010
0001
0100
0001
,
0010
0100
1000
0010
0100
0001
0100
0010
,
1000
0100
0010
0001
1000
0010
0100
0001
,
0010
0100
1000
0010
1000
0100
0010
0100
,
1000
0001
0100
0010
1000
0001
0010
0100
,
1000
0010
1000
0100
0010
0001
0100
0010
,
1000
0001
0010
0100
1000
0100
0010
0001
,
0100
0010
1000
0001
1000
0100
1000
0001
,
0100
0000
0010
0000
1000
0001
1000
0000
0100
0000
0010
0000
0001
0010
0001
0000
,
0100
0000
0010
0000
0100
0001
0100
0000
0010
0000
1000
0000
0001
0100
0001
0000
,
1000
0000
0100
0000
0010
0100
0010
0000
0001
0000
0100
0000
0010
1000
0010
0000
,
0100
0000
0001
0000
1000
0100
1000
0000
0001
0000
0010
0000
0001
1000
0001
0000
,
0100
0000
0010
0000
1000
0100
1000
0000
0001
0000
1000
0000
0100
0010
0100
0000
,
1000
0000
0001
0000
0100
0010
0100
0000
0001
0000
1000
0000
0001
0100
0001
0000
,
1000
0000
0010
0000
0100
0001
0100
0000
0001
0000
0010
0000
0100
1000
0100
0000
,
1000
0000
0010
0000
0100
0010
0100
0000
0001
0000
1000
0000
0001
0100
0001
0000
,
1000
0100
0010
0001
1000
0010
0100
0001
,
1000
0100
0010
0001
1000
0010
0100
0001
,
1000
0100
0010
0100
1000
0001
0100
0010
,
1000
0100
0010
0001
1000
0001
0100
0001
,
1000
0100
1000
0010
0100
0001
1000
0001
,
0010
0001
1000
0010
0100
0010
1000
0001
,
0100
0000
0000
0000
,
0000
0000
0000
0000
,
0010
1000
0001
0010
0100
0010
0001
1000
,
0010
0100
0010
1000
0100
1000
0010
0100
,
0001
1000
0100
0010
0001
1000
0010
1000
,
0001
0100
0001
1000
0010
1000
0100
0010
,
0001
1000
0001
0100
0001
1000
0100
1000
,
0001
0100
0010
1000
0001
0100
0001
0010
,
0100
1000
0001
1000
0010
1000
0001
0010
,
0100
0000
0000
0000
,
1000
0010
0100
0001
1000
0100
0010
0001
,
1000
0010
0100
0001
1000
0100
0010
0001
,
0100
0010
1000
0010
0100
0010
1000
0100
,
0010
0001
0100
0010
0100
0001
0010
0100
,
0010
0001
1000
0010
1000
0001
0100
0001
,
1000
0100
0010
0001
1000
0001
0100
0010
,
0100
0001
0010
0100
0010
0001
1000
0010
,
1000
0001
1000
0100
0010
0100
1000
0001
,
1000
0100
0010
0001
1000
0010
0100
0001
,
1000
0100
0010
0001
1000
0010
0100
0001
,
0010
0100
1000
0100
0010
0100
1000
0010
,
0100
0001
0010
0100
0010
0001
0100
0010
,
0100
0001
1000
0100
1000
0001
0010
0001
,
1000
0010
0100
0001
1000
0001
0010
0100
,
0010
0001
0100
0010
0100
0001
1000
0100
,
1000
0001
1000
0010
0100
0010
1000
0000
,
0001
0000
0100
0000
0001
1000
0001
0000
0010
0000
0100
0000
1000
0100
1000
0000
,
0001
0000
0100
0000
0010
0100
0010
0000
1000
0000
0001
0000
1000
0010
1000
0000
,
0001
0000
0100
0000
0010
1000
0010
0000
1000
0000
0001
0000
0010
0100
0010
0000
,
0001
0000
1000
0000
0001
0100
0001
0000
0010
0000
0100
0000
1000
0001
1000
0000
,
0010
0000
0100
0000
0001
0010
0001
0000
1000
0000
0010
0000
0100
0001
0100
0000
,
0010
0000
0100
0000
0001
1000
0001
0000
0010
0000
0100
0000
1000
0010
1000
0000
,
0001
0000
0010
0000
0100
1000
0100
0000
0010
0000
0001
0000
1000
0100
1000
0000
,
0010
0000
0100
0000
0001
1000
0001
0000
0010
0000
0100
0000
1000
0100
1000
0000
,
0001
0000
0100
0000
0010
0100
0010
0000
1000
0000
0001
0000
1000
0010
1000
0000
,
0001
0000
0100
0000
0010
1000
0010
0000
1000
0000
0001
0000
0010
0100
0010
0000
,
0001
0000
1000
0000
0001
0100
0001
0000
0010
0000
0100
0000
1000
0001
1000
0000
,
0010
0000
0100
0000
0001
0010
0001
0000
1000
0000
0010
0000
0100
0001
0100
0000
,
0010
0000
0100
0000
0001
1000
0001
0000
0010
0000
0100
0000
1000
0010
1000
0000
,
0001
0000
0100
0000
0010
1000
0010
0000
1000
0000
0100
0000
0010
0100
0010
0000
,
0001
1000
0100
0010
0001
1000
0010
0100
,
0001
0010
0001
0100
0010
1000
0100
0010
,
0001
0000
0000
0000
;
