#TITLE:Toxic Seahorse(Megaman X3);
#SUBTITLE:arranged version;
#ARTIST:Capcom Sound Team;
#TITLETRANSLIT:;
#SUBTITLETRANSLIT:;
#ARTISTTRANSLIT:;
#CREDIT:Gorilla v1.0.0 (Dancing Monkeys v1.05);
#BANNER:Toxic seahorse-banner.jpg;
#BACKGROUND:Toxic Seahorse-bg.jpg;
#LYRICSPATH:;
#CDTITLE:;
#MUSIC:44 - X3 Arrange - ACID SEAFORCE STAGE.mp3;
#OFFSET:-0.100;
#SAMPLESTART:37.445;
#SAMPLELENGTH:12.000;
#SELECTABLE:YES;
#BPMS:0.000=160.665;
#STOPS:;
#BGCHANGES:;
// cache tags:
#FIRSTBEAT:1.000;
#LASTBEAT:283.000;
#SONGFILENAME:Songs/dragon force/44 - Toxic Seahorse(Megaman X3) Arranged version/44 - X3 Arrange - ACID SEAFORCE STAGE.sm;
#HASMUSIC:1;
#HASBANNER:1;
#MUSICLENGTH:111.080;
// end cache tags

//---------------dance-single - Basic----------------
#NOTES:
     dance-single:
     Basic:
     Challenge:
     9:
     0.607,0.987,0.414,0.486,0.464,372.000,46.000,54.000,0.000,5.000:
0000
0000
1000
1010
0000
0001
0000
0101
,
0000
1000
0000
0100
0010
0000
0010
0001
,
0000
0000
1000
0110
0000
0010
0000
1001
,
0000
0001
0000
0010
0100
0000
0100
1000
,
0000
2002
0003
3010
,
1000
0001
0000
1000
0010
0000
1000
0100
,
0000
2200
0000
0000
0000
0000
3300
1001
,
0000
1000
0100
1000
0000
0110
0000
0011
,
0000
2000
0000
0000
3001
0000
0002
0000
,
1000
0000
1003
0000
0000
0000
0101
0000
0000
0000
0010
0000
0010
0000
0000
0100
,
1000
0000
0000
0010
0000
2000
0000
0000
0000
0000
3100
0000
0000
0000
0010
0000
,
0001
0000
0000
0000
0000
0000
0001
1000
0000
0000
0000
0000
1000
0000
0000
0010
,
0000
0100
0000
0000
0001
0000
0001
0000
0000
0000
2002
0000
0000
0000
0000
0000
,
3003
0000
0000
0000
0000
0000
0100
0010
0000
0000
0000
0000
1100
0000
1010
0000
,
0000
0000
1000
0010
0000
2000
0000
3020
,
0000
0230
0000
0302
0000
2003
0000
3101
,
0000
0000
0001
0010
0001
0010
0001
0100
0001
0100
0010
1000
0010
1000
0100
1000
,
0100
1000
0001
1000
0001
0020
0000
0000
0000
0000
0000
0000
0000
0000
0030
0000
,
1100
0000
0002
0000
0000
0113
0000
0000
,
1000
0000
1020
0000
0000
0000
0000
0000
0000
0000
0000
0000
0130
0000
0000
0001
,
0000
0010
0000
0001
0000
0000
1000
0000
0000
0000
0100
0000
0001
0000
0000
0000
,
0100
0000
1000
0000
0010
0100
0010
0000
,
2000
0000
0000
0000
0000
0002
3000
0000
0000
0000
0203
0000
0000
0000
0000
0302
,
0000
0000
0000
1000
0003
0000
0000
1001
0000
0000
0000
0000
0000
0100
0000
0000
,
0020
0000
0000
0000
1030
0100
1000
0010
0100
0010
0100
0001
0010
0001
0100
0010
,
0100
0001
1000
0010
0100
0010
1000
0010
0100
0001
0100
0010
1000
0010
0100
0001
,
0010
0100
1000
0001
1000
0100
0010
0001
1000
0001
0010
0100
0000
0000
1000
0000
,
0000
0100
0000
0010
0000
0000
0001
0000
0000
0010
0000
0100
0000
1000
0000
0000
,
0100
0000
0010
0000
0000
2002
0000
0000
0000
0000
0000
0000
0000
0000
0000
0000
,
0000
0000
0003
0000
0000
0000
0000
0000
0000
0000
0000
0000
0010
0000
0000
0100
,
0000
0001
0002
3000
0000
0000
0000
0000
,
0000
0003
0000
1000
0100
0010
0001
0001
,
1001
0000
0001
0101
0000
0010
0000
1010
,
0000
0001
0000
0010
0100
0000
0100
1000
,
0000
0000
0100
1100
0000
0010
0000
0011
,
0000
1000
0000
0100
0010
0000
0010
0100
,
0000
2002
3000
0103
,
0001
1000
0000
0001
0010
0000
0001
0100
,
0000
0022
0000
0000
0000
0000
0033
1001
,
0000
0001
0010
0001
0000
0110
0000
1100
,
0000
2000
0000
0000
3001
0000
0002
0000
,
1000
0000
1003
0000
0000
0000
1010
0000
0000
0000
0100
0000
0100
0000
0000
0010
,
0001
0000
0000
0010
0000
0002
0000
0000
0000
0000
1003
0000
0000
0000
0001
0000
,
0100
0000
0000
0000
0000
0000
0001
1000
0000
0000
0000
0000
0100
0000
0000
0010
,
0000
0100
0000
0000
1000
0000
1000
0000
0000
0000
0220
0000
0000
0000
0000
0000
,
0330
0000
0000
0000
0000
0000
0010
0001
0000
0000
0000
0000
1001
0000
0101
0000
,
0000
0000
1000
0010
0000
0200
0000
0302
,
0000
0023
0000
0032
0000
2003
0000
3011
,
0000
0000
1000
0100
0010
0001
1000
0100
0010
0001
1000
0010
1000
0001
0100
0001
,
1000
0001
0010
0100
0020
0000
0000
0000
0000
0000
0000
0000
0000
0000
0131
0000
,
0000
0000
2000
0000
0000
3110
0000
0000
,
0001
0000
0201
0000
0000
0000
0000
0000
0000
0000
0000
0000
0310
0000
0000
1000
,
0000
0100
0000
1000
0000
0000
0001
0000
0000
0000
0100
0000
0010
0000
0000
0000
,
1000
0000
0010
0000
0001
0010
1000
0000
,
0002
0000
0000
0000
0000
0200
0003
0000
0000
0000
0320
0000
0000
0000
0000
2030
,
0000
0000
0000
0001
3000
0000
0000
1001
0000
0000
0000
0000
0000
0010
0000
0000
,
0200
0000
0000
0000
1300
0010
0100
0001
1000
0010
0100
0001
1000
0001
0100
0010
,
1000
0001
0100
0010
1000
0001
1000
0100
1000
0010
0100
0010
1000
0100
1000
0001
,
0010
0001
0100
0010
0100
0001
0010
0001
1000
0001
1000
0100
0000
0000
0010
0000
,
0000
0001
0000
0100
0000
0000
1000
0000
0000
0100
0000
0010
0000
1000
0000
0000
,
0001
0000
0100
0000
0000
2002
0000
0000
0000
0000
0000
0000
0000
0000
0000
0000
,
0000
0000
3000
0000
0000
0000
0000
0000
0000
0000
0000
0000
0010
0000
0000
1000
,
0000
0100
0200
0003
0000
0000
0000
0000
,
0000
0300
0000
0010
1000
0100
0001
0100
,
1001
0000
0100
0110
0000
0100
0000
0101
,
0000
0010
0000
0100
0010
0000
0010
1000
,
0000
0000
0010
1001
0000
1000
0000
0110
,
0000
0001
0000
0010
1000
0000
1000
0010
,
0000
2200
3000
0310
,
0001
0100
0000
0010
1000
0000
0100
0010
,
0000
2002
0000
0000
0000
0000
3003
0000
;

//---------------dance-single - Basic----------------
#NOTES:
     dance-single:
     Basic:
     Hard:
     8:
     0.584,0.987,0.252,0.486,0.464,372.000,28.000,54.000,0.000,1.000:
0000
0000
1000
0010
0000
0001
0000
0101
,
0000
1000
0000
0100
0010
0000
0010
0001
,
0000
0000
1000
0100
0000
0010
0000
1001
,
0000
0001
0000
0010
0100
0000
0100
1000
,
0000
2002
0003
3010
,
1000
0001
0000
1000
0010
0000
1000
0100
,
0000
2200
0000
0000
0000
0000
3300
1001
,
0000
1000
0100
1000
0000
0100
0000
0011
,
0000
2000
0000
0000
3001
0000
0002
0000
,
1000
0000
1003
0000
0000
0000
0101
0000
0000
0000
0010
0000
0010
0000
0000
0100
,
1000
0000
0000
0010
0000
2000
0000
0000
0000
0000
3100
0000
0000
0000
0010
0000
,
0001
0000
0000
0000
0000
0000
0001
1000
0000
0000
0000
0000
1000
0000
0000
0010
,
0000
0100
0000
0000
0001
0000
0001
0000
0000
0000
2002
0000
0000
0000
0000
0000
,
3003
0000
0000
0000
0000
0000
0100
0010
0000
0000
0000
0000
1000
0000
1010
0000
,
0000
0000
1000
0010
0000
2000
0000
3020
,
0000
0230
0000
0302
0000
2003
0000
3100
,
0000
0000
1000
0001
1000
0001
1000
0001
1000
0010
1000
0010
1000
0001
1000
0001
,
0100
0010
0100
0010
0100
0020
0000
0000
0000
0000
0000
0000
0000
0000
0030
0000
,
1100
0000
0002
0000
0000
0103
0000
0000
,
1000
0000
0020
0000
0000
0000
0000
0000
0000
0000
0000
0000
0130
0000
0000
0001
,
0000
0010
0000
0001
0000
0000
1000
0000
0000
0000
0100
0000
0001
0000
0000
0000
,
0100
0000
1000
0000
0010
0100
0010
0000
,
2000
0000
0000
0000
0000
0002
3000
0000
0000
0000
0203
0000
0000
0000
0000
0302
,
0000
0000
0000
1000
0003
0000
0000
1001
0000
0000
0000
0000
0000
0100
0000
0000
,
0020
0000
0000
0000
1030
0100
1000
0100
1000
0001
0010
0001
0010
0001
0100
0001
,
0100
0001
1000
0001
1000
0001
0100
0010
0100
0010
1000
0100
0010
0001
1000
0001
,
1000
0100
0010
0100
0010
0100
0010
0100
1000
0001
1000
0001
0000
0000
1000
0000
,
0000
0100
0000
0010
0000
0000
0001
0000
0000
0010
0000
0100
0000
1000
0000
0000
,
0100
0000
0010
0000
0000
2002
0000
0000
0000
0000
0000
0000
0000
0000
0000
0000
,
0000
0000
0003
0000
0000
0000
0000
0000
0000
0000
0000
0000
0010
0000
0000
0100
,
0000
0001
0002
3000
0000
0000
0000
0000
,
0000
0003
0000
1000
0100
0010
0001
0001
,
1000
0000
0001
0100
0000
0010
0000
1010
,
0000
0001
0000
0010
0100
0000
0100
1000
,
0000
0000
0100
1000
0000
0010
0000
0011
,
0000
1000
0000
0100
0010
0000
0010
0100
,
0000
2002
3000
0103
,
0001
1000
0000
0001
0010
0000
0001
0100
,
0000
0022
0000
0000
0000
0000
0033
1001
,
0000
0001
0010
0001
0000
0100
0000
1100
,
0000
2000
0000
0000
3001
0000
0002
0000
,
1000
0000
1003
0000
0000
0000
1010
0000
0000
0000
0100
0000
0100
0000
0000
0010
,
0001
0000
0000
0010
0000
0002
0000
0000
0000
0000
1003
0000
0000
0000
0001
0000
,
0100
0000
0000
0000
0000
0000
0001
1000
0000
0000
0000
0000
0100
0000
0000
0010
,
0000
0100
0000
0000
1000
0000
1000
0000
0000
0000
0220
0000
0000
0000
0000
0000
,
0330
0000
0000
0000
0000
0000
0010
0001
0000
0000
0000
0000
0001
0000
0101
0000
,
0000
0000
1000
0010
0000
0200
0000
0302
,
0000
0023
0000
0032
0000
2003
0000
3010
,
0000
0000
1000
0100
0010
0001
1000
0100
0010
0001
1000
0001
1000
0001
1000
0001
,
1000
0001
0010
0100
0020
0000
0000
0000
0000
0000
0000
0000
0000
0000
1130
0000
,
0000
0000
2000
0000
0000
3010
0000
0000
,
0001
0000
0200
0000
0000
0000
0000
0000
0000
0000
0000
0000
0310
0000
0000
1000
,
0000
0100
0000
1000
0000
0000
0001
0000
0000
0000
0100
0000
0010
0000
0000
0000
,
1000
0000
0010
0000
0001
0010
1000
0000
,
0002
0000
0000
0000
0000
0200
0003
0000
0000
0000
0320
0000
0000
0000
0000
2030
,
0000
0000
0000
0001
3000
0000
0000
1001
0000
0000
0000
0000
0000
0010
0000
0000
,
0200
0000
0000
0000
1300
0001
1000
0100
0010
0001
1000
0100
0010
0001
1000
0010
,
1000
0010
0100
0001
0100
0001
0010
0100
1000
0001
0010
0100
1000
0010
0100
0010
,
0100
0001
1000
0001
1000
0001
1000
0001
0010
0001
0010
0100
0000
0000
0010
0000
,
0000
0001
0000
0100
0000
0000
0010
0000
0000
0100
0000
0010
0000
1000
0000
0000
,
0001
0000
0100
0000
0000
2002
0000
0000
0000
0000
0000
0000
0000
0000
0000
0000
,
0000
0000
3000
0000
0000
0000
0000
0000
0000
0000
0000
0000
0010
0000
0000
1000
,
0000
0100
0200
0003
0000
0000
0000
0000
,
0000
0300
0000
0010
1000
0100
0001
0100
,
1000
0000
0100
0010
0000
0100
0000
0101
,
0000
0010
0000
0100
0010
0000
0010
1000
,
0000
0000
0010
0001
0000
1000
0000
0110
,
0000
0001
0000
0010
1000
0000
1000
0010
,
0000
2200
3000
0310
,
0001
0100
0000
0010
1000
0000
0100
0010
,
0000
2002
0000
0000
0000
0000
3003
0000
;

//---------------dance-single - Basic----------------
#NOTES:
     dance-single:
     Basic:
     Medium:
     7:
     0.503,0.541,0.270,0.459,0.198,310.000,30.000,51.000,0.000,0.000:
0000
0000
1000
1000
0000
0001
0000
1001
,
0000
1000
0000
0001
1000
0000
1000
0010
,
0000
0000
0001
0001
0000
0010
0000
1001
,
0000
0001
0000
1000
0001
0000
0001
0010
,
0000
2001
0000
3010
,
1000
0001
0000
0000
0010
0000
1000
0100
,
0000
2200
0000
0000
0000
0000
3300
1001
,
0000
1000
0100
1000
0000
0100
0000
0011
,
0000
2000
0000
0000
3001
0000
0002
0000
,
1000
0000
1003
0000
0000
0000
0101
0000
0000
0000
0010
0000
0010
0000
0000
0100
,
0000
0000
0000
0010
0000
2000
0000
0000
0000
0000
3100
0000
0000
0000
0010
0000
,
0001
0000
0000
0000
0000
0000
0001
0000
1000
0000
0001
0000
1000
0000
0000
0010
,
0000
0100
0000
0000
0001
0000
0001
0000
0000
0000
2002
0000
0000
0000
0000
0000
,
3003
0000
0000
0110
0000
0000
1000
1010
,
0000
0000
1000
0010
0000
2000
0000
3020
,
0000
0230
0000
0302
0000
2003
0000
3100
,
0000
1000
0100
0010
0001
1000
0010
0001
,
0010
0000
1000
0000
0000
0020
0000
0000
0000
0000
0000
0000
0000
0000
0030
0000
,
1100
0000
0002
0000
0000
0103
0000
0000
,
1000
0000
0020
0000
0000
0000
0000
0000
0000
0000
0000
0000
0130
0000
0000
0001
,
0000
1000
0000
0001
0000
0000
1000
0000
0000
0000
0100
0000
0100
0000
0000
0000
,
0010
0000
0001
0000
0010
0100
0010
0000
,
2002
0000
0000
0000
0000
0000
3000
0000
0000
0000
0203
0000
0000
0000
0000
0302
,
0000
0000
0000
1000
0003
0000
0000
1001
0000
0000
0000
0000
0000
0100
0000
0000
,
0020
0000
1030
0100
1000
0010
1000
0001
,
1000
0001
0010
0001
0100
0001
1000
0100
,
0010
0000
0100
0000
1000
0000
0100
0000
0010
0000
0000
0001
0000
0000
1000
0000
,
0000
0100
0000
0010
0000
0000
0001
0000
0000
0010
0000
0100
0000
1000
0000
0000
,
0100
0000
0010
0000
0000
2002
0000
0000
0000
0000
0000
0000
0000
0000
0000
0000
,
0000
0000
0003
0000
0000
0000
0000
0000
0000
0000
0000
0000
0010
0000
0000
0100
,
0000
0001
0002
3000
0000
0000
0000
0000
,
0000
0003
0000
1000
0100
0010
0001
0001
,
1000
0000
0100
0100
0000
0010
0000
1010
,
0000
0001
0000
0010
0100
0000
0010
0100
,
0000
0000
0010
0010
0000
0100
0000
0011
,
0000
1000
0000
0100
0010
0000
0010
0100
,
0000
1002
0000
0103
,
0001
1000
0000
0000
0010
0000
0001
0100
,
0000
0022
0000
0000
0000
0000
0033
1001
,
0000
0001
0010
0001
0000
0100
0000
1100
,
0000
2000
0000
0000
3001
0000
0002
0000
,
1000
0000
1003
0000
0000
0000
1010
0000
0000
0000
0100
0000
0100
0000
0000
0010
,
0000
0000
0000
0010
0000
0002
0000
0000
0000
0000
1003
0000
0000
0000
0001
0000
,
0100
0000
0000
0000
0000
0000
0010
0000
1000
0000
0010
0000
0100
0000
0000
0010
,
0000
0100
0000
0000
0001
0000
0001
0000
0000
0000
0220
0000
0000
0000
0000
0000
,
0330
0000
0000
0110
0000
0000
0001
0101
,
0000
0000
1000
0010
0000
0200
0000
0302
,
0000
0023
0000
0032
0000
2003
0000
3010
,
0000
1000
0010
0100
0001
1000
0100
1000
,
0001
0100
0020
0000
0000
0000
0000
0130
,
0000
0000
2000
0000
0000
3010
0000
0000
,
0001
0000
0200
0000
0000
0000
0000
0000
0000
0000
0000
0000
0310
0000
0000
1000
,
0000
0001
0000
1000
0000
0000
0001
0000
0000
0000
0100
0000
0100
0000
0000
0000
,
0001
0000
0010
0000
0100
1000
0100
0000
,
0002
0000
0000
0000
0000
0200
0003
0000
0000
0000
0320
0000
0000
0000
0000
2030
,
0000
0000
0000
0001
3000
0000
0000
1001
0000
0000
0000
0000
0000
0010
0000
0000
,
0200
0000
1300
0001
0100
0010
1000
0001
,
0100
1000
0100
0001
0010
0001
1000
0010
,
1000
0000
0100
0000
0010
0000
0001
0010
0001
0010
0001
0100
0000
0000
0010
0000
,
0000
1000
0000
0100
0000
0000
0010
0000
0000
0100
0000
0010
0000
0001
0000
0000
,
1000
0000
0100
0000
0000
2002
0000
0000
0000
0000
0000
0000
0000
0000
0000
0000
,
0000
0000
3000
0000
0000
0000
0000
0000
0000
0000
0000
0000
0010
0000
0000
1000
,
0000
0100
0200
0003
0000
0000
0000
0000
,
0000
0300
0000
0010
1000
0100
0001
0100
,
1000
0000
1000
0001
0000
0100
0000
0101
,
0000
0010
0000
0100
0010
0000
0010
1000
,
0000
0000
0010
0100
0000
1000
0000
0101
,
0000
0001
0000
0010
1000
0000
1000
0100
,
0000
1200
0000
0310
,
0001
0100
0000
0000
1000
0000
0100
0001
,
0000
2002
0000
0000
0000
0000
3003
0000
;

//---------------dance-single - ----------------
#NOTES:
     dance-single:
     :
     Easy:
     5:
     0.417,0.526,0.495,0.216,0.009,245.000,55.000,24.000,0.000,0.000:
0000
0000
1000
0000
1000
0000
0000
1001
,
0000
0001
0000
0010
0000
0100
0000
1000
,
0000
0000
0001
0000
0001
0000
0000
1001
,
0000
1000
0000
0100
0000
0010
0000
0001
,
0000
0012
0000
1003
,
0100
0010
0100
1000
,
0000
2100
0000
0000
0000
0000
3001
0000
,
0000
0010
0010
0000
1000
0000
1000
0000
,
0001
1000
0100
0001
,
0010
0001
1000
0010
,
0010
0220
0000
0330
,
0001
0010
0001
1000
,
0001
0100
0010
0101
,
1010
0100
0001
0010
,
0100
1000
0001
1000
,
0100
0000
0010
0000
0001
0000
0100
0010
,
0000
1100
0000
1010
0000
0011
0000
0101
,
0000
0110
0000
2002
0000
0000
0000
3003
,
1001
0000
2000
0000
0000
3200
0000
0000
,
0310
0000
0020
0000
0000
0000
0031
1000
,
0001
0100
0010
1000
,
0100
0100
0010
0010
,
0001
0100
1000
0100
,
0001
0010
0001
0010
,
0100
1100
1100
1001
,
0101
0101
0110
1010
,
1010
1001
0101
0101
,
0001
0001
0000
0001
1000
0001
0000
1000
,
1000
0000
0000
0000
0000
2001
0000
0000
0000
0000
0000
0000
0000
0000
0000
0000
,
0000
0000
0000
0000
0000
0000
0000
0100
,
0000
0000
0010
0020
3000
0000
0000
0000
,
0000
0030
0000
1000
0001
1000
0001
1000
,
0001
0000
0010
0000
0010
0000
0000
0101
,
0000
0010
0000
0100
0000
0001
0000
0010
,
0000
0000
0100
0000
0100
0000
0000
1010
,
0000
0100
0000
0010
0000
1000
0000
0100
,
0000
2100
0000
3100
,
0010
0001
0010
0100
,
0000
0012
0000
0000
0000
0000
1003
0000
,
0000
0100
0100
0000
0001
0000
0001
0000
,
1000
0001
0010
1000
,
0100
1000
0001
0100
,
0100
0220
0000
0330
,
1000
0100
1000
0001
,
1000
0010
0100
0011
,
1100
0010
1000
0100
,
0010
0001
1000
0001
,
0010
0000
0100
0000
1000
0000
0010
0100
,
0000
1010
0000
0011
0000
1100
0000
0101
,
0000
1001
0000
0220
0000
0000
0000
0330
,
0110
0000
0002
0000
0000
0023
0000
0000
,
0130
0000
0200
0000
0000
0000
1300
0001
,
1000
0010
0100
0001
,
0010
0010
0100
0100
,
1000
0010
0001
0010
,
1000
0100
1000
0100
,
0010
0101
1001
1100
,
1010
0110
0011
0110
,
1100
0000
1001
0000
0110
0000
0011
1000
,
1000
0000
0001
1000
0001
0000
1000
1000
,
0000
0000
0000
0000
0000
1002
0000
0000
0000
0000
0000
0000
0000
0000
0000
0000
,
0000
0000
0000
0000
0000
0000
0000
0010
,
0000
0000
0100
0200
0003
0000
0000
0000
,
0000
0300
0000
0001
0010
0001
1000
0100
,
1000
0000
0010
0000
0100
0000
0000
0101
,
0000
0010
0000
1000
0000
0010
0000
0100
,
0000
0000
0001
0000
0010
0000
0000
1010
,
0000
0001
0000
0100
0000
0010
0000
0001
,
0000
2002
0000
3003
;
