#TITLE:Chibi Maruko Chan;
#SUBTITLE:- Dancing Pompokolin [Remix];
#ARTIST:Captain Jack;
#TITLETRANSLIT:;
#SUBTITLETRANSLIT:;
#ARTISTTRANSLIT:;
#CREDIT:;
#BANNER:pompokolinlogo.png;
#BACKGROUND:pompokolinbg.png;
#LYRICSPATH:;
#CDTITLE:;
#MUSIC:pompokolin.mp3;
#OFFSET:1.478;
#SAMPLESTART:40.776;
#SAMPLELENGTH:12.000;
#SELECTABLE:YES;
#BPMS:0.000=142.000;
#STOPS:;
#BGCHANGES:;
// cache tags:
#FIRSTBEAT:12.000;
#LASTBEAT:224.000;
#SONGFILENAME:Songs/Anime Songs/DancingPompokolin/pompokolin.sm;
#HASMUSIC:1;
#HASBANNER:1;
#MUSICLENGTH:94.093;
// end cache tags

//---------------dance-single - ----------------
#NOTES:
     dance-single:
     :
     Easy:
     1:
     0.100,0.119,0.000,0.000,0.000,66.000,0.000,0.000,0.000,0.000:  // measure 1
0000
0000
0000
0000
,  // measure 2
0000
0000
0000
0000
,  // measure 3
0000
0000
0000
0000
,  // measure 4
1000
0000
0000
0000
,  // measure 5
1000
0000
0000
0000
,  // measure 6
0001
0000
0000
0000
,  // measure 7
0001
0000
0000
0000
,  // measure 8
0010
0000
0010
0000
,  // measure 9
0010
0000
0010
0000
,  // measure 10
0001
0000
0000
0000
,  // measure 11
1000
0000
0000
0000
,  // measure 12
0100
0000
0000
0000
,  // measure 13
0010
0000
0000
0000
,  // measure 14
0001
0000
0000
0000
,  // measure 15
1000
0000
0000
0000
,  // measure 16
0100
0000
0000
0000
,  // measure 17
0010
0000
0000
0000
,  // measure 18
0001
0000
0000
0000
,  // measure 19
0001
0000
0000
0000
,  // measure 20
1000
0000
0000
0000
,  // measure 21
1000
0000
0000
0000
,  // measure 22
0100
0000
0000
0000
,  // measure 23
0010
0000
0000
0000
,  // measure 24
0001
0000
0000
0000
,  // measure 25
1000
0000
0000
0000
,  // measure 26
0001
0000
0000
0000
,  // measure 27
1000
0000
1000
0000
,  // measure 28
0001
0000
0000
0000
,  // measure 29
1000
0000
1000
0000
,  // measure 30
0001
0000
0000
0000
,  // measure 31
1000
0000
0000
0000
,  // measure 32
0001
0000
0000
0000
,  // measure 33
1000
0000
1000
0000
,  // measure 34
0010
0000
0000
0000
,  // measure 35
0100
0000
0100
0000
,  // measure 36
0010
0000
0000
0000
,  // measure 37
0100
0000
0100
0000
,  // measure 38
0010
0000
0000
0000
,  // measure 39
0100
0000
0000
0000
,  // measure 40
0010
0000
0000
0000
,  // measure 41
0010
0000
0000
0000
,  // measure 42
1000
0000
0000
0000
,  // measure 43
0001
0000
0001
0000
,  // measure 44
1000
0000
0000
0000
,  // measure 45
0001
0000
0001
0000
,  // measure 46
1000
0000
0000
0000
,  // measure 47
0001
0000
0000
0000
,  // measure 48
1000
0000
0000
0000
,  // measure 49
0001
0000
0001
0000
,  // measure 50
0010
0000
0000
0000
,  // measure 51
0100
0000
0100
0000
,  // measure 52
0010
0000
0000
0000
,  // measure 53
0100
0000
0100
0000
,  // measure 54
0010
0000
0000
0000
,  // measure 55
0001
0000
0000
0000
,  // measure 56
1000
0000
0000
0000
,  // measure 57
0100
0000
0000
0000
;

//---------------dance-single - ----------------
#NOTES:
     dance-single:
     :
     Medium:
     4:
     0.329,0.327,0.287,0.000,0.000,190.000,27.000,0.000,0.000,0.000:  // measure 1
0000
0000
0000
0000
,  // measure 2
0000
0000
0000
0000
,  // measure 3
0000
0000
0000
0000
,  // measure 4
1000
0100
0001
0100
,  // measure 5
0010
0100
0010
0100
,  // measure 6
0001
1000
0100
0000
,  // measure 7
0010
0001
0100
0010
,  // measure 8
1000
0100
0001
0010
,  // measure 9
1000
0100
0010
1001
,  // measure 10
0001
1000
0100
0001
,  // measure 11
1000
0010
0100
0000
,  // measure 12
0001
0001
1000
1000
,  // measure 13
0010
0100
0010
0000
,  // measure 14
1000
0100
0010
0001
,  // measure 15
1000
0010
0100
0000
,  // measure 16
0001
0001
1000
1000
,  // measure 17
0100
0010
0100
0000
,  // measure 18
1000
0001
0110
0000
,  // measure 19
0001
1000
0010
0100
,  // measure 20
0001
1000
0110
0000
,  // measure 21
1000
0100
0010
0001
,  // measure 22
1000
1000
0100
0100
,  // measure 23
0010
0010
0001
0001
,  // measure 24
1000
0010
0100
0001
,  // measure 25
0010
0000
0000
0000
,  // measure 26
0100
1001
0010
1001
,  // measure 27
0010
0100
0001
1000
,  // measure 28
0010
1001
0100
1001
,  // measure 29
0010
0100
1000
0001
,  // measure 30
0100
0010
1001
0000
,  // measure 31
0100
0100
0010
0010
,  // measure 32
1001
0000
0000
0000
,  // measure 33
0001
1000
0001
1000
,  // measure 34
0100
1001
0010
1001
,  // measure 35
0010
0100
0001
1000
,  // measure 36
0010
1001
0100
1001
,  // measure 37
0010
0100
1000
0001
,  // measure 38
0100
0010
1001
0000
,  // measure 39
0100
0100
0010
0010
,  // measure 40
1001
0000
0000
0000
,  // measure 41
0100
0000
0000
0000
,  // measure 42
0010
1001
0100
1001
,  // measure 43
0010
0001
1000
0100
,  // measure 44
0010
1001
0100
1001
,  // measure 45
0010
1000
0001
0100
,  // measure 46
0010
1001
0100
0000
,  // measure 47
1000
0100
0001
0100
,  // measure 48
1001
0100
0010
0001
,  // measure 49
1000
1000
0100
0010
,  // measure 50
0001
1001
1000
1001
,  // measure 51
0010
0100
1000
0010
,  // measure 52
1001
0100
0010
1001
,  // measure 53
0100
0100
0010
0010
,  // measure 54
1001
0100
0010
0000
,  // measure 55
1000
0100
0010
0001
,  // measure 56
1000
0001
0100
0010
,  // measure 57
1001
0000
0000
0000
;

//---------------dance-single - ----------------
#NOTES:
     dance-single:
     :
     Hard:
     7:
     0.421,0.446,0.032,0.000,0.000,274.000,3.000,0.000,0.000,0.000:  // measure 1
0000
0000
0000
0000
,  // measure 2
0000
0000
0000
0000
,  // measure 3
0000
0000
0000
0000
,  // measure 4
1000
0100
0001
0100
1000
0100
0001
0100
,  // measure 5
1000
0010
0000
0010
0100
0001
0010
0000
,  // measure 6
0100
1000
0010
0100
0001
0000
0000
1000
,  // measure 7
0000
1000
0100
0010
0001
0000
1000
0000
,  // measure 8
0010
0100
1000
0001
0100
0010
0001
1000
,  // measure 9
0010
0100
1000
0001
0100
0000
0010
0000
,  // measure 10
1000
0000
0100
0010
0001
0000
0100
0010
,  // measure 11
1000
0001
0000
0001
0000
1000
0001
1000
,  // measure 12
0010
0000
0100
0001
0010
0000
0100
1000
,  // measure 13
0001
0100
0000
0100
0000
0010
1000
0100
,  // measure 14
0010
0000
0001
1000
0100
0000
1000
0001
,  // measure 15
0010
0100
0000
0100
0000
1000
0001
0100
,  // measure 16
0010
1000
0010
1000
0001
0100
0001
0100
,  // measure 17
0010
1000
0000
0101
0000
0010
0010
0000
,  // measure 18
0000
1000
0100
1000
0100
0000
0000
0000
,  // measure 19
0001
0001
0001
0100
0000
0010
0000
1000
,  // measure 20
0000
0100
0010
0001
1000
0000
0000
0000
,  // measure 21
0100
0100
0100
0010
0000
0001
0000
1000
,  // measure 22
1000
0000
0001
0000
0100
0010
0000
1000
,  // measure 23
0000
0000
0100
0000
0010
0001
0000
1100
,  // measure 24
0000
0000
0000
0000
,  // measure 25
0000
0001
0000
0001
0010
1000
0100
0001
,  // measure 26
1000
0000
0100
0010
0001
0000
1000
0010
,  // measure 27
0000
0100
0000
0100
1000
0001
1000
0000
,  // measure 28
0010
0000
0001
1000
0100
0000
0001
1000
,  // measure 29
0000
0100
0000
0100
0001
1000
0001
0000
,  // measure 30
0100
0000
1000
0001
1000
0000
0000
0000
,  // measure 31
0000
0010
0000
0010
0100
0010
0001
1000
,  // measure 32
0010
0000
0000
0000
,  // measure 33
0000
0100
0000
0100
1000
0001
0100
0010
,  // measure 34
1000
0000
0100
0010
0001
0000
0100
0010
,  // measure 35
0000
1000
0000
1000
0001
0100
0010
0000
,  // measure 36
1000
0000
0001
0100
1000
0000
0001
0100
,  // measure 37
0000
0010
0100
0010
1000
0001
0100
0000
,  // measure 38
0010
0000
1000
0001
0100
0000
0000
0010
,  // measure 39
0000
0010
1000
0100
0010
0000
0001
1000
,  // measure 40
0000
0000
0100
0000
,  // measure 41
0010
0000
0000
0000
,  // measure 42
0001
0000
1000
0100
0001
0000
0010
0100
,  // measure 43
0000
0001
0000
0001
1000
0100
0010
0000
,  // measure 44
0001
0000
1000
0100
0001
0000
0010
0100
,  // measure 45
0000
0001
0000
0001
1000
0100
0010
0000
,  // measure 46
0001
0000
1000
0100
0010
0000
0000
0000
,  // measure 47
0000
0001
0000
0001
0100
0010
1000
0100
,  // measure 48
0010
0000
0000
0000
,  // measure 49
0000
0001
0000
0001
0010
1000
0100
0010
,  // measure 50
1000
0000
0001
0010
0100
0000
0001
1000
,  // measure 51
0000
0100
0000
0100
0010
1000
0001
0000
,  // measure 52
0010
0000
1000
0100
0001
0000
0010
0100
,  // measure 53
0000
0001
1000
0001
0010
0100
1000
0000
,  // measure 54
0001
0000
1000
0010
0100
0000
0000
0001
,  // measure 55
0000
0001
1000
0100
0010
0000
0001
0100
,  // measure 56
0010
0000
1000
0000
,  // measure 57
1001
0000
0000
0000
;
