#TITLE:Gaussian Mist;
#SUBTITLE:;
#ARTIST:Kang;
#TITLETRANSLIT:;
#SUBTITLETRANSLIT:;
#ARTISTTRANSLIT:;
#CREDIT:Mad Matt;
#BANNER:../Tachyon Spectrum-bn.png;
#BACKGROUND:../Tachyon Spectrum-bg.png;
#LYRICSPATH:;
#CDTITLE:;
#MUSIC:Gaussian Mist.ogg;
#OFFSET:-0.599;
#SAMPLESTART:75.390;
#SAMPLELENGTH:15.920;
#SELECTABLE:YES;
#DISPLAYBPM:267.000;
#BPMS:0.000=266.950,153.000=265.000,157.000=267.000,418.000=266.000,422.000=267.000,437.000=271.000,441.000=270.000,442.000=267.000;
#STOPS:;
#BGCHANGES:;
// cache tags:
#FIRSTBEAT:0.000;
#LASTBEAT:490.000;
#SONGFILENAME:Songs/Tachyon Spectrum/Gaussian Mist - [Mad Matt]/Gaussian Mist.sm;
#HASMUSIC:1;
#HASBANNER:1;
#MUSICLENGTH:114.024;
// end cache tags

//---------------dance-single - Mad Matt----------------
#NOTES:
     dance-single:
     Mad Matt:
     Challenge:
     20:
     1.000,1.000,0.009,0.105,0.908,981.000,1.000,12.000,0.000,0.000:



2002
0000
0000
0000
0000
0000
3000
0003
,
1000
0010
0100
0010
1000
0001
0010
0100
1000
0010
0100
0001
1000
0001
0010
0100
,
1000
0010
1000
0010
,
0100
0001
1000
0010
,
1000
0100
1000
0010
,
0100
0001
1000
0100
,
1000
0001
1000
0100
,
0010
0100
1000
0001
,
0001
1000
0100
1000
,
0001
0010
0100
1000
0010
0100
0001
1000
0001
0010
0100
1000
0010
0100
0001
1000
,
0002
0000
0000
0000
0100
0000
0000
0000
1000
0000
0000
0003
0100
0000
0001
1000
,
0002
1000
0100
1000
,
0010
0000
0100
0000
1000
0000
0100
0003
,
0002
0003
2000
3000
2000
0000
0010
3000
,
2000
0000
0000
0000
0001
0000
0000
0000
0100
0000
0000
0000
3001
0000
1000
0100
,
2000
0000
0010
0000
0001
0000
0010
3000
,
2000
0000
0010
0000
0001
0000
0100
3000
,
0001
0100
0010
1000
0100
0010
0001
1000
0001
0100
0010
1000
0100
0010
0001
1000
,
0010
0100
0010
1000
0010
0100
0001
1000
,
0001
0010
0001
0100
0010
1000
0010
0100
,
0010
1000
0001
1000
0010
0100
0010
1000
,
0001
0010
0100
1000
0100
0010
0001
1000
,
0001
0100
0001
0010
0100
1000
0100
0010
,
0100
1000
0002
0000
0000
0000
0000
0000
,
1003
0010
0100
0001
0100
0010
1000
0001
,
1000
0100
1000
0010
0100
0001
0100
0010
,
0100
0001
1000
0001
0100
0010
0100
0001
,
1000
0100
0010
0001
0010
0100
1000
0001
,
1000
0010
1000
0100
0010
0001
0010
0100
,
0010
0001
1000
0100
0010
0001
0100
0001
,
1000
0010
0100
0001
0010
0100
1000
0001
0100
0001
0010
0001
1000
0100
1000
0010
,
1000
0001
0100
0010
1000
0001
1000
0100
0010
0001
1000
0001
0100
0010
1000
0001
,
1000
0100
0010
0001
0100
0010
1000
0001
0010
0001
0100
0001
1000
0010
1000
0100
,
1000
0001
0010
0100
1000
0001
1000
0010
0100
0001
1000
0001
0010
0100
1000
0001
,
1000
0010
0100
0001
0010
0100
1000
0001
1000
0010
0100
0010
1000
0100
0010
0100
,
1000
0001
0010
0100
0010
0001
0100
0010
0100
0001
1000
0001
0010
0100
1000
0010
,
0100
0001
1000
0001
0010
0100
1000
0001
0100
0010
0100
0001
0010
0100
0010
0001
,
1000
0001
0100
0010
1000
0001
1000
0100
0010
0100
1000
0010
0100
0010
1000
0001
,
1000
0100
0010
0001
0100
0010
1000
0001
1000
0100
1000
0001
0010
0001
0100
0001
,
1000
0010
1000
0001
0100
0001
1000
0100
,
1000
0000
0001
0000
0100
0000
0001
0000
0010
0000
0001
0000
1000
0100
1000
0000
,
0001
0100
0001
1000
0010
1000
0001
0010
,
0001
0000
1000
0000
0010
0000
1000
0000
0100
0000
1000
0000
0001
0010
0001
0000
,
1000
0100
1000
0001
0010
0001
1000
0010
,
1000
0000
0001
0000
0010
0000
0001
0000
0100
0000
0001
0000
1000
0010
1000
0000
,
0001
0010
0001
1000
0100
1000
0001
0100
,
0001
0100
0010
0100
0001
1000
0100
0010
0001
1000
0001
0100
0010
1000
0100
0010
,
0001
0000
0100
0000
0001
0000
1000
0000
0010
0000
1000
0000
0001
0000
1000
0100
,
1000
0001
0100
0001
0010
0001
1000
0100
,
1000
0010
1000
0001
0100
0001
1000
0100
,
1000
0001
0100
0001
0010
0001
1000
0001
,
1000
0000
0100
0000
1000
0000
0001
0000
0010
0000
0001
0000
1000
0000
0001
0100
,
0001
1000
0100
1000
0010
1000
0001
1000
,
0001
0100
0001
1000
0010
0100
0001
1000
,
0001
0010
0100
1000
0010
0100
0001
1000
0001
0010
0100
1000
0010
0100
0001
1000
,
0100
0010
0100
1000
,
0010
1000
0001
1000
,
0100
0010
0100
1000
,
0001
0100
0010
1000
,
0100
1000
0010
0100
,
0010
1000
0100
0010
,
0001
0100
0010
1000
,
0100
1000
0001
0100
,
0010
1000
0100
0010
,
0001
0000
0000
1000
,
0001
0000
0400
0000
,
0000
0000
0000
0300
,
0001
0010
0001
0100
0001
1000
0100
1000
,
0010
1000
0001
0100
0001
1000
0010
1000
,
0001
0100
0001
0010
0001
1000
0100
1000
,
0001
0100
0001
1000
0001
0010
0001
1000
,
0010
1000
0100
1000
0010
1000
0001
1000
,
0100
1000
0001
0100
0001
1000
0001
0010
,
0001
0100
0001
1000
0010
1000
0100
1000
,
0001
0100
0001
0010
0001
1000
0100
1000
,
0010
1000
0001
0010
0001
1000
0001
0100
,
0010
0000
0000
0100
,
0001
0000
1000
0000
,
0100
0000
0000
0000
,
1000
0010
0100
0001
0010
0100
1000
0001
1000
0010
0100
0001
0010
0100
1000
0001
,
0100
0010
0100
0001
1000
0001
0100
0001
,
1000
0010
0100
0001
1000
0001
0010
0001
,
1000
0010
0100
0001
0010
0001
0100
0001
,
1000
0100
0010
0001
1000
0001
0010
0100
,
1000
0010
0100
0001
1000
0001
0100
0001
,
1000
0010
0100
0001
1000
0001
0010
0001
,
1000
0010
0100
0001
0010
0001
0100
0001
,
1000
0100
0010
0000
,
0001
0010
0100
0010
0001
1000
0010
0100
0010
1000
0001
0010
0100
1000
0010
0100
,
0001
1000
0001
0010
0100
0010
0001
1000
0010
0100
0001
1000
0100
1000
0010
0100
,
0001
1000
0001
0010
0100
1000
0001
0100
0010
0100
0001
0010
0100
0010
0001
1000
,
0001
0100
0010
1000
0100
1000
0001
0100
0010
1000
0100
0010
0100
1000
0001
0100
,
0010
1000
0001
1000
0100
0010
0100
1000
0010
0100
0010
1000
0100
0010
0100
1000
,
0001
1000
0010
0100
0001
0010
0100
1000
0001
1000
0010
0100
0010
1000
0001
1000
,
0100
0010
0001
0100
0001
1000
0100
0010
0100
1000
0001
0100
0010
0100
0001
1000
,
0100
0010
0001
0100
0010
1000
0001
1000
0100
0010
0001
0100
0010
1000
0001
1000
,
0100
0010
0100
1000
0010
0100
0001
0010
0001
1000
0010
0100
0001
1000
0001
0010
,
0100
1000
0010
0100
0001
1000
0001
0010
0100
1000
0010
0100
0001
1000
0001
0010
,
0100
1000
0001
0100
0010
0100
0001
1000
,
0100
0010
0100
0010
0001
1000
0010
1000
,
0100
0010
0100
0010
0001
0010
0100
1000
,
0001
0100
0001
0100
0010
1000
0100
0010
,
0001
0010
0100
0010
0001
1000
0010
0100
,
0001
1000
0100
1000
0010
0100
0001
1000
,
0100
1000
0010
0100
0001
0010
0001
0100
,
0001
1000
0100
0010
0001
0100
0010
1000
,
0001
0010
0100
0010
0001
1000
0010
0100
,
0001
0010
0001
1000
0100
1000
0010
1000
,
0001
0100
0010
1000
0100
1000
0010
0100
,
0001
1000
0100
0010
0001
0010
0100
1000
,
0020
0000
0000
0000
,
0000
0000
0000
0000
,
1030
0100
0010
0001
,
0100
0001
1000
0001
,
0010
0100
0010
0001
,
1000
0100
0010
0001
,
0100
0001
0010
0100
,
0010
0001
0100
0010
,
1000
0100
0010
0001
,
0100
0001
1000
0100
,
0010
0001
0100
0010
,
1000
0000
0000
0001
,
1000
0000
0010
0000
;

//---------------dance-single - Tachyon Alpha----------------
#NOTES:
     dance-single:
     Tachyon Alpha:
     Easy:
     17:
     1.000,1.000,0.105,1.000,0.908,980.000,12.000,417.000,0.000,0.000:

2002
0000
0000
3003
,
1000
0100
0010
0001
1000
0100
1000
0100
0010
0001
0010
0001
1000
0100
0010
0100
,
1000
0100
1000
0001
,
0100
0010
1000
0010
,
0110
0100
0001
1000
,
0100
1000
0001
1000
,
1001
0001
0100
0001
,
1000
0100
0010
0100
,
1100
0001
1000
0001
,
1000
0100
0010
0001
1000
0100
0010
0100
0010
0001
1000
0100
0010
0001
0010
0100
,
2000
0000
0000
0000
0001
0000
0000
0000
0100
0000
0000
0000
3001
0000
1000
0100
,
2000
0001
0100
3001
,
1000
0010
0100
0001
,
4000
0000
0000
3000
0100
0000
0010
0000
,
0002
0000
0000
0000
1000
0000
0000
0000
0100
0000
0000
0000
1003
0000
0001
0100
,
0002
1000
0100
1003
,
0100
1000
0010
0100
,
0001
0100
0001
1000
0010
1000
0001
0100
0001
1000
0010
0100
0001
1000
0010
0100
,
0002
1003
0001
0100
0010
1000
0010
0100
,
0001
1000
0100
1000
0001
1000
0001
0100
,
0001
1000
0010
0100
0010
1000
0010
1000
,
0002
0103
0001
0100
0001
1000
0100
1000
,
0100
1000
0001
0010
0001
1000
0100
0010
,
0001
0100
0020
0000
0000
0000
0000
0030
,
2000
3001
0100
0010
0100
0001
1000
0001
,
1000
0001
0100
0010
0100
0010
1000
0010
,
1000
0010
0100
0001
0100
0001
1000
0100
,
0020
0000
0032
0003
0200
0300
0002
0003
2000
3000
0002
0003
0200
0300
0002
0003
,
2000
3000
0200
0300
2000
3000
0002
0003
0200
0300
0002
0003
2000
3000
0002
0003
,
0200
0300
0002
0003
2000
3000
0020
0030
2000
3000
0002
0003
2000
3000
0200
0300
,
2000
3000
0000
0000
0000
0000
0000
0000
0000
0000
0000
0000
0002
0003
0000
0000
0000
0000
0000
0000
0000
0000
0000
0000
0200
0300
0000
0000
0000
0000
0000
0000
0000
0000
0000
0000
0020
0030
0000
0000
0000
0000
0000
0000
0000
0000
0000
0000
2000
3000
0000
0000
0000
0000
0000
0000
0000
0000
0000
0000
0002
0003
0000
0000
0000
0000
0000
0000
0000
0000
0000
0000
0200
0300
0000
0000
0000
0000
0000
0000
0000
0000
0000
0000
0020
0030
0000
0000
0000
0000
0000
0000
0000
0000
0000
0000
2000
3000
0000
0000
0000
0000
0000
0000
0000
0000
0000
0000
0002
0003
0000
0000
0000
0000
0000
0000
0000
0000
0000
0000
2000
3000
0000
0000
0000
0000
0000
0000
0000
0000
0000
0000
0002
0003
0000
0000
0000
0000
0000
0000
0000
0000
0000
0000
2000
3000
0000
0000
0000
0000
0000
0000
0000
0000
0000
0000
0002
0003
0000
0000
0000
0000
0000
0000
0000
0000
0000
0000
2000
3000
0000
0000
0000
0000
0000
0000
0000
0000
0000
0000
0002
0003
0000
0000
0000
0000
0000
0000
0000
0000
0000
0000
,
2000
3000
0000
0000
0000
0000
0000
0000
0000
0000
0000
0000
0020
0030
0000
0000
0000
0000
0000
0000
0000
0000
0000
0000
0200
0300
0000
0000
0000
0000
0000
0000
0000
0000
0000
0000
0002
0003
0000
0000
0000
0000
0000
0000
0000
0000
0000
0000
2000
3000
0000
0000
0000
0000
0000
0000
0000
0000
0000
0000
0020
0030
0000
0000
0000
0000
0000
0000
0000
0000
0000
0000
0200
0300
0000
0000
0000
0000
0000
0000
0000
0000
0000
0000
0002
0003
0000
0000
0000
0000
0000
0000
0000
0000
0000
0000
2000
3000
0000
0000
0000
0000
0000
0000
0000
0000
0000
0000
0002
0003
0000
0000
0000
0000
0000
0000
0000
0000
0000
0000
2000
3000
0000
0000
0000
0000
0000
0000
0000
0000
0000
0000
0002
0003
0000
0000
0000
0000
0000
0000
0000
0000
0000
0000
2000
3000
0000
0000
0000
0000
0000
0000
0000
0000
0000
0000
0002
0003
0000
0000
0000
0000
0000
0000
0000
0000
0000
0000
2000
3000
0000
0000
0000
0000
0000
0000
0000
0000
0000
0000
0002
0003
0000
0000
0000
0000
0000
0000
0000
0000
0000
0000
,
2000
3000
0000
0000
0000
0000
0000
0000
0000
0000
0000
0000
0200
0300
0000
0000
0000
0000
0000
0000
0000
0000
0000
0000
2000
3000
0000
0000
0000
0000
0000
0000
0000
0000
0000
0000
0200
0300
0000
0000
0000
0000
0000
0000
0000
0000
0000
0000
0020
0030
0000
0000
0000
0000
0000
0000
0000
0000
0000
0000
0002
0003
0000
0000
0000
0000
0000
0000
0000
0000
0000
0000
0020
0030
0000
0000
0000
0000
0000
0000
0000
0000
0000
0000
0002
0003
0000
0000
0000
0000
0000
0000
0000
0000
0000
0000
2000
3000
0000
0000
0000
0000
0000
0000
0000
0000
0000
0000
0200
0300
0000
0000
0000
0000
0000
0000
0000
0000
0000
0000
2000
3000
0000
0000
0000
0000
0000
0000
0000
0000
0000
0000
0200
0300
0000
0000
0000
0000
0000
0000
0000
0000
0000
0000
0020
0030
0000
0000
0000
0000
0000
0000
0000
0000
0000
0000
0002
0003
0000
0000
0000
0000
0000
0000
0000
0000
0000
0000
0020
0030
0000
0000
0000
0000
0000
0000
0000
0000
0000
0000
0002
0003
0000
0000
0000
0000
0000
0000
0000
0000
0000
0000
,
2000
3000
0000
0000
0000
0000
0000
0000
0000
0000
0000
0000
0200
0300
0000
0000
0000
0000
0000
0000
0000
0000
0000
0000
0020
0030
0000
0000
0000
0000
0000
0000
0000
0000
0000
0000
0002
0003
0000
0000
0000
0000
0000
0000
0000
0000
0000
0000
2000
3000
0000
0000
0000
0000
0000
0000
0000
0000
0000
0000
0200
0300
0000
0000
0000
0000
0000
0000
0000
0000
0000
0000
0020
0030
0000
0000
0000
0000
0000
0000
0000
0000
0000
0000
0002
0003
0000
0000
0000
0000
0000
0000
0000
0000
0000
0000
2000
3000
0000
0000
0000
0000
0000
0000
0000
0000
0000
0000
0200
0300
0000
0000
0000
0000
0000
0000
0000
0000
0000
0000
2000
3000
0000
0000
0000
0000
0000
0000
0000
0000
0000
0000
0200
0300
0000
0000
0000
0000
0000
0000
0000
0000
0000
0000
2000
3000
0000
0000
0000
0000
0000
0000
0000
0000
0000
0000
0200
0300
0000
0000
0000
0000
0000
0000
0000
0000
0000
0000
2000
3000
0000
0000
0000
0000
0000
0000
0000
0000
0000
0000
0200
0300
0000
0000
0000
0000
0000
0000
0000
0000
0000
0000
,
2000
3000
0000
0000
0000
0000
0000
0000
0000
0000
0000
0000
0002
0003
0000
0000
0000
0000
0000
0000
0000
0000
0000
0000
2000
3000
0000
0000
0000
0000
0000
0000
0000
0000
0000
0000
0002
0003
0000
0000
0000
0000
0000
0000
0000
0000
0000
0000
2000
3000
0000
0000
0000
0000
0000
0000
0000
0000
0000
0000
0020
0030
0000
0000
0000
0000
0000
0000
0000
0000
0000
0000
0200
0300
0000
0000
0000
0000
0000
0000
0000
0000
0000
0000
0002
0003
0000
0000
0000
0000
0000
0000
0000
0000
0000
0000
2000
3000
0000
0000
0000
0000
0000
0000
0000
0000
0000
0000
0020
0030
0000
0000
0000
0000
0000
0000
0000
0000
0000
0000
0200
0300
0000
0000
0000
0000
0000
0000
0000
0000
0000
0000
0002
0003
0000
0000
0000
0000
0000
0000
0000
0000
0000
0000
2000
3000
0000
0000
0000
0000
0000
0000
0000
0000
0000
0000
0020
0030
0000
0000
0000
0000
0000
0000
0000
0000
0000
0000
0200
0300
0000
0000
0000
0000
0000
0000
0000
0000
0000
0000
0002
0003
0000
0000
0000
0000
0000
0000
0000
0000
0000
0000
,
2000
3000
0000
0000
0000
0000
0000
0000
0000
0000
0000
0000
0002
0003
0000
0000
0000
0000
0000
0000
0000
0000
0000
0000
2000
3000
0000
0000
0000
0000
0000
0000
0000
0000
0000
0000
0002
0003
0000
0000
0000
0000
0000
0000
0000
0000
0000
0000
2000
3000
0000
0000
0000
0000
0000
0000
0000
0000
0000
0000
0002
0003
0000
0000
0000
0000
0000
0000
0000
0000
0000
0000
2000
3000
0000
0000
0000
0000
0000
0000
0000
0000
0000
0000
0200
0300
0000
0000
0000
0000
0000
0000
0000
0000
0000
0000
0020
0030
0000
0000
0000
0000
0000
0000
0000
0000
0000
0000
0200
0300
0000
0000
0000
0000
0000
0000
0000
0000
0000
0000
0020
0030
0000
0000
0000
0000
0000
0000
0000
0000
0000
0000
0200
0300
0000
0000
0000
0000
0000
0000
0000
0000
0000
0000
0020
0030
0000
0000
0000
0000
0000
0000
0000
0000
0000
0000
0200
0300
0000
0000
0000
0000
0000
0000
0000
0000
0000
0000
0020
0030
0000
0000
0000
0000
0000
0000
0000
0000
0000
0000
0002
0003
0000
0000
0000
0000
0000
0000
0000
0000
0000
0000
,
0020
0030
0000
0000
0000
0000
0000
0000
0000
0000
0000
0000
0200
0300
0000
0000
0000
0000
0000
0000
0000
0000
0000
0000
2000
3000
0000
0000
0000
0000
0000
0000
0000
0000
0000
0000
0200
0300
0000
0000
0000
0000
0000
0000
0000
0000
0000
0000
0020
0030
0000
0000
0000
0000
0000
0000
0000
0000
0000
0000
0002
0003
0000
0000
0000
0000
0000
0000
0000
0000
0000
0000
2000
3000
0000
0000
0000
0000
0000
0000
0000
0000
0000
0000
0002
0003
0000
0000
0000
0000
0000
0000
0000
0000
0000
0000
2000
3000
0000
0000
0000
0000
0000
0000
0000
0000
0000
0000
0200
0300
0000
0000
0000
0000
0000
0000
0000
0000
0000
0000
0020
0030
0000
0000
0000
0000
0000
0000
0000
0000
0000
0000
0002
0003
0000
0000
0000
0000
0000
0000
0000
0000
0000
0000
0020
0030
0000
0000
0000
0000
0000
0000
0000
0000
0000
0000
0200
0300
0000
0000
0000
0000
0000
0000
0000
0000
0000
0000
2000
3000
0000
0000
0000
0000
0000
0000
0000
0000
0000
0000
0002
0003
0000
0000
0000
0000
0000
0000
0000
0000
0000
0000
,
2000
3000
0000
0000
0000
0000
0000
0000
0000
0000
0000
0000
0002
0003
0000
0000
0000
0000
0000
0000
0000
0000
0000
0000
2000
3000
0000
0000
0000
0000
0000
0000
0000
0000
0000
0000
0020
0030
0000
0000
0000
0000
0000
0000
0000
0000
0000
0000
0200
0300
0000
0000
0000
0000
0000
0000
0000
0000
0000
0000
0002
0003
0000
0000
0000
0000
0000
0000
0000
0000
0000
0000
2000
3000
0000
0000
0000
0000
0000
0000
0000
0000
0000
0000
0020
0030
0000
0000
0000
0000
0000
0000
0000
0000
0000
0000
0200
0300
0000
0000
0000
0000
0000
0000
0000
0000
0000
0000
0002
0003
0000
0000
0000
0000
0000
0000
0000
0000
0000
0000
2000
3000
0000
0000
0000
0000
0000
0000
0000
0000
0000
0000
0020
0030
0000
0000
0000
0000
0000
0000
0000
0000
0000
0000
0200
0300
0000
0000
0000
0000
0000
0000
0000
0000
0000
0000
0002
0003
0000
0000
0000
0000
0000
0000
0000
0000
0000
0000
2000
3000
0000
0000
0000
0000
0000
0000
0000
0000
0000
0000
0002
0003
0000
0000
0000
0000
0000
0000
0000
0000
0000
0000
,
2000
3002
0023
0230
2300
3002
0023
0230
2300
3002
0023
0230
2300
3002
0023
0230
,
2300
3000
0100
0000
0010
0000
0001
0000
0010
0000
0100
0000
1000
0000
0001
0000
,
1000
0000
0001
0000
1000
0000
0010
0000
0100
0000
0001
0000
0100
0001
0100
0000
,
0001
1000
0001
0100
0010
1000
0010
1000
,
0001
0000
1000
0000
0001
0000
0010
0000
0100
0000
0010
0000
0100
1000
0100
0000
,
1000
0001
1000
0001
0100
0001
0100
0010
,
1000
0000
0010
0000
0100
0000
0001
0000
1000
0000
0001
0000
1000
0100
1000
0000
,
0100
1000
0001
1000
0100
0010
0001
1000
,
0001
1000
0010
0100
0001
1000
0010
0100
0010
0100
0001
1000
0001
0100
0010
1000
,
0002
0000
1003
0000
0010
0000
1000
0000
0010
0000
1000
0000
0001
0000
1000
0010
,
0200
0301
0100
0010
1000
0010
1000
0001
,
1000
0100
1000
0100
0010
0001
0010
0001
,
2000
3100
2000
3001
2000
3010
0100
0001
,
0200
0000
0301
0000
1000
0000
0001
0000
0100
0000
0010
0000
1000
0000
0001
0100
,
0020
1030
0001
1000
0100
0010
0001
0010
,
0002
1003
0001
1000
0100
0010
0001
1000
,
0100
0010
0100
0010
0100
0010
0001
0010
0100
1000
0001
0010
0100
1000
0001
1000
,
0001
0010
0001
1000
0010
1000
0100
0010
,
0001
1000
0010
1000
0100
1000
0001
0100
,
0010
1000
0010
0100
0010
0100
0001
1000
,
0010
1000
0100
0010
0001
1000
0010
1000
,
0100
1000
0001
0100
0020
0000
0000
0130
,
0002
2003
0000
0000
,
3001
0100
0001
1000
0001
0100
0001
1000
,
0010
1000
0100
1000
0001
0010
0001
1000
,
0001
0010
0001
1000
0010
0100
0010
1000
,
0001
0010
0100
1000
0001
1000
0001
1000
,
0100
1000
0001
1000
0010
1000
0001
1000
,
0100
1000
0001
0100
0010
1000
0001
0100
,
0001
1000
0010
1000
0100
0010
0001
0010
,
0100
1000
0001
1000
0010
0100
0001
1000
,
0010
0100
0001
1000
0100
1000
0001
0100
,
0002
0000
0000
1003
,
0020
0000
0230
0000
,
0301
0000
0000
0000
,
1000
0010
0100
0001
0100
0010
1000
0001
1000
0001
0100
0010
1000
0001
1000
0001
,
2000
3002
2003
3020
2030
3002
2003
3020
,
0230
0302
2003
3002
0203
0302
2003
3020
,
0230
0302
0203
0320
0230
0302
2003
3020
,
2030
3200
2300
3002
2003
3020
2030
3200
,
0320
0032
0023
0230
2300
3002
0023
0230
,
2300
3200
0320
0032
2003
3200
0320
0032
,
2003
3002
0203
0320
2030
3020
0230
0302
,
2003
3002
0023
0000
,
0230
0300
0000
0000
0000
0000
0000
0000
0000
0000
0000
0000
2000
3000
0000
0000
0000
0000
0000
0000
0000
0000
0000
0000
0200
0300
0000
0000
0000
0000
0000
0000
0000
0000
0000
0000
2000
3000
0000
0000
0000
0000
0000
0000
0000
0000
0000
0000
0200
0300
0000
0000
0000
0000
0000
0000
0000
0000
0000
0000
2000
3000
0000
0000
0000
0000
0000
0000
0000
0000
0000
0000
0200
0300
0000
0000
0000
0000
0000
0000
0000
0000
0000
0000
2000
3000
0000
0000
0000
0000
0000
0000
0000
0000
0000
0000
0200
0300
0000
0000
0000
0000
0000
0000
0000
0000
0000
0000
2000
3000
0000
0000
0000
0000
0000
0000
0000
0000
0000
0000
0200
0300
0000
0000
0000
0000
0000
0000
0000
0000
0000
0000
2000
3000
0000
0000
0000
0000
0000
0000
0000
0000
0000
0000
0200
0300
0000
0000
0000
0000
0000
0000
0000
0000
0000
0000
2000
3000
0000
0000
0000
0000
0000
0000
0000
0000
0000
0000
0200
0300
0000
0000
0000
0000
0000
0000
0000
0000
0000
0000
2000
3000
0000
0000
0000
0000
0000
0000
0000
0000
0000
0000
,
0200
0300
0000
0000
0000
0000
0000
0000
0000
0000
0000
0000
0020
0030
0000
0000
0000
0000
0000
0000
0000
0000
0000
0000
0200
0300
0000
0000
0000
0000
0000
0000
0000
0000
0000
0000
0020
0030
0000
0000
0000
0000
0000
0000
0000
0000
0000
0000
0200
0300
0000
0000
0000
0000
0000
0000
0000
0000
0000
0000
0020
0030
0000
0000
0000
0000
0000
0000
0000
0000
0000
0000
0200
0300
0000
0000
0000
0000
0000
0000
0000
0000
0000
0000
0020
0030
0000
0000
0000
0000
0000
0000
0000
0000
0000
0000
0200
0300
0000
0000
0000
0000
0000
0000
0000
0000
0000
0000
0020
0030
0000
0000
0000
0000
0000
0000
0000
0000
0000
0000
0200
0300
0000
0000
0000
0000
0000
0000
0000
0000
0000
0000
0020
0030
0000
0000
0000
0000
0000
0000
0000
0000
0000
0000
0200
0300
0000
0000
0000
0000
0000
0000
0000
0000
0000
0000
0020
0030
0000
0000
0000
0000
0000
0000
0000
0000
0000
0000
0200
0300
0000
0000
0000
0000
0000
0000
0000
0000
0000
0000
0020
0030
0000
0000
0000
0000
0000
0000
0000
0000
0000
0000
,
0002
0003
0000
0000
0000
0000
0000
0000
0000
0000
0000
0000
0020
0030
0000
0000
0000
0000
0000
0000
0000
0000
0000
0000
0002
0003
0000
0000
0000
0000
0000
0000
0000
0000
0000
0000
0020
0030
0000
0000
0000
0000
0000
0000
0000
0000
0000
0000
0002
0003
0000
0000
0000
0000
0000
0000
0000
0000
0000
0000
0020
0030
0000
0000
0000
0000
0000
0000
0000
0000
0000
0000
0002
0003
0000
0000
0000
0000
0000
0000
0000
0000
0000
0000
0020
0030
0000
0000
0000
0000
0000
0000
0000
0000
0000
0000
0002
0003
0000
0000
0000
0000
0000
0000
0000
0000
0000
0000
0020
0030
0000
0000
0000
0000
0000
0000
0000
0000
0000
0000
0002
0003
0000
0000
0000
0000
0000
0000
0000
0000
0000
0000
0020
0030
0000
0000
0000
0000
0000
0000
0000
0000
0000
0000
0002
0003
0000
0000
0000
0000
0000
0000
0000
0000
0000
0000
0020
0030
0000
0000
0000
0000
0000
0000
0000
0000
0000
0000
0002
0003
0000
0000
0000
0000
0000
0000
0000
0000
0000
0000
2000
3000
0000
0000
0000
0000
0000
0000
0000
0000
0000
0000
,
0002
0003
0000
0000
0000
0000
0000
0000
0000
0000
0000
0000
2000
3000
0000
0000
0000
0000
0000
0000
0000
0000
0000
0000
0002
0003
0000
0000
0000
0000
0000
0000
0000
0000
0000
0000
2000
3000
0000
0000
0000
0000
0000
0000
0000
0000
0000
0000
0002
0003
0000
0000
0000
0000
0000
0000
0000
0000
0000
0000
2000
3000
0000
0000
0000
0000
0000
0000
0000
0000
0000
0000
0002
0003
0000
0000
0000
0000
0000
0000
0000
0000
0000
0000
2000
3000
0000
0000
0000
0000
0000
0000
0000
0000
0000
0000
0002
0003
0000
0000
0000
0000
0000
0000
0000
0000
0000
0000
2000
3000
0000
0000
0000
0000
0000
0000
0000
0000
0000
0000
0002
0003
0000
0000
0000
0000
0000
0000
0000
0000
0000
0000
2000
3000
0000
0000
0000
0000
0000
0000
0000
0000
0000
0000
0002
0003
0000
0000
0000
0000
0000
0000
0000
0000
0000
0000
2000
3000
0000
0000
0000
0000
0000
0000
0000
0000
0000
0000
0002
0003
0000
0000
0000
0000
0000
0000
0000
0000
0000
0000
2000
3000
0000
0000
0000
0000
0000
0000
0000
0000
0000
0000
,
0020
0030
0000
0000
0000
0000
0000
0000
0000
0000
0000
0000
2000
3000
0000
0000
0000
0000
0000
0000
0000
0000
0000
0000
0020
0030
0000
0000
0000
0000
0000
0000
0000
0000
0000
0000
2000
3000
0000
0000
0000
0000
0000
0000
0000
0000
0000
0000
0020
0030
0000
0000
0000
0000
0000
0000
0000
0000
0000
0000
2000
3000
0000
0000
0000
0000
0000
0000
0000
0000
0000
0000
0020
0030
0000
0000
0000
0000
0000
0000
0000
0000
0000
0000
2000
3000
0000
0000
0000
0000
0000
0000
0000
0000
0000
0000
0020
0030
0000
0000
0000
0000
0000
0000
0000
0000
0000
0000
2000
3000
0000
0000
0000
0000
0000
0000
0000
0000
0000
0000
0020
0030
0000
0000
0000
0000
0000
0000
0000
0000
0000
0000
2000
3000
0000
0000
0000
0000
0000
0000
0000
0000
0000
0000
0020
0030
0000
0000
0000
0000
0000
0000
0000
0000
0000
0000
2000
3000
0000
0000
0000
0000
0000
0000
0000
0000
0000
0000
0020
0030
0000
0000
0000
0000
0000
0000
0000
0000
0000
0000
2000
3000
0000
0000
0000
0000
0000
0000
0000
0000
0000
0000
,
0020
0030
0000
0000
0000
0000
0000
0000
0000
0000
0000
0000
0200
0300
0000
0000
0000
0000
0000
0000
0000
0000
0000
0000
0020
0030
0000
0000
0000
0000
0000
0000
0000
0000
0000
0000
0200
0300
0000
0000
0000
0000
0000
0000
0000
0000
0000
0000
0020
0030
0000
0000
0000
0000
0000
0000
0000
0000
0000
0000
0200
0300
0000
0000
0000
0000
0000
0000
0000
0000
0000
0000
0020
0030
0000
0000
0000
0000
0000
0000
0000
0000
0000
0000
0200
0300
0000
0000
0000
0000
0000
0000
0000
0000
0000
0000
0020
0030
0000
0000
0000
0000
0000
0000
0000
0000
0000
0000
0200
0300
0000
0000
0000
0000
0000
0000
0000
0000
0000
0000
0020
0030
0000
0000
0000
0000
0000
0000
0000
0000
0000
0000
0200
0300
0000
0000
0000
0000
0000
0000
0000
0000
0000
0000
0020
0030
0000
0000
0000
0000
0000
0000
0000
0000
0000
0000
0200
0300
0000
0000
0000
0000
0000
0000
0000
0000
0000
0000
0020
0030
0000
0000
0000
0000
0000
0000
0000
0000
0000
0000
0200
0300
0000
0000
0000
0000
0000
0000
0000
0000
0000
0000
,
0002
0003
0000
0000
0000
0000
0000
0000
0000
0000
0000
0000
2000
3000
0000
0000
0000
0000
0000
0000
0000
0000
0000
0000
0002
0003
0000
0000
0000
0000
0000
0000
0000
0000
0000
0000
2000
3000
0000
0000
0000
0000
0000
0000
0000
0000
0000
0000
0002
0003
0000
0000
0000
0000
0000
0000
0000
0000
0000
0000
0200
0300
0000
0000
0000
0000
0000
0000
0000
0000
0000
0000
0002
0003
0000
0000
0000
0000
0000
0000
0000
0000
0000
0000
0200
0300
0000
0000
0000
0000
0000
0000
0000
0000
0000
0000
0002
0003
0000
0000
0000
0000
0000
0000
0000
0000
0000
0000
2000
3000
0000
0000
0000
0000
0000
0000
0000
0000
0000
0000
0002
0003
0000
0000
0000
0000
0000
0000
0000
0000
0000
0000
2000
3000
0000
0000
0000
0000
0000
0000
0000
0000
0000
0000
0020
0030
0000
0000
0000
0000
0000
0000
0000
0000
0000
0000
2000
3000
0000
0000
0000
0000
0000
0000
0000
0000
0000
0000
0020
0000
0000
0030
0000
0000
0000
0000
0000
0000
0000
0000
2000
3000
0000
0000
0000
0000
0000
0000
0000
0000
0000
0000
,
0002
0003
0000
0000
0000
0000
0000
0000
0000
0000
0000
0000
2000
3000
0000
0000
0000
0000
0000
0000
0000
0000
0000
0000
0002
0003
0000
0000
0000
0000
0000
0000
0000
0000
0000
0000
2000
3000
0000
0000
0000
0000
0000
0000
0000
0000
0000
0000
0200
0300
0000
0000
0000
0000
0000
0000
0000
0000
0000
0000
2000
3000
0000
0000
0000
0000
0000
0000
0000
0000
0000
0000
0200
0300
0000
0000
0000
0000
0000
0000
0000
0000
0000
0000
0020
0030
0000
0000
0000
0000
0000
0000
0000
0000
0000
0000
0002
0003
0000
0000
0000
0000
0000
0000
0000
0000
0000
0000
2000
3000
0000
0000
0000
0000
0000
0000
0000
0000
0000
0000
0200
0300
0000
0000
0000
0000
0000
0000
0000
0000
0000
0000
0020
0030
0000
0000
0000
0000
0000
0000
0000
0000
0000
0000
0002
0003
0000
0000
0000
0000
0000
0000
0000
0000
0000
0000
2000
3000
0000
0000
0000
0000
0000
0000
0000
0000
0000
0000
0200
0300
0000
0000
0000
0000
0000
0000
0000
0000
0000
0000
2000
3000
0000
0000
0000
0000
0000
0000
0000
0000
0000
0000
,
0200
0300
0000
0000
0000
0000
0000
0000
0000
0000
0000
0000
2000
3000
0000
0000
0000
0000
0000
0000
0000
0000
0000
0000
0002
0003
0000
0000
0000
0000
0000
0000
0000
0000
0000
0000
0020
0030
0000
0000
0000
0000
0000
0000
0000
0000
0000
0000
0200
0300
0000
0000
0000
0000
0000
0000
0000
0000
0000
0000
2000
3000
0000
0000
0000
0000
0000
0000
0000
0000
0000
0000
0002
0003
0000
0000
0000
0000
0000
0000
0000
0000
0000
0000
0200
0300
0000
0000
0000
0000
0000
0000
0000
0000
0000
0000
0002
0003
0000
0000
0000
0000
0000
0000
0000
0000
0000
0000
2000
3000
0000
0000
0000
0000
0000
0000
0000
0000
0000
0000
0020
0030
0000
0000
0000
0000
0000
0000
0000
0000
0000
0000
0200
0300
0000
0000
0000
0000
0000
0000
0000
0000
0000
0000
0020
0030
0000
0000
0000
0000
0000
0000
0000
0000
0000
0000
2000
3000
0000
0000
0000
0000
0000
0000
0000
0000
0000
0000
0002
0003
0000
0000
0000
0000
0000
0000
0000
0000
0000
0000
0200
0300
0000
0000
0000
0000
0000
0000
0000
0000
0000
0000
,
0002
0003
0000
0000
0000
0000
0000
0000
0000
0000
0000
0000
0200
0300
0000
0000
0000
0000
0000
0000
0000
0000
0000
0000
0002
0003
0000
0000
0000
0000
0000
0000
0000
0000
0000
0000
2000
3000
0000
0000
0000
0000
0000
0000
0000
0000
0000
0000
0002
0003
0000
0000
0000
0000
0000
0000
0000
0000
0000
0000
2000
3000
0000
0000
0000
0000
0000
0000
0000
0000
0000
0000
0020
0030
0000
0000
0000
0000
0000
0000
0000
0000
0000
0000
2000
3000
0000
0000
0000
0000
0000
0000
0000
0000
0000
0000
0002
0003
0000
0000
0000
0000
0000
0000
0000
0000
0000
0000
0200
0300
0000
0000
0000
0000
0000
0000
0000
0000
0000
0000
0020
0030
0000
0000
0000
0000
0000
0000
0000
0000
0000
0000
2000
3000
0000
0000
0000
0000
0000
0000
0000
0000
0000
0000
0002
0003
0000
0000
0000
0000
0000
0000
0000
0000
0000
0000
0200
0300
0000
0000
0000
0000
0000
0000
0000
0000
0000
0000
0020
0030
0000
0000
0000
0000
0000
0000
0000
0000
0000
0000
2000
3000
0000
0000
0000
0000
0000
0000
0000
0000
0000
0000
,
0002
0003
0000
0000
0000
0000
0000
0000
0000
0000
0000
0000
0000
0000
0000
0000
0000
0000
0000
0000
0000
0000
0000
0000
1000
0000
0000
0000
0000
0000
0000
0000
0000
0000
0000
0000
0000
0000
0000
0000
0000
0000
0000
0000
0000
0000
0000
0000
0010
0000
0000
0000
0000
0000
0000
0000
0000
0000
0000
0000
0000
0000
0000
0000
0000
0000
0000
0000
0000
0000
0000
0000
0100
0000
0000
0000
0000
0000
0000
0000
0000
0000
0000
0000
0000
0000
0000
0000
0000
0000
0000
0000
0000
0000
0000
0000
0001
0000
0000
0000
0000
0000
0000
0000
0000
0000
0000
0000
0000
0000
0000
0000
0000
0000
0000
0000
0000
0000
0000
0000
0100
0000
0000
0000
0000
0000
0000
0000
0000
0000
0000
0000
0000
0000
0000
0000
0000
0000
0000
0000
0000
0000
0000
0000
0001
0000
0000
0000
0000
0000
0000
0000
0000
0000
0000
0000
0000
0000
0000
0000
0000
0000
0000
0000
0000
0000
0000
0000
0100
0000
0000
0000
0000
0000
0000
0000
0000
0000
0000
0000
0000
0000
0000
0000
0000
0000
0000
0000
0000
0000
0000
0000
,
0010
1000
0010
0100
0010
1000
0010
0100
,
0001
1000
0001
0010
0100
1000
0001
1000
,
0100
1000
0001
0010
0100
0010
0001
0010
,
0100
1000
0001
0010
0100
1000
0001
1000
,
0100
1000
0001
0100
0001
1000
0010
0100
,
0001
0100
0010
1000
0010
0100
0001
1000
,
0001
0100
0010
0100
0010
1000
0001
1000
,
0001
0010
0100
0010
0001
1000
0100
0010
,
0001
1000
0010
1000
0001
1000
0100
0010
,
0001
1000
0001
0100
0001
1000
0010
0100
,
0001
1000
0010
0100
0001
1000
0100
0010
,
0002
0000
0000
0000
,
0000
0000
0000
0000
0000
0003
0000
0000
,
0101
0100
0010
1000
1001
0001
0101
0100
,
0010
1000
1010
0010
0110
0100
0001
1000
,
0100
0010
0001
1000
0100
1000
0001
1000
,
1010
0010
0100
0001
1001
1000
1100
0100
,
0010
0001
1000
0010
0200
0000
0000
0301
,
2000
3200
0000
0000
,
0300
0000
0000
0000
;

//---------------dance-single - Mad Matt----------------
#NOTES:
     dance-single:
     Mad Matt:
     Medium:
     18:
     1.000,1.000,0.009,0.105,0.908,981.000,1.000,12.000,0.000,0.000:



2002
0000
0000
0000
0000
0000
3000
0003
,
1000
0010
0100
0001
1000
0010
1000
0001
0100
0001
1000
0010
0100
0001
1000
0001
,
1000
0100
1000
0010
,
0100
0001
1000
0010
,
1000
0100
1000
0010
,
0100
0001
1000
0100
,
1000
0001
1000
0100
,
0010
0100
1000
0001
,
0001
1000
0100
1000
,
0001
0010
0100
1000
0001
0010
0001
1000
0100
1000
0001
0010
0100
1000
0001
1000
,
0002
0000
0000
0000
0100
0000
0000
0000
1000
0000
0000
0003
0100
0000
0001
1000
,
0002
1000
0100
1000
,
0010
0000
0100
0000
1000
0000
0100
0003
,
0002
0003
2000
3000
2000
0000
0010
3000
,
2000
0000
0000
0000
0001
0000
0000
0000
0100
0000
0000
0000
3001
0000
1000
0100
,
2000
0000
0010
0000
0001
0000
0010
3000
,
2000
0000
0010
0000
0001
0000
0100
3000
,
0001
0010
0100
1000
0001
0010
0001
1000
0100
1000
0001
0010
0100
1000
0001
1000
,
0001
0100
0010
1000
0010
0100
0001
1000
,
0001
0010
0001
0100
0010
1000
0010
0100
,
0010
1000
0001
1000
0010
0100
0010
1000
,
0001
0010
0100
1000
0100
0010
0001
1000
,
0001
0100
0001
0010
0100
1000
0100
0010
,
0100
1000
0002
0000
0000
0000
0000
0000
,
1003
0010
0100
0001
0100
0010
1000
0001
,
1000
0100
1000
0010
0100
0001
0100
0010
,
0100
0001
1000
0001
0100
0010
0100
0001
,
1000
0100
0010
0001
0010
0100
1000
0001
,
1000
0010
1000
0100
0010
0001
0010
0100
,
0010
0001
1000
0100
0010
0001
0100
0001
,
1000
0010
0100
0001
0100
0001
1000
0010
0100
0001
1000
0001
1000
0010
0100
0001
,
1000
0010
1000
0001
0100
0001
1000
0010
0100
0001
1000
0001
0100
0010
1000
0001
,
0010
0100
1000
0100
1000
0001
0010
0100
1000
0001
1000
0001
0010
0100
1000
0001
,
0010
0001
1000
0100
1000
0001
0010
0100
1000
0001
1000
0100
0010
0001
1000
0001
,
1000
0010
0100
0001
1000
0010
1000
0001
0100
0001
1000
0010
0100
0001
1000
0001
,
1000
0100
0010
0001
1000
0100
1000
0001
0010
0001
1000
0100
0010
0001
1000
0001
,
1000
0010
0100
0001
1000
0010
1000
0010
0100
0001
1000
0010
0100
0001
1000
0001
,
1000
0100
0010
0001
1000
0100
1000
0100
0010
0001
1000
0100
0010
0001
1000
0001
,
1000
0010
0100
0001
1000
0010
1000
0001
0100
0001
1000
0010
0100
0001
1000
0001
,
1000
0010
1000
0001
0100
0001
1000
0100
,
1000
0000
0001
0000
0100
0000
0001
0000
0010
0000
0001
0000
1000
0100
1000
0000
,
0001
0100
0001
1000
0010
1000
0001
0010
,
0001
0000
1000
0000
0010
0000
1000
0000
0100
0000
1000
0000
0001
0010
0001
0000
,
1000
0100
1000
0001
0010
0001
1000
0010
,
1000
0000
0001
0000
0010
0000
0001
0000
0100
0000
0001
0000
1000
0010
1000
0000
,
0001
0010
0001
1000
0100
1000
0001
0100
,
0001
0100
0010
1000
0001
0100
0001
1000
0010
1000
0001
0100
0010
1000
0001
1000
,
0001
0000
0100
0000
0001
0000
1000
0000
0010
0000
1000
0000
0001
0000
1000
0100
,
1000
0001
0100
0001
0010
0001
1000
0100
,
1000
0010
1000
0001
0100
0001
1000
0100
,
1000
0001
0100
0001
0010
0001
1000
0001
,
1000
0000
0100
0000
1000
0000
0001
0000
0010
0000
0001
0000
1000
0000
0001
0100
,
0001
1000
0100
1000
0010
1000
0001
1000
,
0001
0100
0001
1000
0010
0100
0001
1000
,
0001
0010
0100
1000
0001
0010
0001
1000
0100
1000
0001
0010
0100
1000
0001
1000
,
0001
0100
0010
1000
,
0100
1000
0001
1000
,
0010
0100
0010
1000
,
0001
0100
0010
1000
,
0100
1000
0010
0100
,
0010
1000
0100
0010
,
0001
0100
0010
1000
,
0100
1000
0001
0100
,
0010
1000
0100
0010
,
0001
0000
0000
1000
,
0001
0000
0400
0000
,
0000
0000
0000
0300
,
0001
0010
0001
0100
0001
1000
0100
1000
,
0010
1000
0001
0100
0001
1000
0010
1000
,
0001
0100
0001
0010
0001
1000
0100
1000
,
0001
0100
0001
1000
0001
0010
0001
1000
,
0010
1000
0100
1000
0010
1000
0001
1000
,
0100
1000
0001
0100
0001
1000
0001
0010
,
0001
0100
0001
1000
0010
1000
0100
1000
,
0001
0100
0001
0010
0001
1000
0100
1000
,
0010
1000
0001
0010
0001
1000
0001
0100
,
0010
0000
0000
0100
,
0001
0000
1000
0000
,
0100
0000
0000
0000
,
1000
0010
0100
0001
1000
0010
1000
0001
0100
0001
1000
0010
0100
0001
1000
0001
,
1000
0010
0100
0001
1000
0001
0100
0001
,
1000
0010
0100
0001
1000
0001
0010
0001
,
1000
0010
0100
0001
0010
0001
0100
0001
,
1000
0100
0010
0001
1000
0001
0010
0100
,
1000
0010
0100
0001
1000
0001
0100
0001
,
1000
0010
0100
0001
1000
0001
0010
0001
,
1000
0010
0100
0001
0010
0001
0100
0001
,
1000
0100
0010
0000
,
0001
0010
0100
1000
0001
0010
0001
1000
0100
1000
0001
0010
0100
1000
0001
0010
,
0100
1000
0100
1000
0001
0010
0100
1000
0001
0010
0001
0010
0100
1000
0001
1000
,
0010
0100
0001
1000
0010
1000
0001
0100
0010
1000
0001
0100
0001
1000
0010
0100
,
0001
1000
0001
0100
0010
1000
0010
0100
0001
1000
0001
0100
0010
1000
0001
0100
,
0001
1000
0100
1000
0001
0010
0001
1000
0100
1000
0001
0010
0100
1000
0001
1000
,
0100
0010
0001
1000
0001
0010
0100
1000
0001
0010
0001
1000
0100
1000
0001
0100
,
0001
1000
0010
0100
0001
1000
0001
0100
0010
1000
0001
0100
0010
1000
0010
0100
,
0001
1000
0010
1000
0001
0100
0001
1000
0010
0100
0001
1000
0001
1000
0010
0100
,
0001
1000
0001
1000
0100
0010
0001
0010
0100
1000
0001
0010
0001
1000
0100
1000
,
0001
0010
0100
1000
0001
0010
0001
1000
0100
0010
0001
1000
0100
0010
0001
1000
,
0001
0100
0001
0100
0010
0100
0001
1000
,
0100
0010
0100
0010
0001
1000
0010
1000
,
0100
0010
0100
0010
0001
0010
0100
1000
,
0001
0100
0001
0100
0010
1000
0100
0010
,
0001
0010
0100
0010
0001
1000
0010
0100
,
0001
1000
0100
1000
0010
0100
0001
1000
,
0100
1000
0010
0100
0001
0010
0001
0100
,
0001
1000
0100
0010
0001
0100
0010
1000
,
0001
0010
0100
0010
0001
1000
0010
0100
,
0001
0010
0001
1000
0100
1000
0010
1000
,
0001
0100
0010
1000
0100
1000
0010
0100
,
0001
1000
0100
0010
0001
0010
0100
1000
,
0020
0000
0000
0000
,
0000
0000
0000
0000
,
1030
0100
0010
0001
,
0100
0001
1000
0001
,
0010
0100
0010
0001
,
1000
0100
0010
0001
,
0100
0001
0010
0100
,
0010
0001
0100
0010
,
1000
0100
0010
0001
,
0100
0001
1000
0100
,
0010
0001
0100
0010
,
1000
0000
0000
0001
,
1000
0000
0010
0000
;

//---------------dance-single - Mad Matt----------------
#NOTES:
     dance-single:
     Mad Matt:
     Hard:
     19:
     1.000,1.000,0.009,0.105,0.908,981.000,1.000,12.000,0.000,0.000:



2002
0000
0000
0000
0000
0000
3000
0003
,
1000
0010
1000
0001
1000
0100
1000
0001
0010
0100
1000
0001
0100
0001
1000
0001
,
0100
0010
1000
0010
,
0100
0001
1000
0010
,
1000
0100
1000
0010
,
0100
0001
1000
0100
,
1000
0001
1000
0100
,
0010
0100
1000
0001
,
0001
1000
0100
1000
,
0001
1000
0100
1000
0010
1000
0001
0100
0001
1000
0001
0010
0100
1000
0001
0100
,
0002
0000
0000
0000
0100
0000
0000
0000
1000
0000
0000
0003
0100
0000
0001
1000
,
0002
1000
0100
1000
,
0010
0000
0100
0000
1000
0000
0100
0003
,
0002
0003
2000
3000
2000
0000
0010
3000
,
2000
0000
0000
0000
0001
0000
0000
0000
0100
0000
0000
0000
3001
0000
1000
0100
,
2000
0000
0010
0000
0001
0000
0010
3000
,
2000
0000
0010
0000
0001
0000
0100
3000
,
0001
1000
0001
0100
0001
1000
0100
0010
0100
1000
0001
0010
0100
1000
0001
1000
,
0010
0100
0010
1000
0010
0100
0001
1000
,
0001
0010
0001
0100
0010
1000
0010
0100
,
0010
1000
0001
1000
0010
0100
0010
1000
,
0001
0010
0100
1000
0100
0010
0001
1000
,
0001
0100
0001
0010
0100
1000
0100
0010
,
0100
1000
0002
0000
0000
0000
0000
0000
,
1003
0010
0100
0001
0100
0010
1000
0001
,
1000
0100
1000
0010
0100
0001
0100
0010
,
0100
0001
1000
0001
0100
0010
0100
0001
,
1000
0100
0010
0001
0010
0100
1000
0001
,
1000
0010
1000
0100
0010
0001
0010
0100
,
0010
0001
1000
0100
0010
0001
0100
0001
,
1000
0010
0100
0001
1000
0001
0010
0001
1000
0100
1000
0001
1000
0010
0100
0001
,
1000
0100
1000
0001
0010
0100
1000
0001
0100
0001
1000
0001
0100
0010
1000
0001
,
1000
0100
0010
0001
1000
0100
1000
0001
0100
0001
1000
0001
0100
0010
1000
0001
,
1000
0100
1000
0001
0010
0100
1000
0001
0010
0001
1000
0001
0100
0010
1000
0001
,
1000
0100
1000
0001
1000
0010
0100
0001
1000
0010
1000
0001
1000
0100
0010
0100
,
1000
0001
0010
0100
1000
0001
0100
0001
1000
0001
0100
0010
1000
0001
1000
0100
,
1000
0001
0100
0010
1000
0001
0010
0001
1000
0100
0010
0100
1000
0001
0100
0001
,
1000
0001
0010
0100
0010
0001
1000
0100
0010
0001
1000
0001
0100
0001
1000
0001
,
0100
0010
1000
0001
0100
0001
1000
0001
0010
0100
1000
0001
0100
0001
1000
0001
,
0100
0010
1000
0001
0100
0001
1000
0100
,
1000
0000
0001
0000
0100
0000
0001
0000
0010
0000
0001
0000
1000
0100
1000
0000
,
0001
0100
0001
1000
0010
1000
0001
0010
,
0001
0000
1000
0000
0010
0000
1000
0000
0100
0000
1000
0000
0001
0010
0001
0000
,
1000
0100
1000
0001
0010
0001
1000
0010
,
1000
0000
0001
0000
0010
0000
0001
0000
0100
0000
0001
0000
1000
0010
1000
0000
,
0001
0010
0001
1000
0100
1000
0001
0100
,
0001
0100
0010
1000
0001
1000
0100
1000
0001
0010
0001
0100
0001
1000
0010
0100
,
0001
0000
0100
0000
0001
0000
1000
0000
0010
0000
1000
0000
0001
0000
1000
0100
,
1000
0001
0100
0001
0010
0001
1000
0100
,
1000
0010
1000
0001
0100
0001
1000
0100
,
1000
0001
0100
0001
0010
0001
1000
0001
,
1000
0000
0100
0000
1000
0000
0001
0000
0010
0000
0001
0000
1000
0000
0001
0100
,
0001
1000
0100
1000
0010
1000
0001
1000
,
0001
0100
0001
1000
0010
0100
0001
1000
,
0001
1000
0100
1000
0001
0100
0001
1000
0001
0010
0100
1000
0001
0100
0001
1000
,
0010
0100
0010
1000
,
0100
1000
0001
1000
,
0010
0100
0010
1000
,
0001
0100
0010
1000
,
0100
1000
0010
0100
,
0010
1000
0100
0010
,
0001
0100
0010
1000
,
0100
1000
0001
0100
,
0010
1000
0100
0010
,
0001
0000
0000
1000
,
0001
0000
0400
0000
,
0000
0000
0000
0300
,
0001
0010
0001
0100
0001
1000
0100
1000
,
0010
1000
0001
0100
0001
1000
0010
1000
,
0001
0100
0001
0010
0001
1000
0100
1000
,
0001
0100
0001
1000
0001
0010
0001
1000
,
0010
1000
0100
1000
0010
1000
0001
1000
,
0100
1000
0001
0100
0001
1000
0001
0010
,
0001
0100
0001
1000
0010
1000
0100
1000
,
0001
0100
0001
0010
0001
1000
0100
1000
,
0010
1000
0001
0010
0001
1000
0001
0100
,
0010
0000
0000
0100
,
0001
0000
1000
0000
,
0100
0000
0000
0000
,
1000
0010
0100
0001
1000
0100
1000
0001
1000
0010
0100
0001
1000
0001
0010
0001
,
1000
0010
0100
0001
1000
0001
0100
0001
,
1000
0010
0100
0001
1000
0001
0010
0001
,
1000
0010
0100
0001
0010
0001
0100
0001
,
1000
0100
0010
0001
1000
0001
0010
0100
,
1000
0010
0100
0001
1000
0001
0100
0001
,
1000
0010
0100
0001
1000
0001
0010
0001
,
1000
0010
0100
0001
0010
0001
0100
0001
,
1000
0100
0010
0000
,
0001
0010
0100
1000
0001
0010
0001
1000
0001
0100
0010
1000
0001
0100
0001
1000
,
0100
1000
0001
0010
0100
0010
0001
1000
0001
0100
0001
1000
0010
0100
0001
1000
,
0001
0010
0001
1000
0100
1000
0001
0100
0001
1000
0001
0010
0100
1000
0001
0010
,
0001
1000
0001
0100
0001
1000
0010
0100
0001
1000
0100
1000
0001
0100
0010
0100
,
0001
1000
0100
1000
0001
0010
0100
1000
0001
0100
0001
1000
0001
0010
0100
1000
,
0001
0010
0100
0010
0001
1000
0100
0010
0001
1000
0010
1000
0100
1000
0001
0100
,
0001
1000
0010
0100
0001
1000
0001
0010
0100
1000
0001
0010
0100
0010
0001
1000
,
0010
1000
0001
0100
0010
1000
0001
0100
0001
1000
0001
0010
0100
1000
0001
0010
,
0100
0010
0001
1000
0100
1000
0001
1000
0010
0100
0001
1000
0100
1000
0001
0100
,
0010
1000
0001
0100
0001
1000
0010
1000
0001
1000
0100
0010
0001
1000
0001
0100
,
0001
0100
0001
0100
0010
0100
0001
1000
,
0100
0010
0100
0010
0001
1000
0010
1000
,
0100
0010
0100
0010
0001
0010
0100
1000
,
0001
0100
0001
0100
0010
1000
0100
0010
,
0001
0010
0100
0010
0001
1000
0010
0100
,
0001
1000
0100
1000
0010
0100
0001
1000
,
0100
1000
0010
0100
0001
0010
0001
0100
,
0001
1000
0100
0010
0001
0100
0010
1000
,
0001
0010
0100
0010
0001
1000
0010
0100
,
0001
0010
0001
1000
0100
1000
0010
1000
,
0001
0100
0010
1000
0100
1000
0010
0100
,
0001
1000
0100
0010
0001
0010
0100
1000
,
0020
0000
0000
0000
,
0000
0000
0000
0000
,
1030
0100
0010
0001
,
0100
0001
1000
0001
,
0010
0100
0010
0001
,
1000
0100
0010
0001
,
0100
0001
0010
0100
,
0010
0001
0100
0010
,
1000
0100
0010
0001
,
0100
0001
1000
0100
,
0010
0001
0100
0010
,
1000
0000
0000
0001
,
1000
0000
0010
0000
;
