#TITLE:Xepher;
#SUBTITLE:;
#ARTIST:tatsh;
#TITLETRANSLIT:;
#SUBTITLETRANSLIT:;
#ARTISTTRANSLIT:;
#CREDIT:;
#BANNER:X-bn.png;
#BACKGROUND:X- bg.png;
#LYRICSPATH:;
#CDTITLE:super_sonic.PNG;
#MUSIC:tatsh - Xepher.ogg;
#OFFSET:0.191;
#SAMPLESTART:27.929;
#SAMPLELENGTH:12.000;
#SELECTABLE:YES;
#BPMS:0.000=170.000,72.000=150.000,73.000=124.000,74.000=85.000,75.000=49.000,76.000=170.000;
#STOPS:;
#BGCHANGES:;
// cache tags:
#FIRSTBEAT:4.000;
#LASTBEAT:336.000;
#SONGFILENAME:Songs/Definitive Keyboard Megapack/Xepher - tatsh(SonicX)/tatsh - Xepher.sm;
#HASMUSIC:1;
#HASBANNER:1;
#MUSICLENGTH:121.756;
// end cache tags

//---------------dance-single - ----------------
#NOTES:
     dance-single:
     :
     Hard:
     11:
     1.000,1.000,0.345,0.394,1.000,824.000,42.000,48.000,0.000,0.000:

0000
0000
0000
0000
,
1000
0010
0100
0010
1000
0100
0010
0001
0010
0100
1000
0001
,
0100
0010
1000
0100
0010
0001
0100
0010
1000
0010
0100
0001
,
1000
0100
1000
0100
1000
0010
0100
0001
0100
0001
0010
0100
,
0010
0001
0010
0100
1000
0100
1000
0010
0100
0010
0100
0001
,
0100
0010
1000
0010
1000
0100
0010
0001
0010
0100
1000
0010
,
0100
0010
1000
0010
0100
0001
0010
0100
0010
0001
1000
0100
,
0010
0001
0010
0100
1000
0001
0100
0001
1000
0010
0100
0010
,
1000
0001
0100
0010
1000
0010
0100
0001
1000
0100
0010
0001
,
2000
0000
0000
0000
0000
0000
0000
0000
0000
3000
0010
0100
,
0002
0000
0000
1003
,
0022
0033
2020
3030
,
2200
3300
0202
0303
,
2002
3003
0202
0303
,
0022
0000
0000
0033
,
2020
0000
0000
3030
,
1000
0001
0100
0010
0100
0001
1000
0001
0100
0010
0100
0001
,
1000
0100
0010
0100
1000
0001
1000
0100
0010
0001
1000
0001
,
2002
0000
0000
3003
,
0010
1000
0100
0010
0001
0100
0010
1000
0100
0010
0001
0100
0020
0000
0030
0000
,
0010
1000
0100
1000
0010
0100
0010
1000
0100
1000
0010
0100
0001
0000
0001
0000
,
1000
0100
0010
0100
1000
0001
1000
0100
0010
0100
1000
0001
0010
0001
0010
0000
,
0001
0010
0100
1000
0001
1000
0100
0010
0001
1000
0010
0100
0001
1000
0010
0100
,
0001
1000
0010
0100
0010
1000
0001
1000
0010
0100
0010
1000
0002
0000
0003
0000
,
0010
0001
0100
0010
1000
0100
0010
0001
0100
0010
1000
0100
0010
0000
0010
0000
,
0001
1000
0010
0100
0010
1000
0100
1000
0010
0100
0001
1000
0020
0000
0030
0000
,
1001
0000
0000
0000
1001
0000
0000
0000
0001
1000
0100
1000
0001
1000
0100
1000
,
0001
0000
0100
0000
1000
0000
0100
0000
0010
0000
1000
0100
0000
0100
1000
0000
,
0010
0000
0100
0000
0001
0000
0010
0000
0100
1000
0100
0010
0100
0001
0100
0010
,
0100
0000
1000
0000
0010
0000
0100
0000
0001
0000
0010
0100
0000
1000
0010
0000
,
0100
0000
0010
0000
1000
0000
0010
0000
0100
0001
0000
0101
0000
0001
0100
0000
,
0101
0000
0010
0000
1010
0000
1000
0000
0100
0000
1000
0100
0000
1000
0001
0000
,
0101
0000
0000
0000
0101
0000
0000
0000
0001
0000
0010
0100
0000
0100
1000
0000
,
0010
0000
0100
0000
0001
0000
0001
1000
0000
1000
0100
0000
1000
0000
0100
0000
,
0010
0001
0010
0100
0010
1000
0010
0100
0020
0000
0000
0000
0032
0000
0000
0000
,
1003
0100
1100
1000
0001
0001
0100
0100
,
0001
1000
0001
1000
0100
1000
0100
1000
0001
1000
0001
1000
0001
0010
0001
0010
,
0200
0000
2300
3020
,
0130
0001
1000
0010
0100
0010
1000
0100
0010
0001
0010
0100
1000
0100
0010
0001
,
0100
0010
1000
0010
1000
0100
1000
0001
0010
0100
0010
0001
0100
0010
1000
0100
,
0020
0032
0203
0320
,
1030
0100
1000
0010
0100
0001
1000
0100
0010
0100
1000
0100
0010
0001
0100
0001
,
0010
0100
1000
0100
1000
0010
0100
0001
1000
0001
0100
0010
1000
0100
1000
0010
,
0100
0001
1000
0100
1000
0010
0100
0001
1000
0100
0010
0001
0010
0100
1000
0001
,
0200
0300
0002
0003
,
0022
0000
0000
0033
,
0010
0001
0010
0001
0100
0010
1000
0010
0100
0001
0100
0010
1000
0010
0100
0001
,
0010
0100
1000
0010
0100
0001
1000
0100
2000
0000
0000
0000
3002
0000
0000
0000
,
0013
0001
0100
0010
1000
0100
0010
0001
0100
0010
1000
0100
0020
0000
0030
0000
,
0001
1000
0100
1000
0001
0010
0001
1000
0100
1000
0001
0010
0100
0000
0100
0000
,
1000
0010
0100
0001
0010
0100
1000
0010
0100
0001
0010
0100
1000
0001
1000
0000
,
0001
0100
0010
1000
0010
0100
0010
0001
0010
0100
0010
1000
0100
0010
0001
0010
,
0100
1000
0010
0100
0001
0010
0100
1000
0010
0100
0001
0010
0200
0000
0300
0000
,
0100
0010
0001
0100
0010
1000
0100
0010
0001
0100
0010
1000
0100
0000
0100
0000
,
1000
0100
0010
0001
0100
0010
1000
0100
0010
0001
0100
0010
2000
0000
0000
0000
,
3001
0000
0000
0000
0001
0000
0000
0000
0001
1000
0010
0100
0001
1000
0010
0100
,
0001
0010
0100
1000
0010
0100
0001
0010
,
0100
1001
0101
1001
,
1000
0010
0100
0001
1000
0100
0010
0000
,
0110
1001
1100
1010
,
1000
0000
0100
0000
1000
0000
0001
1000
0001
0000
0100
0000
0010
0000
0100
0000
,
0001
0010
0100
0010
0001
0100
0100
0010
,
0010
1000
1000
0100
0100
1000
1000
0001
,
1000
0100
0010
0001
1000
0100
0010
0001
,
0100
0001
0100
0001
0100
0001
0100
0001
,
1000
0010
0100
0001
1000
0100
1000
0001
0010
0001
0100
0010
1000
0010
0100
0001
,
0010
0100
1000
0010
0100
0010
1000
0001
0100
0001
1000
0100
0010
0001
0100
0010
,
1000
0100
0010
0001
0010
0100
1000
0100
0010
0001
0010
0100
1000
0001
0100
0010
,
1000
0101
1000
0011
,
1000
0010
0100
0001
0100
0010
1000
0100
1000
0010
0100
0001
0010
0001
0100
0010
,
1000
0100
0010
0001
0010
0100
1000
0100
0010
0001
0100
0010
1000
0100
1000
0010
,
0200
0000
0302
0000
,
1003
0100
0010
0001
1000
0100
0010
0001
0100
0010
1000
0100
0010
0001
0100
0010
,
1000
0011
0100
1010
,
1000
0010
0100
0001
0010
0100
1000
0010
0100
0001
1000
0100
1000
0010
0100
0001
,
0020
0030
1001
0101
,
1000
0010
0100
0001
0010
0000
0100
0010
0000
0001
0100
0000
0101
0000
1001
0000
,
0001
1000
0100
0010
0001
0000
0100
0010
0000
1000
0100
0000
1100
0000
1001
0000
,
0001
0010
0100
1000
0010
0000
0100
0010
0000
0100
0001
0000
0101
0000
1001
0000
,
1000
0100
1000
0001
0010
0000
0001
0100
0000
0010
1000
0000
1010
0000
1001
0000
,
0100
0001
0100
0001
0100
0000
0010
1000
0000
0100
0010
0000
0110
0000
2002
0000
,
0000
0000
0000
3003
,
1000
0100
0010
0001
0100
0001
0010
0100
1000
0010
0100
0001
0010
0100
1000
0000
,
2002
0000
0000
0000
,
3003
0000
0000
0000
;
