#TITLE:Testament of Ian;
#SUBTITLE:;
#ARTIST:Pendulum feat. Aoreo;
#TITLETRANSLIT:;
#SUBTITLETRANSLIT:;
#ARTISTTRANSLIT:;
#CREDIT:Aoreo and Mad Matt;
#BANNER:Testament - bn.png;
#BACKGROUND:Testament - bg.png;
#LYRICSPATH:;
#CDTITLE:;
#MUSIC:Testament of Ian.mp3;
#OFFSET:0.000;
#SAMPLESTART:100.000;
#SAMPLELENGTH:29.999;
#SELECTABLE:YES;
#DISPLAYBPM:174.000;
#BPMS:0.000=173.000,1696.000=174.000,3556.000=173.740,3876.000=173.790,4004.000=173.740,4132.000=173.720,4264.000=173.740,4388.000=174.000,4964.000=175.000,5844.000=174.000,6546.000=194.000;
#STOPS:;
#BGCHANGES:;
// cache tags:
#FIRSTBEAT:0.000;
#LASTBEAT:6591.000;
#SONGFILENAME:Songs/Owenviau1 Simfiles 4/Testament of Ian [Aoreo]/Testament of Ian.sm;
#HASMUSIC:1;
#HASBANNER:1;
#MUSICLENGTH:2276.422;
// end cache tags

//---------------dance-single - I. Pyles----------------
#NOTES:
     dance-single:
     I. Pyles:
     Challenge:
     21:
     1.000,1.000,0.002,0.052,1.000,26077.000,5.000,119.000,66.000,1.000:

0001
0010
0001
0010
0100
1000
0001
1000
0010
0100
0001
1000
0100
0010
0100
0010
,
0001
1000
0100
1000
0010
0100
0010
0100
0001
1000
0010
1000
0100
0010
0100
0010
,
0001
0100
0010
1000
0001
1000
0010
1000
0001
0010
0001
1000
0100
0010
0100
0010
,
0001
1000
0100
1000
0010
0100
0010
0100
0001
1000
0010
1000
0100
0010
0100
0010
,
0001
0100
0001
0100
0010
1000
0001
1000
0100
0010
0001
1000
0010
0100
0010
0100
,
0001
1000
0010
1000
0100
0010
0100
0010
0001
1000
0100
1000
0010
0100
0010
0100
,
0001
0010
0100
1000
0001
1000
0100
1000
0001
0100
0001
1000
0010
0100
0010
0100
,
0001
1000
0010
1000
0100
0010
0100
0010
0001
1000
0100
1000
0010
0100
0010
0100
,
0001
1000
0010
0100
0001
1000
0100
1000
0001
0010
0001
1000
0100
0010
0100
0010
,
0001
1000
0100
1000
0010
0100
0010
0100
0001
1000
0010
1000
0100
0010
0100
0010
,
0001
1000
0100
1000
0001
0100
0010
1000
0010
1000
0001
1000
0100
0010
0100
0010
,
0001
1000
0100
1000
0010
0100
0010
0100
0001
1000
0010
1000
0100
0010
0100
0010
,
0001
1000
0100
0010
0001
1000
0010
1000
0001
0100
0001
1000
0010
0100
0010
0100
,
0001
1000
0010
1000
0100
0010
0100
0010
0001
1000
0100
1000
0010
0100
0010
0100
,
0001
1000
0010
1000
0001
0010
0100
1000
0100
1000
0001
1000
0010
0100
0010
0100
,
0001
1000
0010
1000
0100
0010
0100
0010
0001
1000
0100
1000
0010
0100
0010
0100
,
0001
1000
0100
1000
0001
0010
0001
1000
0010
0100
0001
1000
0100
0010
0100
0010
,
0001
1000
0100
1000
0010
0100
0010
0100
0001
1000
0010
1000
0100
0010
0100
0010
,
0001
1000
0100
1000
0001
1000
0100
0010
0001
1000
0001
1000
0100
0010
0100
0010
,
0001
1000
0100
1000
0010
0100
0010
0100
0001
1000
0010
1000
0100
0010
0100
0010
,
0001
1000
0100
1000
0001
0010
0001
1000
0010
0100
0001
1000
0010
0100
0010
0100
,
0001
1000
0010
1000
0100
0010
0100
0010
0001
1000
0100
1000
0010
0100
0010
0100
,
0001
1000
0100
1000
0001
1000
0100
0010
0001
1000
0001
1000
0010
0100
0010
0100
,
0001
1000
0010
1000
0100
0010
0100
0010
0001
1000
0100
1000
0010
0100
0010
0100
,
0001
1000
0100
0010
0001
1000
0100
1000
0001
0100
0010
1000
0100
0010
0100
0010
,
0001
1000
0100
1000
0010
0100
0010
0100
0001
1000
0010
1000
0100
0010
0100
0010
,
0001
1000
0010
1000
0001
0010
0001
1000
0100
1000
0001
1000
0100
0010
0100
0010
,
0001
1000
0100
1000
0010
0100
0010
0100
0001
1000
0010
1000
0100
0010
0100
0010
,
0001
1000
0010
0100
0001
1000
0010
1000
0001
0010
0100
1000
0010
0100
0010
0100
,
0001
1000
0010
1000
0100
0010
0100
0010
0001
1000
0100
1000
0010
0100
0010
0100
,
0001
1000
0100
1000
0001
0100
0001
1000
0010
1000
0001
1000
0010
0100
0010
0100
,
0001
1000
0010
1000
0100
0010
0100
0010
0001
1000
0100
1000
0010
0100
0010
0100
,
0001
0010
0100
1000
0001
0010
0001
1000
0001
0100
0010
1000
0100
0010
0100
0010
,
0001
1000
0100
1000
0010
0100
0010
0100
0001
1000
0010
1000
0100
0010
0100
0010
,
0001
1000
0001
1000
0010
0100
0001
0010
0100
1000
0001
1000
0100
0010
0001
0100
,
0010
1000
0001
1000
0010
0100
0001
0010
0100
1000
0001
1000
0100
0010
0001
1000
,
0001
0100
0010
1000
0001
0100
0001
1000
0001
0010
0100
1000
0010
0100
0010
0100
,
0001
1000
0010
1000
0100
0010
0100
0010
0001
1000
0100
1000
0010
0100
0010
0100
,
0001
1000
0001
1000
0100
0010
0001
0100
0010
1000
0001
1000
0010
0100
0001
0010
,
0100
1000
0001
1000
0100
0010
0001
0100
0010
1000
0001
1000
0010
0100
0001
1000
,
0010
0100
0001
1000
0100
1000
0001
0010
0100
1000
0001
1000
0100
0010
0100
0010
,
0001
1000
0100
1000
0010
0100
0010
0100
0001
1000
0010
1000
0100
0010
0100
0010
,
0001
1000
0001
1000
0010
0100
0001
0010
0100
1000
0001
1000
0100
0010
0001
0100
,
0010
1000
0001
1000
0010
0100
0001
0010
0100
1000
0001
1000
0100
0010
0001
1000
,
0100
0010
0001
1000
0010
1000
0001
0100
0010
1000
0001
1000
0010
0100
0010
0100
,
0001
1000
0010
1000
0100
0010
0100
0010
0001
1000
0100
1000
0010
0100
0010
0100
,
0001
1000
0001
1000
0100
0010
0001
0100
0010
1000
0001
1000
0010
0100
0001
0010
,
0100
1000
0001
1000
0100
0010
0001
0100
0010
1000
0001
1000
0010
0100
0001
1000
,
0100
0010
0001
0100
0010
1000
0001
0010
0100
0010
0001
0100
0010
1000
0001
0010
,
0100
0010
0001
0100
0010
1000
0001
0010
0100
0010
0001
0100
0010
1000
0001
0010
,
0001
1000
0001
1000
0010
0100
0001
0010
0100
1000
0001
1000
0100
0010
0001
0100
,
0010
1000
0001
1000
0010
0100
0001
0010
0100
1000
0001
1000
0100
0010
0001
1000
,
0010
0100
0001
0010
0100
1000
0001
0100
0010
0100
0001
0010
0100
1000
0001
0100
,
0010
0100
0001
0010
0100
1000
0001
0100
0010
0100
0001
0010
0100
1000
0001
0100
,
0001
1000
0001
1000
0100
0010
0001
0100
0010
1000
0001
1000
0010
0100
0001
0010
,
0100
1000
0001
1000
0100
0010
0001
0100
0010
1000
0001
1000
0010
0100
0001
1000
,
0100
0010
0001
0100
0010
1000
0001
0010
0100
0010
0001
0100
0010
1000
0001
0010
,
0100
0010
0001
0100
0010
1000
0001
0010
0100
0010
0001
0100
0010
1000
0001
0010
,
0001
1000
0001
1000
0010
0100
0001
0010
0100
1000
0001
1000
0100
0010
0001
0100
,
0010
1000
0001
1000
0010
0100
0001
0010
0100
1000
0001
1000
0100
0010
0001
1000
,
0010
0100
0001
0010
0100
1000
0001
0100
0010
0100
0001
0010
0100
1000
0001
0100
,
0010
0100
0001
0010
0100
1000
0001
0100
0010
0100
0001
0010
0100
1000
0001
0100
,
0001
1000
0001
1000
0100
0010
0001
0100
0010
1000
0001
1000
0010
0100
0001
0010
,
0100
1000
0001
1000
0100
0010
0001
0100
0010
1000
0001
1000
0010
0100
0001
1000
,
0010
0100
0001
0100
0010
1000
0001
1000
0001
1000
0001
1000
0100
0010
0001
0010
,
0001
0010
0001
0010
0100
1000
0001
1000
0001
1000
0001
1000
0010
0100
0001
0100
,
0001
0100
0001
0100
0010
1000
0100
1000
0100
1000
0100
1000
0010
0100
0001
0100
,
0001
0100
0001
0100
0010
1000
0001
1000
0001
1000
0001
1000
0100
0010
0001
0010
,
0001
0010
0001
0010
0100
1000
0010
1000
0010
1000
0010
1000
0100
0010
0001
0010
,
0001
0010
0001
0010
0100
1000
0001
0010
0100
1000
0001
1000
0001
0100
0001
0100
,
0001
1000
0100
1000
0100
0010
0001
0010
0001
1000
0100
0010
0100
1000
0001
1000
,
0001
0000
0100
0000
0010
0000
1000
0000
0000
0001
0000
0000
1000
0000
0100
0000
0010
0000
0001
0000
0000
1000
0000
0000
0001
0000
0100
0000
0010
0000
1000
0000
0000
0001
0000
0000
1000
0000
0100
0000
0010
0000
0001
0000
0000
1000
0000
0000
,
0001
0100
0001
1000
0100
1000
0001
0100
0001
0100
0010
1000
0001
1000
0100
0010
,
0100
0010
0001
1000
0001
0100
0010
0100
0010
1000
0001
1000
0001
1000
0001
0100
,
0010
0100
0001
1000
0100
1000
0010
0100
0010
0100
0001
1000
0010
0100
0001
0100
,
0001
1000
0010
0100
0010
1000
0001
0100
0010
0100
0010
1000
0001
0100
0001
1000
,
0010
0100
0010
1000
0001
0010
0001
0100
0010
0100
0001
1000
0100
0010
0100
0010
,
0001
1000
0001
1000
0001
1000
0001
0010
0100
0010
0001
1000
0001
0100
0010
0100
,
0001
0010
0100
1000
0001
0010
0100
1000
0001
0010
0100
0010
0100
1000
0001
0100
,
0001
1000
0001
1000
0001
1000
0001
1000
0001
1000
0001
1000
0001
1000
0001
1000
,
0001
0100
0010
1000
0100
0010
0001
1000
0001
0010
0001
1000
0010
0100
0001
1000
,
0001
0100
0010
1000
0100
0010
0001
1000
0001
0010
0001
1000
0010
0100
0001
1000
,
0001
0010
0001
0100
0010
0100
0001
0010
0001
1000
0100
1000
0010
0100
0010
1000
,
0001
1000
0010
0100
0001
0010
0100
1000
0010
0100
0001
1000
0100
0010
0001
1000
,
0001
0100
0010
1000
0100
0010
0001
1000
0001
0010
0001
1000
0010
0100
0001
1000
,
0001
0100
0010
1000
0100
0010
0001
1000
0001
0010
0001
1000
0010
0100
0001
1000
,
0001
0010
0001
0100
0010
0100
0001
0010
0001
1000
0100
1000
0010
0100
0010
1000
,
0001
1000
0010
0100
0001
0010
0100
1000
0010
0100
0001
1000
0100
0010
0001
1000
,
0001
0100
0001
0100
0010
1000
0010
0100
0001
0100
0010
1000
0001
1000
0100
0010
,
0001
0010
0100
1000
0010
0100
0010
1000
0001
1000
0100
1000
0010
0100
0001
1000
,
0100
0010
0100
1000
0010
0100
0001
1000
0001
0010
0100
1000
0010
0100
0010
1000
,
0001
1000
0010
1000
0100
0010
0100
1000
0001
0100
0010
1000
0100
0010
0001
1000
,
0001
0010
0100
0010
0100
0010
0100
0010
0001
0100
0010
0100
0010
0100
0010
0100
,
0001
1000
0100
1000
0001
0100
0001
1000
0100
0010
0100
0010
0001
0100
0010
0100
,
0001
1000
0010
1000
0001
0100
0010
0100
0001
1000
0100
1000
0001
0100
0001
0100
,
0010
1000
0001
1000
0001
1000
0010
0100
0010
1000
0001
1000
0001
1000
0010
0100
,
0001
0010
0100
1000
0010
0100
0001
1000
0001
0100
0001
1000
0100
0010
0001
1000
,
0001
0010
0100
1000
0010
0100
0001
1000
0001
0100
0001
1000
0100
0010
0001
1000
,
0001
0100
0001
0010
0100
0010
0001
0100
0001
1000
0010
1000
0100
0010
0100
1000
,
0001
1000
0100
0010
0001
0100
0010
1000
0100
0010
0001
1000
0010
0100
0001
1000
,
0001
0010
0100
1000
0010
0100
0001
1000
0001
0100
0001
1000
0100
0010
0001
1000
,
0001
0010
0100
1000
0010
0100
0001
1000
0001
0100
0001
1000
0100
0010
0001
1000
,
0001
0100
0001
0010
0100
0010
0001
0100
0001
1000
0010
1000
0100
0010
0100
1000
,
0001
1000
0100
0010
0001
0100
0010
1000
0100
0010
0001
1000
0010
0100
0001
1000
,
0001
0100
0001
0100
0010
1000
0010
0100
0001
0100
0010
1000
0001
0010
0100
1000
,
0001
0100
0010
1000
0100
0010
0100
1000
0001
1000
0010
1000
0100
0010
0001
1000
,
0010
0100
0010
1000
0100
0010
0001
1000
0001
0100
0010
1000
0100
0010
0100
1000
,
0001
1000
0100
1000
0010
0100
0010
1000
0001
0010
0100
1000
0010
0100
0001
1000
,
0001
0100
0010
0100
0010
0100
0010
0100
0001
0010
0100
0010
0100
0010
0100
0010
,
0001
1000
0010
1000
0001
0010
0001
1000
0010
0100
0010
0100
0001
0010
0100
0010
,
0001
1000
0100
1000
0001
0010
0100
0010
0100
1000
0001
1000
0100
0010
0001
1000
,
0001
1000
0010
0100
0001
0100
0001
1000
0010
0100
0010
1000
0001
1000
0001
0100
,
0010
1000
0010
1000
0001
0100
0001
0100
0010
1000
0001
0100
0001
1000
0100
1000
,
0001
0010
0100
0010
0100
1000
0001
0100
0001
1000
0100
1000
0010
0100
0010
1000
,
0001
0100
0001
1000
0010
0100
0001
1000
0100
0010
0001
1000
0001
0010
0100
1000
,
0001
0100
0001
1000
0001
0100
0010
1000
0001
0010
0100
1000
0001
1000
0001
1000
,
0001
0010
0001
1000
0100
1000
0100
0010
0001
0010
0001
1000
0001
0100
0010
0100
,
0001
0010
0100
1000
0010
0100
0001
1000
0001
0100
0001
1000
0100
0010
0001
1000
,
0001
0100
0001
0010
0100
0010
0001
0100
0001
1000
0010
1000
0100
0010
0100
1000
,
0001
1000
0100
0010
0001
0100
0010
1000
0100
0010
0001
1000
0010
0100
0001
1000
,
0001
0010
0100
1000
0010
0100
0001
1000
0001
0100
0001
1000
0100
0010
0001
1000
,
0001
0010
0100
1000
0010
0100
0001
1000
0001
0100
0001
1000
0100
0010
0001
1000
,
0001
0100
0001
0010
0100
0010
0001
0100
0001
1000
0010
1000
0100
0010
0100
1000
,
0001
1000
0100
0010
0001
0100
0010
1000
0100
0010
0001
1000
0010
0100
0001
1000
,
0001
0100
0001
0100
0010
1000
0010
0100
0001
0100
0010
1000
0001
0010
0100
1000
,
0001
0100
0010
1000
0100
0010
0100
1000
0001
1000
0010
1000
0100
0010
0001
1000
,
0010
0100
0010
1000
0100
0010
0001
1000
0001
0100
0010
1000
0100
0010
0100
1000
,
0001
1000
0100
1000
0010
0100
0010
1000
0001
0010
0100
1000
0010
0100
0001
1000
,
0001
0100
0010
0100
0010
0100
0010
0100
0001
0010
0100
0010
0100
0010
0100
0010
,
0001
1000
0010
1000
0001
0010
0001
1000
0010
0100
0010
0100
0001
0010
0100
0010
,
0001
1000
0100
1000
0001
0010
0100
0010
0001
1000
0010
1000
0001
0010
0001
0010
,
0100
1000
0001
1000
0001
1000
0010
0100
0001
1000
0001
1000
0001
1000
0100
0010
,
0001
0100
0010
1000
0100
0010
0001
1000
0001
0010
0001
1000
0010
0100
0001
1000
,
0001
0100
0010
1000
0100
0010
0001
1000
0001
0010
0001
1000
0010
0100
0001
1000
,
0001
0010
0001
0100
0010
0100
0001
0010
0001
1000
0100
1000
0010
0100
0010
1000
,
0001
1000
0010
0100
0001
0010
0100
1000
0010
0100
0001
1000
0100
0010
0001
1000
,
0001
0100
0010
1000
0100
0010
0001
1000
0001
0010
0001
1000
0010
0100
0001
1000
,
0001
0100
0010
1000
0100
0010
0001
1000
0001
0010
0001
1000
0010
0100
0001
1000
,
0001
0010
0001
0100
0010
0100
0001
0010
0001
1000
0100
1000
0010
0100
0010
1000
,
0001
1000
0010
0100
0001
0010
0100
1000
0010
0100
0001
1000
0100
0010
0001
1000
,
0001
0010
0001
0010
0100
1000
0100
0010
0001
0010
0100
1000
0001
1000
0010
0100
,
0001
1000
0100
1000
0010
0100
0010
1000
0001
1000
0100
1000
0010
0100
0001
1000
,
0100
0010
0100
1000
0010
0100
0001
1000
0001
0010
0100
1000
0010
0100
0010
1000
,
0001
1000
0010
1000
0100
0010
0100
1000
0001
0100
0010
1000
0100
0010
0001
1000
,
0001
0010
0100
0010
0100
0010
0100
0010
0001
0100
0010
0100
0010
0100
0010
0100
,
0001
1000
0100
1000
0001
0100
0001
1000
0100
0010
0100
0010
0001
0100
0010
0100
,
0001
1000
0010
1000
0001
0100
0010
0100
0001
1000
0100
1000
0001
1000
0001
1000
,
0010
0100
0010
0100
0001
1000
0100
1000
0001
0100
0001
1000
0010
0100
0001
1000
,
0001
1000
0010
1000
0100
0010
0001
1000
0001
1000
0001
1000
0100
0010
0001
1000
,
0100
0010
0100
1000
0010
0100
0001
1000
0001
1000
0001
1000
0010
0100
0001
1000
,
0010
0100
0010
1000
0100
0010
0001
1000
0001
1000
0001
1000
0100
0010
0001
1000
,
0100
0010
0100
1000
0010
0100
0001
1000
0001
1000
0001
1000
0010
0100
0001
1000
,
0010
0100
0010
1000
0100
0010
0001
1000
0001
1000
0001
1000
0100
0010
0001
1000
,
0100
0010
0100
1000
0010
0100
0001
1000
0001
1000
0001
1000
0010
0100
0001
1000
,
0010
0100
0010
1000
0100
0010
0001
1000
0001
1000
0001
1000
0010
0100
0001
1000
,
0010
0100
0010
1000
0100
0010
0001
1000
0001
1000
0001
1000
0100
0010
0001
1000
,
0100
0010
0100
1000
0010
0100
0001
1000
0001
1000
0001
1000
0100
0010
0100
0010
,
0001
1000
0100
1000
0010
0100
0010
0100
0001
1000
0010
1000
0100
0010
0100
0010
,
0001
1000
0010
1000
0100
0010
0001
1000
0100
1000
0001
1000
0010
0100
0010
0100
,
0001
1000
0010
1000
0100
0010
0100
0010
0001
1000
0100
1000
0010
0100
0010
0100
,
0001
0010
0001
1000
0100
0010
0100
1000
0010
0100
0010
1000
0100
0010
0100
0010
,
0001
1000
0100
1000
0010
0100
0010
0100
0001
1000
0010
1000
0100
0010
0100
0010
,
0001
1000
0100
1000
0010
0100
0001
1000
0010
1000
0001
1000
0010
0100
0010
0100
,
0001
1000
0010
1000
0100
0010
0100
0010
0001
1000
0100
1000
0010
0100
0010
0100
,
0001
0100
0001
1000
0100
1000
0001
0100
0001
0100
0001
1000
0010
0100
0001
1000
,
0001
1000
0001
0100
0010
0100
0001
1000
0001
1000
0001
0010
0100
1000
0001
1000
,
0001
0100
0001
0100
0010
1000
0010
0100
0001
1000
0001
1000
0010
0100
0010
1000
,
0001
0010
0001
1000
0010
1000
0001
0100
0001
0100
0010
1000
0001
0010
0001
0010
,
0100
1000
0001
1000
0010
0100
0001
0100
0010
1000
0001
0100
0001
0100
0010
1000
,
0010
0100
0001
0100
0010
1000
0100
0010
0100
1000
0001
0100
0001
0100
0010
0100
,
0001
0010
0100
1000
0001
0010
0100
1000
0001
0010
0100
0010
0100
1000
0001
0100
,
0001
1000
0001
1000
0001
1000
0001
1000
0001
1000
0001
1000
0001
1000
0001
1000
,
0001
0100
0010
1000
0100
0010
0001
1000
0001
0010
0001
1000
0010
0100
0001
1000
,
0001
0100
0010
1000
0100
0010
0001
1000
0001
0010
0001
1000
0010
0100
0001
1000
,
0001
0010
0001
0100
0010
0100
0001
0010
0001
1000
0100
1000
0010
0100
0010
1000
,
0001
1000
0010
0100
0001
0010
0100
1000
0010
0100
0001
1000
0100
0010
0001
1000
,
0001
0100
0010
1000
0100
0010
0001
1000
0001
0010
0001
1000
0010
0100
0001
1000
,
0001
0100
0010
1000
0100
0010
0001
1000
0001
0010
0001
1000
0010
0100
0001
1000
,
0001
0010
0001
0100
0010
0100
0001
0010
0001
1000
0100
1000
0010
0100
0010
1000
,
0001
1000
0010
0100
0001
0010
0100
1000
0010
0100
0001
1000
0100
0010
0001
1000
,
0001
0100
0001
0100
0010
1000
0010
0100
0001
0100
0010
1000
0100
0010
0001
1000
,
0001
0010
0100
1000
0010
0100
0010
1000
0001
1000
0100
1000
0010
0100
0001
1000
,
0100
0010
0100
1000
0010
0100
0001
1000
0001
0010
0100
1000
0010
0100
0010
1000
,
0001
1000
0010
1000
0100
0010
0100
1000
0001
0100
0010
1000
0100
0010
0001
1000
,
0001
0010
0100
0010
0100
0010
0100
0010
0001
0100
0010
0100
0010
0100
0010
0100
,
0001
1000
0100
1000
0001
0100
0001
1000
0100
0010
0100
0010
0001
0100
0010
0100
,
0001
1000
0010
1000
0001
0100
0010
0100
0001
1000
0100
1000
0001
0100
0001
0100
,
0010
1000
0001
1000
0001
1000
0010
0100
0010
1000
0001
1000
0001
1000
0010
0100
,
0001
0010
0100
1000
0010
0100
0001
1000
0001
0100
0001
1000
0100
0010
0001
1000
,
0001
0010
0100
1000
0010
0100
0001
1000
0001
0100
0001
1000
0100
0010
0001
1000
,
0001
0100
0001
0010
0100
0010
0001
0100
0001
1000
0010
1000
0100
0010
0100
1000
,
0001
1000
0100
0010
0001
0100
0010
1000
0100
0010
0001
1000
0010
0100
0001
1000
,
0001
0010
0100
1000
0010
0100
0001
1000
0001
0100
0001
1000
0100
0010
0001
1000
,
0001
0010
0100
1000
0010
0100
0001
1000
0001
0100
0001
1000
0100
0010
0001
1000
,
0001
0100
0001
0010
0100
0010
0001
0100
0001
1000
0010
1000
0100
0010
0100
1000
,
0001
1000
0100
0010
0001
0100
0010
1000
0100
0010
0001
1000
0010
0100
0001
1000
,
0001
0010
0001
0010
0100
1000
0100
0010
0001
0010
0100
1000
0001
1000
0010
0100
,
0001
0100
0010
1000
0100
0010
0100
1000
0001
1000
0010
1000
0100
0010
0001
1000
,
0010
0100
0010
1000
0100
0010
0001
1000
0001
0100
0010
1000
0100
0010
0100
1000
,
0001
1000
0100
1000
0010
0100
0010
1000
0001
0010
0100
1000
0010
0100
0001
1000
,
0001
0100
0010
0100
0010
0100
0010
0100
0001
0010
0100
0010
0100
0010
0100
0010
,
0001
1000
0010
1000
0001
0010
0001
1000
0010
0100
0010
0100
0001
0010
0100
0010
,
0001
1000
0100
1000
0001
0010
0100
0010
0001
1000
0010
1000
0001
0010
0001
0010
,
0100
1000
0100
1000
0001
0100
0010
1000
0001
0100
0001
1000
0100
0010
0001
1000
,
0001
0100
0001
1000
0100
1000
0001
0100
0001
0100
0001
1000
0100
1000
0100
0010
,
0001
0010
0100
1000
0010
0100
0001
1000
0001
0100
0001
1000
0100
0010
0001
1000
,
0001
0100
0001
0010
0100
0010
0001
0100
0001
1000
0010
1000
0100
0010
0100
1000
,
0001
1000
0100
0010
0001
0100
0010
1000
0100
0010
0001
1000
0010
0100
0001
1000
,
0001
0010
0100
1000
0010
0100
0001
1000
0001
0100
0001
1000
0100
0010
0001
1000
,
0001
0010
0100
1000
0010
0100
0001
1000
0001
0100
0001
1000
0100
0010
0001
1000
,
0001
0100
0001
0010
0100
0010
0001
0100
0001
1000
0010
1000
0100
0010
0100
1000
,
0001
1000
0100
0010
0001
0100
0010
1000
0100
0010
0001
1000
0010
0100
0001
1000
,
0001
0100
0001
0100
0010
1000
0010
0100
0001
0100
0010
1000
0001
0010
0100
1000
,
0001
0100
0010
1000
0100
0010
0100
1000
0001
1000
0010
1000
0100
0010
0001
1000
,
0010
0100
0010
1000
0100
0010
0001
1000
0001
0100
0010
1000
0100
0010
0100
1000
,
0001
1000
0100
1000
0010
0100
0010
1000
0001
0010
0100
1000
0010
0100
0001
1000
,
0001
0100
0010
0100
0010
0100
0010
0100
0001
0010
0100
0010
0100
0010
0100
0010
,
0001
1000
0010
1000
0001
0010
0001
1000
0010
0100
0010
0100
0001
0010
0100
0010
,
0001
1000
0100
1000
0001
0010
0100
0010
0001
1000
0010
1000
0001
0010
0001
0010
,
0100
1000
0001
1000
0001
0100
0010
0100
0010
1000
0001
1000
0001
1000
0100
0010
,
0001
0100
0010
1000
0100
0010
0001
1000
0001
0010
0001
1000
0010
0100
0001
1000
,
0001
0100
0010
1000
0100
0010
0001
1000
0001
0010
0001
1000
0010
0100
0001
1000
,
0001
0010
0001
0100
0010
0100
0001
0010
0001
1000
0100
1000
0010
0100
0010
1000
,
0001
1000
0010
0100
0001
0010
0100
1000
0010
0100
0001
1000
0100
0010
0001
1000
,
0001
0100
0010
1000
0100
0010
0001
1000
0001
0010
0001
1000
0010
0100
0001
1000
,
0001
0100
0010
1000
0100
0010
0001
1000
0001
0010
0001
1000
0010
0100
0001
1000
,
0001
0010
0001
0100
0010
0100
0001
0010
0001
1000
0100
1000
0010
0100
0010
1000
,
0001
1000
0010
0100
0001
0010
0100
1000
0010
0100
0001
1000
0100
0010
0001
1000
,
0001
0010
0001
0010
0100
1000
0100
0010
0001
0010
0100
1000
0001
1000
0010
0100
,
0001
0010
0100
1000
0010
0100
0010
1000
0001
1000
0100
1000
0010
0100
0001
1000
,
0100
0010
0100
1000
0010
0100
0001
1000
0001
0010
0100
1000
0010
0100
0010
1000
,
0001
1000
0010
1000
0100
0010
0100
1000
0001
0100
0010
1000
0100
0010
0001
1000
,
0001
0010
0100
0010
0100
0010
0100
0010
0001
0100
0010
0100
0010
0100
0010
0100
,
0001
1000
0100
1000
0001
0100
0001
1000
0100
0010
0100
0010
0001
0100
0010
0100
,
0001
1000
0010
1000
0001
0100
0010
0100
0001
1000
0100
1000
0001
0100
0001
0100
,
0010
1000
0001
0100
0010
0100
0001
1000
0100
1000
0100
0010
0001
0010
0001
1000
,
0001
0100
0001
0100
0010
1000
0001
0100
0001
1000
0100
1000
0001
0100
0010
1000
,
0010
0100
0001
1000
0010
0100
0010
1000
0001
0100
0001
1000
0010
1000
0001
1000
,
0100
0010
0001
1000
0001
0100
0010
0100
0001
1000
0100
0010
0100
0010
0001
1000
,
0001
0100
0010
0100
0001
1000
0010
0100
0001
1000
0001
1000
0100
0010
0100
0010
,
0001
1000
0100
1000
0001
0100
0010
0100
0001
1000
0001
1000
0100
0010
0001
1000
,
0001
0100
0010
0100
0001
1000
0001
0100
0001
1000
0010
0100
0001
0100
0001
1000
,
0010
0100
0001
1000
0010
0100
0001
0100
0010
1000
0001
0010
0100
0010
0100
1000
,
0001
1000
0100
1000
0001
0100
0001
1000
0001
1000
0010
0100
0010
0100
0010
0100
,
0001
1000
0001
1000
0100
0010
0100
0010
0001
1000
0001
0100
0010
0100
0001
1000
,
0100
1000
0001
0100
0010
0100
0001
1000
0001
1000
0010
0100
0010
0100
0001
1000
,
0010
1000
0100
0010
0001
1000
0010
0100
0010
1000
0001
0010
0100
0010
0100
1000
,
0001
0100
0001
0100
0001
1000
0100
1000
0001
0100
0010
0100
0010
0100
0010
0100
,
0001
1000
0100
1000
0010
0100
0010
0100
0010
1000
0001
1000
0001
0100
0001
1000
,
0010
0100
0010
0100
0001
1000
0010
1000
0001
1000
0100
0010
0100
0010
0001
1000
,
0100
1000
0001
0100
0010
0100
0010
0100
0001
1000
0001
0100
0010
0100
0010
1000
,
0001
0100
0010
1000
0010
0100
0001
0100
0001
1000
0100
0010
0100
0010
0100
0010
,
0001
0010
0100
1000
0010
0100
0001
1000
0001
0010
0100
1000
0010
0100
0001
1000
,
0001
0010
0100
1000
0010
1000
0001
0010
0100
1000
0010
0100
0001
0100
0001
1000
,
0001
0010
0100
1000
0010
1000
0001
0010
0100
1000
0010
0100
0001
0100
0001
1000
,
0001
0010
0100
1000
0010
1000
0001
0010
0100
1000
0010
0100
0001
0100
0001
1000
,
0001
0100
0010
1000
0100
0010
0001
1000
0001
0100
0010
1000
0100
0010
0001
1000
,
0001
0100
0010
1000
0100
1000
0001
0100
0010
1000
0100
0010
0001
0010
0001
1000
,
0001
0100
0010
1000
0100
1000
0001
0100
0010
1000
0100
0010
0001
0010
0001
1000
,
0001
0100
0010
1000
0100
1000
0001
0100
0010
1000
0100
0010
0001
0010
0001
1000
,
0001
0010
0100
1000
0010
0100
0010
1000
0001
0010
0100
1000
0010
0100
0010
1000
,
0001
0010
0100
1000
0010
1000
0001
0010
0100
1000
0010
0100
0010
0100
0010
1000
,
0001
0010
0100
1000
0010
1000
0001
0010
0100
1000
0010
0100
0010
0100
0010
1000
,
0001
0010
0100
1000
0010
1000
0001
0010
0100
1000
0010
0100
0010
0100
0010
1000
,
0001
0100
0010
1000
0100
0010
0100
1000
0001
0100
0010
1000
0100
0010
0100
1000
,
0001
0100
0010
1000
0100
1000
0001
0100
0010
1000
0100
0010
0100
0010
0100
1000
,
0001
0100
0010
1000
0100
1000
0001
0100
0010
1000
0100
0010
0100
0010
0100
1000
,
0001
0100
0010
1000
0100
1000
0001
0100
0010
1000
0100
0010
0100
0010
0100
1000
,
0001
0100
0001
0100
0010
1000
0001
0100
0001
0100
0010
1000
0001
1000
0001
1000
,
0010
0100
0001
1000
0010
0100
0010
1000
0010
0100
0001
1000
0010
1000
0010
1000
,
0001
0100
0010
0100
0001
1000
0100
1000
0100
1000
0001
0100
0010
0100
0010
1000
,
0001
1000
0100
0010
0100
0010
0001
1000
0010
1000
0100
1000
0001
0010
0001
0010
,
0100
1000
0010
1000
0010
0100
0001
1000
0001
0010
0100
1000
0010
1000
0010
1000
,
0001
0100
0010
1000
0100
1000
0100
0010
0100
0010
0001
1000
0010
0100
0010
0100
,
0001
1000
0001
0010
0100
1000
0001
0010
0001
0010
0100
1000
0001
0100
0001
0100
,
0010
1000
0001
0100
0001
0100
0010
1000
0001
1000
0010
0100
0010
1000
0001
1000
,
0010
0100
0001
0100
0001
0010
0100
1000
0100
1000
0010
0100
0001
1000
0001
1000
,
0100
0010
0001
1000
0001
0100
0001
0010
0001
0010
0100
1000
0001
0010
0001
0010
,
0100
1000
0001
0100
0001
0100
0001
0100
0001
0100
0010
1000
0001
0100
0001
0100
,
0010
1000
0100
1000
0010
0100
0001
0010
0001
0010
0100
1000
0001
1000
0001
1000
,
0010
0100
0010
0100
0001
1000
0001
0010
0001
0010
0100
1000
0001
0100
0001
0100
,
0010
1000
0001
1000
0010
0100
0001
0100
0001
1000
0001
1000
0010
0100
0010
0100
,
0001
1000
0100
0010
0001
1000
0001
0100
0010
0100
0001
1000
0001
0010
0001
0010
,
0100
1000
0001
1000
0001
0100
0010
0100
0001
1000
0010
0100
0001
1000
0100
1000
,
0001
0010
0001
1000
0001
1000
0100
0010
0001
1000
0001
1000
0100
0010
0001
1000
,
0001
1000
0010
0100
0001
1000
0001
1000
0010
0100
0001
1000
0001
1000
0010
0100
,
0001
1000
0001
1000
0010
0100
0001
0100
0001
1000
0010
0100
0001
0100
0001
1000
,
0100
0010
0001
0010
0001
1000
0100
0010
0001
0010
0001
1000
0100
0010
0100
1000
,
0010
0100
0001
1000
0001
1000
0010
0100
0001
1000
0001
1000
0010
0100
0001
1000
,
0001
1000
0100
0010
0001
1000
0001
1000
0100
0010
0001
1000
0001
1000
0100
0010
,
0001
1000
0001
1000
0100
0010
0001
0010
0001
1000
0100
0010
0001
0010
0001
1000
,
0010
0100
0001
0100
0001
1000
0010
0100
0001
0100
0001
1000
0010
0100
0010
1000
,
0100
0010
0001
1000
0001
1000
0100
0010
0001
1000
0001
1000
0100
0010
0001
1000
,
0001
1000
0010
0100
0001
1000
0001
1000
0010
0100
0001
1000
0001
1000
0010
0100
,
0001
1000
0001
1000
0010
0100
0001
0100
0001
1000
0010
0100
0001
0100
0001
1000
,
0100
0010
0001
0010
0001
1000
0100
0010
0001
0010
0001
1000
0100
0010
0100
1000
,
0010
0100
0001
1000
0001
1000
0010
0100
0001
1000
0001
1000
0010
0100
0001
1000
,
0001
1000
0100
0010
0001
1000
0001
1000
0100
0010
0001
1000
0001
1000
0100
0010
,
0001
1000
0001
1000
0100
0010
0001
0010
0001
1000
0100
0010
0001
0010
0001
1000
,
0100
0010
0001
1000
0001
1000
0001
0010
0100
1000
0001
0100
0010
1000
0001
1000
,
0001
0100
0001
0100
0010
1000
0001
0100
0001
0100
0010
1000
0001
1000
0001
1000
,
0010
0100
0001
1000
0010
0100
0010
1000
0010
0100
0001
1000
0010
1000
0010
1000
,
0001
0100
0010
0100
0001
1000
0100
1000
0100
1000
0001
0100
0010
0100
0010
1000
,
0001
1000
0100
0010
0100
0010
0001
1000
0010
1000
0100
1000
0001
0010
0001
0010
,
0100
1000
0010
1000
0010
0100
0001
1000
0001
0010
0100
1000
0010
1000
0010
1000
,
0001
0100
0010
1000
0100
1000
0100
0010
0100
0010
0001
1000
0010
0100
0010
0100
,
0001
1000
0001
0010
0100
1000
0001
0010
0001
0010
0100
1000
0001
0100
0001
0100
,
0010
1000
0001
0100
0001
0100
0010
1000
0001
1000
0010
0100
0010
1000
0001
1000
,
0010
0100
0001
0100
0001
0010
0100
1000
0100
1000
0010
0100
0001
1000
0001
1000
,
0100
0010
0001
1000
0001
0100
0001
0010
0001
0010
0100
1000
0001
0010
0001
0010
,
0100
1000
0001
0100
0001
0100
0001
0100
0001
0100
0010
1000
0001
0100
0001
0100
,
0010
1000
0100
1000
0010
0100
0001
0010
0001
0010
0100
1000
0001
1000
0001
1000
,
0010
0100
0010
0100
0001
1000
0001
0010
0001
0010
0100
1000
0001
0100
0001
0100
,
0010
1000
0001
1000
0010
0100
0001
0100
0001
1000
0001
1000
0010
0100
0010
0100
,
0001
1000
0100
0010
0001
1000
0001
0100
0010
0100
0001
1000
0001
0010
0001
0010
,
0100
1000
0001
1000
0001
0100
0010
0100
0001
1000
0010
0100
0001
1000
0100
1000
,
0100
0010
0001
1000
0001
1000
0100
0010
0001
1000
0001
1000
0100
0010
0001
1000
,
0001
1000
0010
0100
0001
1000
0001
1000
0010
0100
0001
1000
0001
1000
0010
0100
,
0001
1000
0001
1000
0010
0100
0001
0100
0001
1000
0010
0100
0001
0100
0001
1000
,
0100
0010
0001
0010
0001
1000
0100
0010
0001
0010
0001
1000
0100
0010
0100
1000
,
0010
0100
0001
1000
0001
1000
0010
0100
0001
1000
0001
1000
0010
0100
0001
1000
,
0001
1000
0100
0010
0001
1000
0001
1000
0100
0010
0001
1000
0001
1000
0100
0010
,
0001
1000
0001
1000
0100
0010
0001
0010
0001
1000
0100
0010
0001
0010
0001
1000
,
0010
0100
0001
0100
0001
1000
0010
0100
0001
0100
0001
1000
0010
0100
0010
1000
,
0100
0010
0001
1000
0001
1000
0100
0010
0001
1000
0001
1000
0100
0010
0001
1000
,
0001
1000
0010
0100
0001
1000
0001
1000
0010
0100
0001
1000
0001
1000
0010
0100
,
0001
1000
0001
1000
0010
0100
0001
0100
0001
1000
0010
0100
0001
0100
0001
1000
,
0100
0010
0001
0010
0001
1000
0100
0010
0001
0010
0001
1000
0100
0010
0100
1000
,
0010
0100
0001
1000
0001
1000
0010
0100
0001
1000
0001
1000
0010
0100
0001
1000
,
0001
1000
0100
0010
0001
1000
0001
1000
0100
0010
0001
1000
0001
1000
0100
0010
,
0001
1000
0001
1000
0100
0010
0001
0010
0001
1000
0100
0010
0001
0010
0001
1000
,
0010
0000
0000
0100
0000
0000
0001
0000
0000
1000
0000
0000
0100
0000
0000
1000
0000
0000
0001
0000
0000
0100
0000
0000
0001
0000
0010
0000
0100
0000
1000
0000
0001
0000
0010
0000
0100
0000
1000
0000
0001
0000
0010
0000
0100
0000
1000
0000
,
0001
0100
0010
1000
0100
1000
0001
0100
0010
1000
0100
1000
0001
0100
0010
1000
,
0100
1000
0001
0100
0010
1000
0100
1000
0001
0100
0010
1000
0100
1000
0001
0100
,
0010
1000
0100
1000
0001
0100
0010
1000
0100
1000
0001
0100
0010
1000
0100
1000
,
0001
0100
0010
1000
0100
1000
0001
0100
0010
1000
0100
1000
0001
0100
0010
1000
,
0100
1000
0001
0100
0010
1000
0100
1000
0001
0100
0010
1000
0100
1000
0001
0100
,
0010
1000
0100
1000
0001
0100
0010
1000
0100
1000
0001
0100
0010
1000
0100
1000
,
0001
0100
0010
1000
0100
1000
0001
0100
0010
1000
0100
1000
0001
0100
0010
1000
,
0100
1000
0001
0100
0010
1000
0100
1000
0001
0100
0010
1000
0100
1000
0001
0100
,
0001
0010
0100
1000
0010
1000
0001
0010
0100
1000
0010
1000
0001
0010
0100
1000
,
0010
1000
0001
0010
0100
1000
0010
1000
0001
0010
0100
1000
0010
1000
0001
0010
,
0100
1000
0010
1000
0001
0010
0100
1000
0010
1000
0001
0010
0100
1000
0010
1000
,
0001
0010
0100
1000
0010
1000
0001
0010
0100
1000
0010
1000
0001
0010
0100
1000
,
0010
1000
0001
0010
0100
1000
0010
1000
0001
0010
0100
1000
0010
1000
0001
0010
,
0100
1000
0010
1000
0001
0010
0100
1000
0010
1000
0001
0010
0100
1000
0010
1000
,
0001
0010
0100
1000
0010
1000
0001
0010
0100
1000
0010
1000
0001
0010
0100
1000
,
0010
1000
0001
0010
0100
1000
0010
1000
0001
0010
0100
1000
0010
1000
0001
0010
,
0001
1000
0010
1000
0100
0010
0001
1000
0010
1000
0100
0010
0001
1000
0010
1000
,
0100
0010
0001
1000
0010
1000
0100
0010
0001
1000
0010
1000
0100
0010
0001
1000
,
0010
1000
0100
0010
0001
1000
0010
1000
0100
0010
0001
1000
0010
1000
0100
0010
,
0001
1000
0010
1000
0100
0010
0001
1000
0010
1000
0100
0010
0001
1000
0010
1000
,
0100
0010
0001
1000
0010
1000
0100
0010
0001
1000
0010
1000
0100
0010
0001
1000
,
0010
1000
0100
0010
0001
1000
0010
1000
0100
0010
0001
1000
0010
1000
0100
0010
,
0001
1000
0010
1000
0100
0010
0001
1000
0010
1000
0100
0010
0001
1000
0010
1000
,
0100
0010
0001
1000
0010
1000
0100
0010
0001
1000
0010
1000
0100
0010
0001
1000
,
0001
1000
0100
1000
0010
0100
0001
1000
0100
1000
0010
0100
0001
1000
0100
1000
,
0010
0100
0001
1000
0100
1000
0010
0100
0001
1000
0100
1000
0010
0100
0001
1000
,
0100
1000
0010
0100
0001
1000
0100
1000
0010
0100
0001
1000
0100
1000
0010
0100
,
0001
1000
0100
1000
0010
0100
0001
1000
0100
1000
0010
0100
0001
1000
0100
1000
,
0001
0100
0001
0100
0010
1000
0001
0100
0001
0100
0010
1000
0001
1000
0001
1000
,
0010
0100
0001
1000
0010
0100
0010
1000
0010
0100
0001
1000
0010
1000
0010
1000
,
0001
0100
0010
0100
0001
1000
0100
1000
0100
1000
0001
0100
0010
0100
0010
1000
,
0001
1000
0100
0010
0100
0010
0001
1000
0010
1000
0100
1000
0001
0010
0001
0010
,
0100
1000
0010
1000
0010
0100
0001
1000
0001
0010
0100
1000
0010
1000
0010
1000
,
0001
0100
0010
1000
0100
1000
0100
0010
0100
0010
0001
1000
0010
0100
0010
0100
,
0001
1000
0001
0010
0100
1000
0001
0010
0001
0010
0100
1000
0001
0100
0001
0100
,
0010
1000
0001
0100
0001
0100
0010
1000
0001
1000
0010
0100
0010
1000
0001
1000
,
0010
0100
0001
0100
0001
0010
0100
1000
0100
1000
0010
0100
0001
1000
0001
1000
,
0100
0010
0001
1000
0001
0100
0001
0010
0001
0010
0100
1000
0001
0010
0001
0010
,
0100
1000
0001
0100
0001
0100
0001
0100
0001
0100
0010
1000
0001
0100
0001
0100
,
0010
1000
0100
1000
0010
0100
0001
0010
0001
0010
0100
1000
0001
1000
0001
1000
,
0010
0100
0010
0100
0001
1000
0001
0010
0001
0010
0100
1000
0001
0100
0001
0100
,
0010
1000
0001
1000
0010
0100
0001
0100
0001
1000
0001
1000
0010
0100
0010
0100
,
0001
1000
0100
0010
0001
1000
0001
0100
0010
0100
0001
1000
0001
0010
0001
0010
,
0100
1000
0001
1000
0001
0100
0010
0100
0001
1000
0010
0100
0001
1000
0100
1000
,
0100
0010
0001
1000
0001
1000
0100
0010
0001
1000
0001
1000
0100
0010
0001
1000
,
0001
1000
0010
0100
0001
1000
0001
1000
0010
0100
0001
1000
0001
1000
0010
0100
,
0001
1000
0001
1000
0010
0100
0001
0100
0001
1000
0010
0100
0001
0100
0001
1000
,
0100
0010
0001
0010
0001
1000
0100
0010
0001
0010
0001
1000
0100
0010
0100
1000
,
0010
0100
0001
1000
0001
1000
0010
0100
0001
1000
0001
1000
0010
0100
0001
1000
,
0001
1000
0100
0010
0001
1000
0001
1000
0100
0010
0001
1000
0001
1000
0100
0010
,
0001
1000
0001
1000
0100
0010
0001
0010
0001
1000
0100
0010
0001
0010
0001
1000
,
0010
0100
0001
0100
0001
1000
0010
0100
0001
0100
0001
1000
0010
0100
0010
1000
,
0100
0010
0001
1000
0001
1000
0100
0010
0001
1000
0001
1000
0100
0010
0001
1000
,
0001
1000
0010
0100
0001
1000
0001
1000
0010
0100
0001
1000
0001
1000
0010
0100
,
0001
1000
0001
1000
0010
0100
0001
0100
0001
1000
0010
0100
0001
0100
0001
1000
,
0100
0010
0001
0010
0001
1000
0100
0010
0001
0010
0001
1000
0100
0010
0100
1000
,
0010
0100
0001
1000
0001
1000
0010
0100
0001
1000
0001
1000
0010
0100
0001
1000
,
0001
1000
0100
0010
0001
1000
0001
1000
0100
0010
0001
1000
0001
1000
0100
0010
,
0001
1000
0001
1000
0100
0010
0001
0010
0001
1000
0100
0010
0001
0010
0001
1000
,
0010
0100
0001
1000
0001
1000
0001
0010
0100
1000
0001
0100
0010
1000
0001
1000
,
0001
0100
0001
0100
0010
1000
0001
0100
0001
0100
0010
1000
0001
1000
0001
1000
,
0010
0100
0001
1000
0010
0100
0010
1000
0010
0100
0001
1000
0010
1000
0010
1000
,
0001
0100
0010
0100
0001
1000
0100
1000
0100
1000
0001
0100
0010
0100
0010
1000
,
0001
1000
0100
0010
0100
0010
0001
1000
0010
1000
0100
1000
0001
0010
0001
0010
,
0100
1000
0010
1000
0010
0100
0001
1000
0001
0010
0100
1000
0010
1000
0010
1000
,
0001
0100
0010
1000
0100
1000
0100
0010
0100
0010
0001
1000
0010
0100
0010
0100
,
0001
1000
0001
0010
0100
1000
0001
0010
0001
0010
0100
1000
0001
0100
0001
0100
,
0010
1000
0001
0100
0001
0100
0010
1000
0001
1000
0010
0100
0010
1000
0001
1000
,
0010
0100
0001
0100
0001
0010
0100
1000
0100
1000
0010
0100
0001
1000
0001
1000
,
0100
0010
0001
1000
0001
0100
0001
0010
0001
0010
0100
1000
0001
0010
0001
0010
,
0100
1000
0001
0100
0001
0100
0001
0100
0001
0100
0010
1000
0001
0100
0001
0100
,
0010
1000
0100
1000
0010
0100
0001
0010
0001
0010
0100
1000
0001
1000
0001
1000
,
0010
0100
0010
0100
0001
1000
0001
0010
0001
0010
0100
1000
0001
0100
0001
0100
,
0010
1000
0001
1000
0010
0100
0001
0100
0001
1000
0001
1000
0010
0100
0010
0100
,
0001
1000
0100
0010
0001
1000
0001
0100
0010
0100
0001
1000
0001
0010
0001
0010
,
0100
1000
0001
1000
0001
0100
0010
0100
0001
1000
0010
0100
0001
1000
0100
1000
,
0100
0010
0001
1000
0001
1000
0100
0010
0001
1000
0001
1000
0100
0010
0001
1000
,
0001
1000
0010
0100
0001
1000
0001
1000
0010
0100
0001
1000
0001
1000
0010
0100
,
0001
1000
0001
1000
0010
0100
0001
0100
0001
1000
0010
0100
0001
0100
0001
1000
,
0100
0010
0001
0010
0001
1000
0100
0010
0001
0010
0001
1000
0100
0010
0100
1000
,
0010
0100
0001
1000
0001
1000
0010
0100
0001
1000
0001
1000
0010
0100
0001
1000
,
0001
1000
0100
0010
0001
1000
0001
1000
0100
0010
0001
1000
0001
1000
0100
0010
,
0001
1000
0001
1000
0100
0010
0001
0010
0001
1000
0100
0010
0001
0010
0001
1000
,
0010
0100
0001
0100
0001
1000
0010
0100
0001
0100
0001
1000
0010
0100
0010
1000
,
0100
0010
0001
1000
0001
1000
0100
0010
0001
1000
0001
1000
0100
0010
0001
1000
,
0001
1000
0010
0100
0001
1000
0001
1000
0010
0100
0001
1000
0001
1000
0010
0100
,
0001
1000
0001
1000
0010
0100
0001
0100
0001
1000
0010
0100
0001
0100
0001
1000
,
0100
0010
0001
0010
0001
1000
0100
0010
0001
0010
0001
1000
0100
0010
0100
1000
,
0010
0100
0001
1000
0001
1000
0010
0100
0001
1000
0001
1000
0010
0100
0001
1000
,
0001
1000
0100
0010
0001
1000
0001
1000
0100
0010
0001
1000
0001
1000
0100
0010
,
0001
1000
0001
1000
0100
0010
0001
0010
0001
1000
0100
0010
0001
0010
0001
1000
,
0001
0000
0000
0100
0000
0000
0010
0000
0000
0100
0000
0000
0001
0000
0000
1000
0000
0000
0001
0000
0000
0100
0000
0000
0001
0000
0100
0000
0001
0000
0100
0000
0010
0000
1000
0000
0010
0000
1000
0000
0001
0000
0100
0000
0001
0000
1000
0000
,
0001
1000
0010
0100
0001
0100
0001
1000
0100
0010
0100
0010
0001
1000
0001
0100
,
0010
0100
0001
1000
0100
0010
0001
1000
0010
0100
0010
1000
0001
0100
0001
1000
,
0100
1000
0001
0100
0001
0100
0010
1000
0001
0100
0001
1000
0100
1000
0001
0100
,
0001
0010
0100
1000
0001
0100
0001
1000
0010
0100
0010
1000
0001
0010
0100
1000
,
0001
0100
0010
0100
0001
1000
0001
1000
0100
0010
0001
1000
0010
1000
0001
0100
,
0001
0100
0010
1000
0001
0100
0001
0100
0010
1000
0001
0100
0010
0100
0001
1000
,
0001
0100
0001
0100
0010
1000
0001
0100
0010
1000
0001
0010
0100
1000
0001
0010
,
0001
1000
0100
1000
0001
0010
0100
1000
0001
0100
0001
0100
0010
1000
0100
0010
,
0001
1000
0010
1000
0100
1000
0001
1000
0100
1000
0001
0010
0001
0010
0100
1000
,
0001
0010
0001
0010
0100
1000
0010
1000
0100
1000
0001
0100
0010
1000
0010
0100
,
0001
1000
0100
1000
0010
1000
0001
1000
0010
1000
0001
0100
0001
0100
0010
1000
,
0001
0100
0001
0100
0010
1000
0100
1000
0010
1000
0001
0010
0100
1000
0100
0010
,
0001
1000
0010
1000
0100
1000
0001
1000
0100
1000
0001
0010
0001
0010
0100
1000
,
0001
0010
0001
0010
0100
1000
0010
1000
0100
1000
0001
0100
0010
1000
0010
0100
,
0001
1000
0100
1000
0010
1000
0001
1000
0010
1000
0001
0100
0001
0100
0010
1000
,
0001
0100
0001
0100
0010
1000
0100
1000
0010
1000
0001
0010
0100
1000
0100
0010
,
0001
1000
0010
1000
0100
1000
0001
1000
0100
1000
0001
0010
0001
0010
0100
1000
,
0001
0010
0001
0010
0100
1000
0010
1000
0100
1000
0001
0100
0010
1000
0010
0100
,
0001
1000
0100
1000
0010
1000
0001
1000
0010
1000
0001
0100
0001
0100
0010
1000
,
0001
0100
0001
0100
0010
1000
0100
1000
0010
1000
0001
0010
0100
1000
0100
0010
,
0001
1000
0010
1000
0100
1000
0001
1000
0100
1000
0001
0010
0001
0010
0100
1000
,
0001
0010
0001
0010
0100
1000
0010
1000
0100
1000
0001
0100
0010
1000
0010
0100
,
0001
1000
0100
1000
0010
1000
0001
1000
0010
1000
0001
0100
0001
0100
0010
1000
,
0010
1000
0010
1000
0001
0100
0001
0100
0001
1000
0001
1000
0001
1000
0001
1000
,
0001
0010
0100
1000
0010
0100
0001
0010
0100
1000
0010
0100
0001
0010
0100
1000
,
0010
0100
0001
0010
0100
1000
0010
0100
0001
0100
0010
1000
0100
0010
0001
0100
,
0001
1000
0010
0100
0001
0010
0100
1000
0010
0100
0001
0010
0100
1000
0010
0100
,
0001
1000
0100
0010
0001
0100
0010
1000
0010
0100
0001
0010
0100
1000
0010
0100
,
0001
0100
0010
1000
0100
0010
0001
0100
0010
1000
0100
0010
0001
0100
0010
1000
,
0100
0010
0001
0100
0010
1000
0100
0010
0001
0010
0100
1000
0010
0100
0001
0010
,
0001
1000
0100
0010
0001
0100
0010
1000
0100
0010
0001
0100
0010
1000
0100
0010
,
0001
1000
0010
0100
0001
0010
0100
1000
0010
0100
0010
1000
0100
1000
0010
0100
,
0001
0010
0100
1000
0010
0100
0001
0010
0100
1000
0010
0100
0001
0010
0100
1000
,
0010
0100
0001
0010
0100
1000
0010
0100
0001
0100
0010
1000
0100
0010
0001
0100
,
0001
1000
0010
0100
0001
0010
0100
1000
0010
0100
0001
0010
0100
1000
0010
0100
,
0001
1000
0100
0010
0001
0100
0010
1000
0010
0100
0001
0010
0100
1000
0010
0100
,
0001
0100
0010
1000
0100
0010
0001
0100
0010
1000
0100
0010
0001
0100
0010
1000
,
0100
0010
0001
0100
0010
1000
0100
0010
0001
0010
0100
1000
0010
0100
0001
0100
,
0001
1000
0001
1000
0100
1000
0100
1000
0001
0010
0001
0010
0001
0010
0001
0010
,
0100
1000
0100
1000
0100
1000
0100
1000
0001
1000
0001
1000
0010
0100
0010
0100
,
0001
0100
0010
0100
0001
1000
0010
0100
0001
1000
0010
1000
0010
0100
0001
1000
,
0010
1000
0001
0100
0001
1000
0001
1000
0010
0100
0001
0100
0001
1000
0100
1000
,
0100
0010
0001
1000
0001
1000
0001
0010
0100
1000
0001
0100
0001
0100
0010
1000
,
0001
0100
0001
1000
0100
1000
0001
0100
0001
1000
0100
0010
0001
1000
0010
1000
,
0001
0010
0100
1000
0001
1000
0100
0010
0001
1000
0001
0100
0001
0100
0010
1000
,
0100
1000
0001
0100
0010
0100
0001
1000
0100
0010
0001
1000
0001
0100
0010
0100
,
0010
1000
0001
1000
0100
1000
0001
0100
0010
0100
0001
1000
0100
1000
0001
0100
,
0010
0100
0001
1000
0001
0010
0100
1000
0100
0010
0001
1000
0001
0100
0010
1000
,
0001
0100
0010
0100
0001
1000
0010
0100
0001
1000
0100
1000
0001
0100
0010
1000
,
0100
1000
0001
0100
0010
0100
0001
1000
0100
0010
0001
1000
0001
0100
0010
0100
,
0001
1000
0100
1000
0001
0100
0010
0100
0001
1000
0100
0010
0100
0010
0001
1000
,
0001
1000
0010
0100
0010
1000
0001
0010
0001
1000
0010
0100
0001
1000
0100
1000
,
0001
0100
0010
0100
0001
1000
0010
0100
0001
1000
0100
1000
0100
0010
0001
1000
,
0001
1000
0100
0010
0001
1000
0100
1000
0001
0100
0010
0100
0010
1000
0001
0100
,
0010
0100
0001
1000
0100
1000
0001
0100
0010
1000
0001
1000
0001
0100
0010
0100
,
0001
1000
0001
1000
0001
1000
0001
1000
0001
1000
0001
1000
0001
1000
0001
1000
,
0001
1000
0100
1000
0010
1000
0001
1000
0010
1000
0001
0100
0001
0100
0010
1000
,
0001
0100
0001
0100
0010
1000
0100
1000
0010
1000
0001
0010
0100
1000
0100
0010
,
0001
1000
0010
1000
0100
1000
0001
1000
0100
1000
0001
0010
0001
0010
0100
1000
,
0001
0010
0001
0010
0100
1000
0010
1000
0100
1000
0001
0100
0010
1000
0010
0100
,
0001
1000
0100
1000
0010
1000
0001
1000
0010
1000
0001
0100
0001
0100
0010
1000
,
0001
0100
0001
0100
0010
1000
0100
1000
0010
1000
0001
0010
0100
1000
0100
0010
,
0001
1000
0010
1000
0100
1000
0001
1000
0100
1000
0001
0010
0001
0010
0100
1000
,
0001
0010
0001
0010
0100
1000
0010
1000
0100
1000
0001
0100
0010
1000
0010
0100
,
0001
1000
0100
1000
0010
1000
0001
1000
0010
1000
0001
0100
0001
0100
0010
1000
,
0001
0100
0001
0100
0010
1000
0100
1000
0010
1000
0001
0010
0100
1000
0100
0010
,
0001
1000
0010
1000
0100
1000
0001
1000
0100
1000
0001
0010
0001
0010
0100
1000
,
0001
0010
0001
0010
0100
1000
0010
1000
0100
1000
0001
0100
0010
1000
0010
0100
,
0001
1000
0100
1000
0010
1000
0001
1000
0010
1000
0001
0100
0001
0100
0010
1000
,
0001
0100
0001
0100
0010
1000
0100
1000
0010
1000
0001
0010
0100
1000
0100
0010
,
0001
1000
0010
1000
0100
1000
0001
1000
0100
1000
0001
0010
0001
0010
0100
1000
,
0001
0100
0001
0100
0010
1000
0010
1000
0001
1000
0001
1000
0001
1000
0001
1000
,
0001
0010
0100
1000
0010
0100
0001
0010
0100
1000
0010
0100
0001
0010
0100
1000
,
0010
0100
0001
0010
0100
1000
0010
0100
0001
0100
0010
1000
0100
0010
0001
0100
,
0001
1000
0010
0100
0001
0010
0100
1000
0010
0100
0001
0010
0100
1000
0010
0100
,
0001
1000
0100
0010
0001
0100
0010
1000
0010
0100
0001
0010
0100
1000
0010
0100
,
0001
0100
0010
1000
0100
0010
0001
0100
0010
1000
0100
0010
0001
0100
0010
1000
,
0100
0010
0001
0100
0010
1000
0100
0010
0001
0010
0100
1000
0010
0100
0001
0010
,
0001
1000
0100
0010
0001
0100
0010
1000
0100
0010
0001
0100
0010
1000
0100
0010
,
0001
1000
0010
0100
0001
0010
0100
1000
0010
0100
0010
1000
0100
1000
0010
0100
,
0001
0010
0100
1000
0010
0100
0001
0010
0100
1000
0010
0100
0001
0010
0100
1000
,
0010
0100
0001
0010
0100
1000
0010
0100
0001
0100
0010
1000
0100
0010
0001
0100
,
0001
1000
0010
0100
0001
0010
0100
1000
0010
0100
0001
0010
0100
1000
0010
0100
,
0001
1000
0100
0010
0001
0100
0010
1000
0010
0100
0001
0010
0100
1000
0010
0100
,
0001
0100
0010
1000
0100
0010
0001
0100
0010
1000
0100
0010
0001
0100
0010
1000
,
0100
0010
0001
0100
0010
1000
0100
0010
0001
0010
0100
1000
0001
1000
0010
0100
,
0001
1000
0001
1000
0100
1000
0100
1000
0001
0010
0001
0010
0001
0010
0001
0010
,
0100
1000
0100
1000
0100
1000
0100
1000
0001
1000
0001
1000
0010
0100
0010
0100
,
0001
0100
0010
0100
0001
1000
0010
0100
0001
1000
0010
1000
0010
0100
0001
1000
,
0010
1000
0001
0100
0001
1000
0001
1000
0010
0100
0001
0100
0001
1000
0100
1000
,
0100
0010
0001
1000
0001
1000
0001
0010
0100
1000
0001
0100
0001
0100
0010
1000
,
0001
0100
0001
1000
0100
1000
0001
0100
0001
1000
0100
0010
0001
1000
0010
1000
,
0001
0010
0100
1000
0001
1000
0100
0010
0001
1000
0001
0100
0001
0100
0010
1000
,
0100
1000
0001
0100
0010
0100
0001
1000
0100
0010
0001
1000
0001
0100
0010
0100
,
0010
1000
0001
1000
0100
1000
0001
0100
0010
0100
0001
1000
0100
1000
0001
0100
,
0010
0100
0001
1000
0001
0010
0100
1000
0100
0010
0001
1000
0001
0100
0010
1000
,
0001
0100
0010
0100
0001
1000
0010
0100
0001
1000
0100
1000
0001
0100
0010
1000
,
0100
1000
0001
0100
0010
0100
0001
1000
0100
0010
0001
1000
0001
0100
0010
0100
,
0001
1000
0100
1000
0001
0100
0010
0100
0001
1000
0100
0010
0100
0010
0001
1000
,
0001
1000
0010
0100
0010
1000
0001
0010
0001
1000
0010
0100
0001
1000
0100
1000
,
0001
0100
0010
0100
0001
1000
0010
0100
0001
1000
0100
1000
0100
0010
0001
1000
,
0001
1000
0100
0010
0001
1000
0100
1000
0001
0100
0010
0100
0010
1000
0001
0100
,
0010
0100
0001
1000
0100
1000
0001
0100
0010
1000
0001
1000
0001
0100
0010
0100
,
0001
1000
0010
1000
0100
1000
0001
1000
0100
1000
0001
0010
0001
0010
0100
1000
,
0001
0010
0001
0010
0100
1000
0010
1000
0100
1000
0001
0100
0010
1000
0010
0100
,
0001
1000
0100
1000
0010
1000
0001
1000
0010
1000
0001
0100
0001
0100
0010
1000
,
0001
0100
0001
0100
0010
1000
0100
1000
0010
1000
0001
0010
0100
1000
0100
0010
,
0001
1000
0010
1000
0100
1000
0001
1000
0100
1000
0001
0010
0001
0010
0100
1000
,
0001
0010
0001
0010
0100
1000
0010
1000
0100
1000
0001
0100
0010
1000
0010
0100
,
0001
1000
0100
1000
0010
1000
0001
1000
0010
1000
0001
0100
0001
0100
0010
1000
,
0001
0100
0001
0100
0010
1000
0100
1000
0010
1000
0001
0010
0100
1000
0100
0010
,
0001
1000
0010
1000
0100
1000
0001
1000
0100
1000
0001
0010
0001
0010
0100
1000
,
0001
0010
0001
0010
0100
1000
0010
1000
0100
1000
0001
0100
0010
1000
0010
0100
,
0001
1000
0100
1000
0010
1000
0001
1000
0010
1000
0001
0100
0001
0100
0010
1000
,
0001
0100
0001
0100
0010
1000
0100
1000
0010
1000
0001
0010
0100
1000
0100
0010
,
0001
1000
0010
1000
0100
1000
0001
1000
0100
1000
0001
0010
0001
0010
0100
1000
,
0001
0010
0001
0010
0100
1000
0010
1000
0100
1000
0001
0100
0010
1000
0010
0100
,
0001
1000
0100
1000
0010
1000
0001
1000
0010
1000
0001
0100
0001
0100
0010
1000
,
0010
1000
0010
1000
0001
0100
0001
0100
0001
1000
0001
1000
0001
1000
0001
1000
,
0001
0100
0010
1000
0100
0010
0001
0100
0010
1000
0100
0010
0001
0100
0010
1000
,
0100
0010
0001
0100
0010
1000
0100
0010
0001
0010
0100
1000
0010
0100
0001
0010
,
0001
1000
0100
0010
0001
0100
0010
1000
0100
0010
0001
0100
0010
1000
0100
0010
,
0001
1000
0010
0100
0001
0010
0100
1000
0100
0010
0001
0100
0010
1000
0100
0010
,
0001
0010
0100
1000
0010
0100
0001
0010
0100
1000
0010
0100
0001
0010
0100
1000
,
0010
0100
0001
0010
0100
1000
0010
0100
0001
0100
0010
1000
0100
0010
0001
0100
,
0001
1000
0010
0100
0001
0010
0100
1000
0010
0100
0001
0010
0100
1000
0010
0100
,
0001
1000
0100
0010
0001
0100
0010
1000
0100
0010
0100
1000
0010
1000
0100
0010
,
0001
0100
0010
1000
0100
0010
0001
0100
0010
1000
0100
0010
0001
0100
0010
1000
,
0100
0010
0001
0100
0010
1000
0100
0010
0001
0010
0100
1000
0010
0100
0001
0010
,
0001
1000
0100
0010
0001
0100
0010
1000
0100
0010
0001
0100
0010
1000
0100
0010
,
0001
1000
0010
0100
0001
0010
0100
1000
0100
0010
0001
0100
0010
1000
0100
0010
,
0001
0010
0100
1000
0010
0100
0001
0010
0100
1000
0010
0100
0001
0010
0100
1000
,
0010
0100
0001
0010
0100
1000
0010
0100
0001
0100
0010
1000
0100
0010
0001
1000
,
0001
1000
0001
1000
0100
1000
0100
1000
0001
0010
0001
0010
0001
0010
0001
0010
,
0100
1000
0100
1000
0100
1000
0100
1000
0001
1000
0001
1000
0010
0100
0010
0100
,
0001
0100
0010
0100
0001
1000
0010
0100
0001
1000
0010
1000
0010
0100
0001
1000
,
0010
1000
0001
0100
0001
1000
0001
1000
0010
0100
0001
0100
0001
1000
0100
1000
,
0100
0010
0001
1000
0001
1000
0001
0010
0100
1000
0001
0100
0001
0100
0010
1000
,
0001
0100
0001
1000
0100
1000
0001
0100
0001
1000
0100
0010
0001
1000
0010
1000
,
0001
0010
0100
1000
0001
1000
0100
0010
0001
1000
0001
0100
0001
0100
0010
1000
,
0100
1000
0001
0100
0010
0100
0001
1000
0100
0010
0001
1000
0001
0100
0010
0100
,
0010
1000
0001
1000
0100
1000
0001
0100
0010
0100
0001
1000
0100
1000
0001
0100
,
0010
0100
0001
1000
0001
0010
0100
1000
0100
0010
0001
1000
0001
0100
0010
1000
,
0001
0100
0010
0100
0001
1000
0010
0100
0001
1000
0100
1000
0001
0100
0010
1000
,
0100
1000
0001
0100
0010
0100
0001
1000
0100
0010
0001
1000
0001
0100
0010
0100
,
0001
1000
0100
1000
0001
0100
0010
0100
0001
1000
0100
0010
0100
0010
0001
1000
,
0001
1000
0010
0100
0010
1000
0001
0010
0001
1000
0010
0100
0001
1000
0100
1000
,
0001
0100
0010
0100
0001
1000
0010
0100
0001
1000
0100
1000
0100
0010
0001
1000
,
0001
1000
0100
0010
0001
1000
0100
1000
0001
0100
0010
0100
0010
1000
0001
0100
,
0010
0100
0001
1000
0100
1000
0001
0100
0010
1000
0001
1000
0001
0100
0010
0100
,
0001
1000
0010
1000
0100
1000
0001
1000
0100
1000
0001
0010
0001
0010
0100
1000
,
0001
0010
0001
0010
0100
1000
0010
1000
0100
1000
0001
0100
0010
1000
0010
0100
,
0001
1000
0100
1000
0010
1000
0001
1000
0010
1000
0001
0100
0001
0100
0010
1000
,
0001
0100
0001
0100
0010
1000
0100
1000
0010
1000
0001
0010
0100
1000
0100
0010
,
0001
1000
0010
1000
0100
1000
0001
1000
0100
1000
0001
0010
0001
0010
0100
1000
,
0001
0010
0001
0010
0100
1000
0010
1000
0100
1000
0001
0100
0010
1000
0010
0100
,
0001
1000
0100
1000
0010
1000
0001
1000
0010
1000
0001
0100
0001
0100
0010
1000
,
0001
0100
0001
0100
0010
1000
0100
1000
0010
1000
0001
0010
0100
1000
0100
0010
,
0001
1000
0010
1000
0100
1000
0001
1000
0100
1000
0001
0010
0001
0010
0100
1000
,
0001
0010
0001
0010
0100
1000
0010
1000
0100
1000
0001
0100
0010
1000
0010
0100
,
0001
1000
0100
1000
0010
1000
0001
1000
0010
1000
0001
0100
0001
0100
0010
1000
,
0001
0100
0001
0100
0010
1000
0100
1000
0010
1000
0001
0010
0100
1000
0100
0010
,
0001
1000
0010
1000
0100
1000
0001
1000
0100
1000
0001
0010
0001
0010
0100
1000
,
0001
0010
0001
0010
0100
1000
0010
1000
0100
1000
0001
0100
0010
1000
0010
0100
,
0001
1000
0100
1000
0010
1000
0001
1000
0010
1000
0001
0100
0001
0100
0010
1000
,
0001
0100
0001
0100
0010
1000
0001
1000
0100
0010
0001
1000
0001
0010
0100
1000
,
0001
1000
0001
1000
0001
1000
0001
1000
0001
1000
0001
1000
0001
1000
0001
1000
,
0001
0100
0010
0100
0001
1000
0100
1000
0001
0010
0100
1000
0100
1000
0001
0100
,
0010
0100
0001
0010
0001
0010
0100
0010
0100
1000
0010
1000
0001
0010
0100
0010
,
0001
0100
0010
0100
0001
1000
0001
1000
0001
0010
0100
1000
0100
1000
0001
0100
,
0010
1000
0001
0010
0001
0010
0100
0010
0100
1000
0010
0100
0001
1000
0100
1000
,
0001
0100
0010
0100
0001
1000
0100
1000
0001
0010
0100
1000
0100
1000
0001
0100
,
0010
0100
0001
0010
0001
0010
0100
0010
0100
1000
0010
1000
0001
0010
0100
0010
,
0001
1000
0100
1000
0001
0010
0100
0010
0001
1000
0010
1000
0100
1000
0001
0010
,
0100
0010
0001
0100
0010
0100
0001
0010
0001
1000
0100
1000
0010
0100
0001
1000
,
0001
0100
0010
0100
0001
1000
0100
1000
0001
0010
0100
1000
0100
1000
0001
0100
,
0010
0100
0001
0010
0001
0010
0100
1000
0100
0010
0100
1000
0100
0010
0100
1000
,
0001
0100
0010
0100
0001
1000
0100
1000
0001
0010
0100
1000
0100
1000
0001
0100
,
0010
0100
0001
0010
0001
0010
0100
0010
0100
1000
0010
0100
0001
0010
0100
1000
,
0001
0100
0010
0100
0001
1000
0100
1000
0001
0010
0100
1000
0100
1000
0001
0100
,
0010
0100
0001
0010
0001
0010
0100
1000
0100
0010
0100
1000
0100
0010
0100
1000
,
0001
1000
0001
0100
0010
0100
0001
1000
0010
1000
0001
0100
0010
0100
0001
1000
,
0001
0010
0100
1000
0001
1000
0010
0100
0001
0100
0010
1000
0001
1000
0001
1000
,
0001
0010
0100
0010
0001
1000
0010
1000
0001
0100
0010
1000
0010
1000
0001
0010
,
0100
0010
0001
0100
0001
0100
0010
0100
0010
1000
0100
1000
0001
0100
0010
0100
,
0001
0010
0100
0010
0001
1000
0001
1000
0001
0100
0010
1000
0010
1000
0001
0010
,
0100
1000
0001
0100
0001
0100
0010
0100
0010
1000
0100
0010
0001
1000
0010
1000
,
0001
0010
0100
0010
0001
1000
0010
1000
0001
0100
0010
1000
0010
1000
0001
0010
,
0100
0010
0001
0100
0001
0100
0010
0100
0010
1000
0100
1000
0001
0100
0010
0100
,
0001
1000
0010
1000
0001
0100
0010
0100
0001
1000
0100
1000
0010
1000
0001
0100
,
0010
0100
0001
0010
0100
0010
0001
0100
0001
1000
0100
1000
0010
0100
0001
1000
,
0001
0010
0100
0010
0001
1000
0010
1000
0001
0100
0010
1000
0010
1000
0001
0010
,
0100
0010
0001
0100
0001
0100
0010
1000
0010
0100
0010
1000
0010
0100
0010
1000
,
0001
0010
0100
0010
0001
1000
0010
1000
0001
0100
0010
1000
0010
1000
0001
0010
,
0100
0010
0001
0100
0001
0100
0010
0100
0010
1000
0100
0010
0001
0100
0010
1000
,
0001
0010
0100
0010
0001
1000
0010
1000
0001
0100
0010
1000
0010
1000
0001
0010
,
0100
0010
0001
0100
0001
0100
0010
1000
0010
0100
0010
1000
0010
0100
0010
1000
,
0001
0100
0001
0100
0010
1000
0010
1000
0001
0100
0001
1000
0010
0100
0001
1000
,
0100
0010
0100
1000
0001
0100
0010
0100
0001
1000
0001
0010
0100
1000
0001
1000
,
0100
1000
0100
1000
0001
1000
0100
1000
0100
1000
0001
0010
0100
1000
0010
0100
,
0001
0100
0010
0100
0001
0100
0010
1000
0100
1000
0100
0010
0001
0010
0100
1000
,
0010
0100
0010
0100
0001
0100
0010
0100
0010
0100
0001
1000
0100
0010
0001
0100
,
0010
0100
0001
0100
0010
0100
0001
1000
0100
1000
0100
0010
0001
0100
0001
0010
,
0100
1000
0100
1000
0001
1000
0100
1000
0100
1000
0001
0010
0100
1000
0010
0100
,
0001
0100
0010
0100
0001
0100
0010
1000
0100
1000
0100
0010
0001
0100
0001
0010
,
0001
1000
0100
1000
0001
0010
0100
0010
0001
1000
0010
1000
0100
1000
0001
0010
,
0100
0010
0001
0100
0010
0100
0001
0010
0001
1000
0100
1000
0010
0100
0001
1000
,
0001
0100
0010
0100
0001
1000
0100
1000
0001
0010
0100
1000
0100
1000
0001
0100
,
0010
0100
0001
0010
0100
0010
0001
1000
0100
1000
0100
0010
0001
0010
0100
1000
,
0001
0100
0010
0100
0001
1000
0100
1000
0001
0010
0100
1000
0100
1000
0001
0100
,
0010
0100
0001
0010
0100
0010
0001
1000
0100
1000
0100
0010
0001
0100
0001
0010
,
0001
0100
0010
0100
0001
1000
0100
1000
0001
0010
0100
1000
0100
1000
0001
0100
,
0010
0100
0001
0010
0100
0010
0001
1000
0100
1000
0100
0010
0001
0010
0100
1000
,
0001
1000
0001
1000
0100
0010
0001
1000
0100
0010
0100
1000
0001
1000
0100
0010
,
0100
0010
0001
1000
0001
1000
0001
0100
0010
0100
0001
1000
0001
0100
0010
1000
,
0001
1000
0100
0010
0001
1000
0010
0100
0010
0100
0010
1000
0100
0010
0001
0010
,
0001
1000
0010
0100
0001
1000
0010
0100
0010
0100
0010
1000
0100
0010
0001
0010
,
0001
1000
0100
0010
0001
1000
0010
0100
0010
0100
0010
1000
0100
0010
0001
0010
,
0001
1000
0010
0100
0001
1000
0010
0100
0010
0100
0010
1000
0100
0010
0001
0010
,
0001
1000
0100
0010
0001
1000
0010
0100
0010
0100
0010
1000
0100
0010
0001
0010
,
0001
1000
0010
0100
0001
1000
0010
0100
0010
0100
0010
1000
0100
0010
0001
0010
,
0001
1000
0100
1000
0001
0010
0100
0010
0001
1000
0010
1000
0100
1000
0001
0010
,
0100
0010
0001
0100
0010
0100
0001
0010
0001
1000
0100
1000
0010
0100
0001
1000
,
0001
1000
0010
0100
0001
1000
0100
0010
0100
0010
0100
1000
0010
0100
0001
0100
,
0001
1000
0100
0010
0001
1000
0100
0010
0100
0010
0100
1000
0010
0100
0001
0100
,
0001
1000
0010
0100
0001
1000
0100
0010
0100
0010
0100
1000
0010
0100
0001
0100
,
0001
1000
0100
0010
0001
1000
0100
0010
0100
0010
0100
1000
0010
0100
0001
0100
,
0001
1000
0010
0100
0001
1000
0100
0010
0100
0010
0100
1000
0010
0100
0001
0100
,
0001
1000
0100
0010
0001
1000
0100
0010
0100
0010
0100
1000
0010
0100
0001
0100
,
0001
1000
0001
0010
0100
1000
0001
0010
0100
1000
0001
0010
0001
1000
0100
0010
,
0001
0100
0010
0100
0001
0100
0010
1000
0001
1000
0010
1000
0001
1000
0001
1000
,
0001
0010
0100
0010
0001
1000
0100
0010
0100
0010
0100
1000
0010
0100
0001
0100
,
0001
1000
0010
0100
0001
1000
0100
0010
0100
0010
0001
1000
0100
0010
0001
0010
,
0100
0010
0001
1000
0100
1000
0001
0100
0001
1000
0100
0010
0100
1000
0100
0010
,
0100
1000
0001
1000
0100
1000
0001
1000
0100
1000
0010
0100
0001
0100
0010
1000
,
0001
1000
0100
1000
0001
0010
0100
0010
0001
1000
0010
1000
0100
1000
0001
0010
,
0100
0010
0001
1000
0001
0010
0001
1000
0010
1000
0001
1000
0010
0100
0010
1000
,
0001
0010
0100
1000
0001
0010
0100
1000
0001
0100
0010
0100
0001
1000
0001
0010
,
0100
1000
0001
1000
0100
0010
0001
1000
0001
0010
0100
1000
0001
0100
0010
1000
,
0001
1000
0010
0100
0001
1000
0010
0100
0001
1000
0010
0100
0001
1000
0010
0100
,
0001
1000
0001
1000
0100
0010
0001
1000
0001
0010
0100
1000
0001
0100
0010
1000
,
0001
1000
0010
0100
0010
1000
0001
0010
0100
0010
0001
1000
0100
0010
0001
1000
,
0100
0010
0100
1000
0001
0100
0010
0100
0001
1000
0010
1000
0001
0010
0001
1000
,
0100
0010
0001
1000
0100
0010
0001
1000
0100
0010
0001
1000
0100
1000
0010
1000
,
0001
0100
0010
1000
0001
0010
0100
1000
0001
0100
0010
1000
0001
0010
0100
1000
,
0001
1000
0001
0100
0010
0100
0001
0010
0001
0010
0100
1000
0100
0010
0001
0100
,
0001
0100
0010
1000
0001
1000
0100
0010
0100
0010
0001
1000
0010
0100
0010
0100
,
0001
1000
0001
0010
0100
0010
0001
0100
0001
0100
0010
1000
0010
0100
0001
0010
,
0001
0010
0100
1000
0001
1000
0010
0100
0010
0100
0001
1000
0100
0010
0100
0010
,
0001
1000
0010
0100
0001
0100
0010
1000
0010
1000
0001
0010
0100
0010
0001
1000
,
0001
1000
0010
0100
0010
1000
0001
0100
0001
0100
0010
1000
0001
0010
0001
0010
,
0100
1000
0001
0100
0010
1000
0001
1000
0100
0010
0001
1000
0100
1000
0001
1000
,
0010
0100
0001
1000
0010
1000
0001
0100
0001
0100
0010
1000
0001
0010
0001
0010
,
0100
1000
0001
0010
0100
1000
0100
1000
0001
0100
0010
1000
0001
1000
0010
1000
,
0001
1000
0010
1000
0001
1000
0010
0100
0010
0100
0001
0010
0100
1000
0100
1000
,
0001
0100
0010
0100
0001
0100
0010
1000
0010
0100
0010
1000
0100
0010
0100
1000
,
0100
0010
0001
0100
0010
0100
0001
1000
0001
0100
0010
1000
0010
1000
0010
1000
,
0001
0100
0001
1000
0010
0100
0001
1000
0100
0010
0001
0010
0001
1000
0100
0010
,
0100
0010
0001
1000
0001
0100
0010
1000
0010
1000
0001
0010
0001
0100
0010
0100
,
0001
1000
0100
1000
0001
0010
0100
1000
0100
1000
0001
0100
0010
0100
0001
0010
,
0001
0010
0100
0010
0100
1000
0010
1000
0001
0010
0100
0010
0001
0100
0010
0100
,
0001
1000
0001
1000
0001
0010
0100
1000
0100
1000
0001
0100
0010
1000
0001
0010
,
0001
0010
0100
0010
0100
1000
0010
0100
0001
1000
0100
1000
0001
0100
0010
0100
,
0001
1000
0100
1000
0001
0010
0100
1000
0100
1000
0001
0100
0010
0100
0001
0010
,
0001
0010
0100
0010
0100
1000
0010
1000
0001
0010
0100
0010
0001
1000
0100
1000
,
0001
0010
0100
0010
0001
1000
0010
1000
0100
1000
0001
0010
0100
0010
0001
0100
,
0010
0100
0001
0010
0001
1000
0100
1000
0010
0100
0001
1000
0001
0100
0010
0100
,
0001
1000
0100
1000
0001
0010
0100
1000
0100
1000
0001
0100
0010
0100
0001
0010
,
0001
0010
0100
1000
0100
0010
0100
1000
0100
0010
0100
1000
0001
0100
0010
0100
,
0001
1000
0100
1000
0001
0010
0100
1000
0100
1000
0001
0100
0010
0100
0001
0010
,
0001
0010
0100
0010
0100
1000
0010
0100
0001
0010
0100
1000
0001
0100
0010
0100
,
0001
1000
0100
1000
0001
0010
0100
1000
0100
1000
0001
0100
0010
0100
0001
0010
,
0001
0010
0100
1000
0100
0010
0100
1000
0100
0010
0100
1000
0001
0100
0001
1000
,
0010
0100
0001
0100
0010
1000
0001
1000
0100
0010
0001
1000
0001
0010
0100
1000
,
0001
0100
0001
1000
0010
1000
0001
1000
0100
0010
0001
1000
0001
0100
0010
0100
,
0001
1000
0100
1000
0001
0010
0100
1000
0100
1000
0001
0100
0010
0100
0001
0010
,
0001
0010
0100
0010
0100
1000
0010
1000
0001
0010
0100
0010
0001
0100
0010
0100
,
0001
1000
0001
1000
0001
0010
0100
1000
0100
1000
0001
0100
0010
1000
0001
0010
,
0001
0010
0100
0010
0100
1000
0010
0100
0001
1000
0100
1000
0001
0100
0010
0100
,
0001
1000
0100
1000
0001
0010
0100
1000
0100
1000
0001
0100
0010
0100
0001
0010
,
0001
0010
0100
0010
0100
1000
0010
1000
0001
0010
0100
0010
0001
1000
0100
1000
,
0001
0010
0100
0010
0001
1000
0010
1000
0100
1000
0001
0010
0100
0010
0001
0100
,
0010
0100
0001
0010
0001
1000
0010
1000
0100
0010
0001
1000
0001
1000
0010
0100
,
0001
1000
0100
0010
0100
0010
0100
1000
0010
0100
0001
0100
0001
1000
0100
0010
,
0001
1000
0100
0010
0100
0010
0100
1000
0010
0100
0001
0100
0001
1000
0010
0100
,
0001
1000
0100
0010
0100
0010
0100
1000
0010
0100
0001
0100
0001
1000
0100
0010
,
0001
1000
0100
0010
0100
0010
0100
1000
0010
0100
0001
0100
0001
1000
0010
0100
,
0001
1000
0100
0010
0100
0010
0100
1000
0010
0100
0001
0100
0001
1000
0100
0010
,
0001
1000
0100
0010
0100
0010
0100
1000
0010
0100
0001
0100
0001
1000
0100
1000
,
0001
0100
0010
1000
0010
0100
0001
1000
0001
1000
0100
0010
0001
1000
0100
1000
,
0001
0100
0001
0010
0100
1000
0001
1000
0010
1000
0001
0100
0001
0100
0010
1000
,
0001
1000
0001
0100
0010
0100
0001
0010
0001
0010
0100
1000
0001
1000
0001
0100
,
0010
0100
0010
1000
0001
1000
0100
1000
0001
0100
0010
1000
0001
1000
0100
1000
,
0001
0100
0010
0100
0001
0100
0010
0100
0001
0100
0010
0100
0001
0100
0010
0100
,
0001
0100
0010
0100
0001
1000
0100
0010
0001
1000
0010
0100
0001
1000
0100
0010
,
0100
1000
0100
0010
0100
1000
0100
0010
0100
1000
0100
0010
0100
1000
0100
0010
,
0100
1000
0100
0010
0001
1000
0010
0100
0001
1000
0100
0010
0001
0100
0010
1000
,
0001
0100
0001
1000
0100
1000
0010
0100
0010
0100
0001
1000
0100
1000
0001
0100
,
0010
0100
0010
1000
0001
0100
0010
1000
0010
1000
0001
0100
0001
0100
0010
1000
,
0001
1000
0001
0010
0100
1000
0001
0100
0010
0100
0001
1000
0001
0100
0010
0100
,
0001
1000
0010
0100
0001
1000
0100
1000
0001
0100
0001
1000
0001
1000
0001
1000
,
0100
1000
0100
0010
0100
1000
0100
0010
0100
1000
0100
0010
0100
1000
0100
0010
,
0100
1000
0100
0010
0001
0100
0010
0100
0001
0010
0100
1000
0001
0100
0010
1000
,
0001
0010
0001
1000
0001
0010
0001
1000
0001
0010
0001
1000
0001
0010
0001
1000
,
0001
0010
0001
1000
0001
0010
0100
1000
0010
0100
0001
1000
0100
1000
0001
1000
,
0010
0100
0010
1000
0100
1000
0001
1000
0001
0100
0010
0100
0010
1000
0001
0100
,
0010
1000
0001
0010
0100
1000
0001
0100
0001
0100
0010
1000
0100
1000
0001
0100
,
0001
0100
0010
1000
0001
0100
0010
1000
0010
1000
0001
0010
0100
1000
0001
1000
,
0010
0100
0010
1000
0100
0010
0001
0010
0100
1000
0010
1000
0010
1000
0010
1000
,
0001
0010
0100
0010
0001
0010
0100
0010
0001
0010
0100
0010
0001
0010
0100
0010
,
0001
0010
0100
0010
0001
1000
0010
0100
0001
1000
0100
0010
0001
1000
0010
1000
,
0001
1000
0010
1000
0001
1000
0010
1000
0001
1000
0010
1000
0001
1000
0010
1000
,
0001
1000
0010
0100
0001
1000
0100
0010
0001
1000
0010
0100
0001
0010
0100
1000
,
0001
0010
0001
0010
0100
1000
0001
0010
0100
0010
0001
1000
0100
1000
0001
0010
,
0100
0010
0100
1000
0001
1000
0100
1000
0100
1000
0001
0100
0001
0100
0010
1000
,
0001
0100
0001
1000
0010
0100
0001
0100
0001
1000
0100
1000
0001
0010
0100
0010
,
0100
1000
0001
0100
0001
1000
0001
0010
0100
1000
0001
0100
0001
0100
0001
0100
,
0010
1000
0010
0100
0010
1000
0010
0100
0010
1000
0010
0100
0010
1000
0010
0100
,
0010
1000
0010
0100
0001
0010
0100
0010
0001
0100
0010
1000
0001
0010
0100
1000
,
0001
0010
0001
1000
0001
0010
0001
1000
0001
0010
0001
1000
0001
0010
0001
1000
,
0001
0010
0001
1000
0001
0100
0010
1000
0100
0010
0100
1000
0010
0100
0001
1000
,
0001
1000
0001
0100
0010
0100
0001
1000
0100
0010
0100
1000
0001
0100
0010
0100
,
0001
1000
0010
0100
0001
0100
0001
1000
0100
1000
0001
1000
0100
0010
0001
1000
,
0010
1000
0100
0010
0001
1000
0001
1000
0100
1000
0010
0100
0001
1000
0001
1000
,
0010
1000
0100
0010
0001
1000
0001
1000
0100
1000
0010
0100
0001
1000
0001
1000
,
0010
1000
0100
0010
0001
1000
0001
0100
0001
1000
0001
0010
0001
0100
0010
1000
,
0100
1000
0001
1000
0010
1000
0001
1000
0100
1000
0010
0100
0001
1000
0001
1000
,
0100
1000
0010
0100
0001
1000
0001
1000
0010
1000
0100
0010
0001
1000
0001
1000
,
0100
1000
0010
0100
0001
1000
0001
1000
0010
1000
0100
0010
0001
1000
0001
1000
,
0010
0100
0001
1000
0010
0100
0001
1000
0010
0100
0001
1000
0010
0100
0001
1000
,
0100
0010
0001
1000
0100
0010
0001
1000
0100
0010
0001
1000
0100
0010
0001
1000
,
0010
1000
0001
1000
0100
1000
0001
0100
0001
0010
0001
1000
0001
1000
0100
1000
,
0010
1000
0001
1000
0100
1000
0001
0100
0001
0010
0001
1000
0001
1000
0100
1000
,
0001
0100
0001
1000
0001
0010
0001
1000
0010
1000
0100
1000
0001
0100
0010
0100
,
0001
0010
0001
1000
0001
0100
0001
1000
0100
1000
0010
1000
0001
0010
0100
1000
,
0010
1000
0001
1000
0100
1000
0001
0100
0001
0010
0001
1000
0001
1000
0100
1000
,
0010
1000
0001
1000
0100
1000
0001
0100
0001
1000
0100
1000
0001
0100
0001
1000
,
0010
1000
0100
0010
0001
1000
0001
1000
0100
1000
0010
0100
0001
1000
0001
1000
,
0010
1000
0100
0010
0001
1000
0001
1000
0100
1000
0010
0100
0001
1000
0001
1000
,
0010
1000
0100
0010
0001
1000
0001
0100
0001
1000
0001
0010
0001
0100
0010
1000
,
0100
1000
0001
1000
0010
1000
0001
1000
0100
1000
0010
0100
0001
1000
0001
1000
,
0100
1000
0010
0100
0001
1000
0001
1000
0010
1000
0100
0010
0001
1000
0001
1000
,
0100
1000
0010
0100
0001
1000
0001
1000
0010
1000
0100
0010
0001
1000
0001
1000
,
0010
0100
0001
1000
0010
0100
0001
1000
0010
0100
0001
1000
0010
0100
0001
1000
,
0100
0010
0001
1000
0100
0010
0001
1000
0100
0010
0001
1000
0100
0010
0001
1000
,
0001
0100
0001
1000
0001
0010
0001
1000
0010
1000
0100
1000
0001
0100
0010
0100
,
0001
0010
0001
1000
0001
0100
0001
1000
0100
1000
0010
1000
0001
0010
0100
1000
,
0010
1000
0001
1000
0100
1000
0001
0100
0001
0010
0001
1000
0001
1000
0100
1000
,
0010
1000
0001
1000
0100
1000
0001
0100
0001
1000
0100
1000
0001
0100
0001
1000
,
0001
0100
0001
1000
0001
0010
0001
1000
0010
1000
0100
1000
0001
0100
0010
0100
,
0001
0010
0001
1000
0001
0100
0001
1000
0100
1000
0010
1000
0001
0010
0100
1000
,
0001
0100
0010
1000
0001
0010
0100
1000
0001
0010
0001
1000
0100
0010
0100
1000
,
0001
0100
0010
1000
0001
0010
0100
1000
0001
0100
0001
1000
0100
0010
0001
1000
,
0001
1000
0010
0100
0001
1000
0001
1000
0010
1000
0100
0010
0001
1000
0001
1000
,
0100
1000
0010
0100
0001
1000
0001
1000
0010
1000
0100
0010
0001
1000
0001
1000
,
0100
1000
0010
0100
0001
1000
0001
0010
0001
1000
0001
0100
0001
0010
0100
1000
,
0010
1000
0001
1000
0100
1000
0001
1000
0010
1000
0100
0010
0001
1000
0001
1000
,
0010
1000
0100
0010
0001
1000
0001
1000
0100
1000
0010
0100
0001
1000
0001
1000
,
0010
1000
0100
0010
0001
1000
0001
1000
0100
1000
0010
0100
0001
1000
0001
1000
,
0100
0010
0001
1000
0100
0010
0001
1000
0100
0010
0001
1000
0100
0010
0001
1000
,
0010
0100
0001
1000
0010
0100
0001
1000
0010
0100
0001
1000
0010
0100
0001
1000
,
0100
0010
0001
1000
0001
1000
0100
0010
0001
0010
0100
1000
0001
0100
0001
1000
,
0100
1000
0001
0100
0010
0100
0001
1000
0001
0010
0100
1000
0001
1000
0010
0100
,
0001
1000
0001
1000
0010
1000
0001
0010
0001
0100
0001
1000
0001
1000
0010
1000
,
0100
1000
0001
1000
0010
1000
0001
0010
0001
0100
0001
1000
0001
1000
0010
1000
,
0001
0010
0001
1000
0001
0100
0001
1000
0100
1000
0010
1000
0001
0010
0100
0010
,
0001
0100
0001
1000
0001
0010
0001
1000
0010
1000
0100
1000
0001
0100
0010
1000
,
0001
0100
0001
1000
0100
0010
0001
1000
0001
0010
0100
1000
0001
1000
0001
0100
,
0010
0100
0001
0010
0100
1000
0001
1000
0001
1000
0001
1000
0010
0100
0010
0100
,
0001
1000
0010
0100
0001
1000
0001
1000
0010
1000
0100
0010
0001
1000
0001
1000
,
0100
1000
0010
0100
0001
1000
0001
1000
0010
1000
0100
0010
0001
1000
0001
1000
,
0100
1000
0010
0100
0001
1000
0001
0010
0001
1000
0001
0100
0001
0010
0100
1000
,
0010
1000
0001
1000
0100
1000
0001
1000
0010
1000
0100
0010
0001
1000
0001
1000
,
0010
1000
0100
0010
0001
1000
0001
1000
0100
1000
0010
0100
0001
1000
0001
1000
,
0010
1000
0100
0010
0001
1000
0001
1000
0100
1000
0010
0100
0001
1000
0001
1000
,
0100
0010
0001
1000
0100
0010
0001
1000
0100
0010
0001
1000
0100
0010
0001
1000
,
0010
0100
0001
1000
0010
0100
0001
1000
0010
0100
0001
1000
0010
0100
0001
1000
,
0001
0010
0001
1000
0001
0100
0001
1000
0100
1000
0010
1000
0001
0010
0100
0010
,
0001
0100
0001
1000
0001
0010
0001
1000
0010
1000
0100
1000
0001
0100
0010
1000
,
0100
1000
0001
1000
0010
1000
0001
0010
0001
0100
0001
1000
0001
1000
0010
1000
,
0100
1000
0001
1000
0010
1000
0001
0010
0001
1000
0010
1000
0001
0010
0001
1000
,
0001
0010
0001
1000
0001
0100
0001
1000
0100
1000
0010
1000
0001
0010
0100
0010
,
0001
0100
0001
1000
0001
0010
0001
1000
0010
1000
0100
1000
0001
0100
0010
1000
,
0001
0010
0100
1000
0001
0100
0010
0100
0001
1000
0010
0100
0001
1000
0100
1000
,
0001
0100
0010
0100
0001
1000
0001
0010
0100
0010
0100
1000
0001
0100
0001
1000
,
0001
0100
0001
0100
0010
1000
0001
1000
0100
1000
0001
0100
0010
0100
0001
1000
,
0100
1000
0001
1000
0010
0100
0001
1000
0100
1000
0001
0100
0001
0100
0010
1000
,
0001
0100
0001
1000
0010
0100
0001
0100
0001
1000
0100
1000
0010
0100
0010
1000
,
0001
0100
0001
1000
0001
0010
0001
0010
0100
1000
0001
1000
0001
0100
0010
0100
,
0001
1000
0001
1000
0100
1000
0010
0100
0010
1000
0001
0100
0001
0100
0010
1000
,
0001
0100
0010
0100
0001
1000
0010
0100
0010
1000
0001
0100
0001
1000
0100
0010
,
0001
1000
0001
1000
0001
0100
0010
0100
0010
1000
0001
0010
0001
0010
0100
1000
,
0001
1000
0001
0100
0010
0100
0010
1000
0001
1000
0100
0010
0100
0010
0001
1000
,
0001
0100
0001
1000
0010
0100
0010
0100
0010
0100
0001
1000
0100
1000
0001
0100
,
0010
1000
0010
1000
0001
0100
0010
1000
0010
1000
0001
0100
0001
1000
0010
0100
,
0001
0100
0010
1000
0001
0010
0100
0010
0100
1000
0001
1000
0001
0010
0100
1000
,
0001
1000
0010
0100
0001
0100
0010
1000
0100
1000
0001
0100
0001
0100
0010
1000
,
0001
0010
0100
1000
0001
1000
0100
0010
0001
1000
0001
0100
0010
0100
0001
1000
,
0001
0010
0100
1000
0001
0100
0010
0100
0001
1000
0001
0100
0010
0100
0001
1000
,
0100
1000
0001
0010
0100
1000
0001
0100
0001
1000
0100
1000
0001
0100
0010
0100
,
0001
1000
0001
1000
0100
0010
0100
0010
0001
1000
0001
1000
0010
0100
0001
1000
,
0100
1000
0001
0100
0010
0100
0001
0010
0100
0010
0100
1000
0001
1000
0010
0100
,
0001
0100
0010
1000
0001
0100
0010
1000
0010
1000
0001
0100
0001
0100
0010
1000
,
0100
1000
0100
0010
0100
0010
0001
1000
0001
1000
0010
0100
0001
1000
0001
1000
,
0010
0100
0010
0100
0001
1000
0010
0100
0010
1000
0001
0100
0001
0010
0100
1000
,
0001
1000
0010
0100
0001
1000
0100
1000
0100
0010
0001
1000
0001
0100
0010
0100
,
0001
0010
0100
1000
0001
1000
0010
0100
0010
1000
0001
1000
0001
0100
0010
0100
,
0001
1000
0001
0010
0100
1000
0001
0100
0001
1000
0100
1000
0001
0100
0010
0100
,
0001
1000
0001
0010
0100
1000
0100
1000
0001
1000
0001
0100
0010
0100
0001
1000
,
0001
0100
0010
0100
0001
1000
0100
0010
0100
0010
0001
1000
0001
1000
0010
0100
,
0001
0100
0001
1000
0010
1000
0001
0100
0001
0100
0010
1000
0001
0100
0010
0100
,
0001
1000
0001
1000
0100
0010
0100
0010
0001
1000
0001
1000
0010
0100
0001
0010
,
0100
1000
0001
1000
0001
0100
0010
1000
0010
1000
0001
0100
0001
0100
0010
1000
,
0001
0100
0001
1000
0100
0010
0100
0010
0001
1000
0001
0100
0010
0100
0001
1000
,
0001
0010
0100
1000
0001
1000
0010
0100
0010
1000
0001
0100
0001
0100
0010
1000
,
0001
1000
0001
0010
0100
1000
0001
1000
0100
0010
0001
1000
0001
1000
0010
0100
,
0001
0100
0010
1000
0010
0100
0001
1000
0001
0010
0100
1000
0001
1000
0100
0010
,
0001
1000
0010
1000
0100
1000
0010
0100
0001
1000
0100
1000
0001
0100
0010
1000
,
0010
1000
0100
1000
0001
0100
0010
1000
0001
0100
0010
1000
0001
0100
0010
1000
,
0010
1000
0100
0010
0001
1000
0001
1000
0100
1000
0010
0100
0001
1000
0001
1000
,
0010
1000
0100
0010
0001
1000
0001
1000
0100
1000
0010
0100
0001
1000
0001
1000
,
0010
1000
0100
0010
0001
1000
0001
0100
0001
1000
0001
0010
0001
0100
0010
1000
,
0100
1000
0001
1000
0010
1000
0001
1000
0100
1000
0010
0100
0001
1000
0001
1000
,
0100
1000
0010
0100
0001
1000
0001
1000
0010
1000
0100
0010
0001
1000
0001
1000
,
0100
1000
0010
0100
0001
1000
0001
1000
0010
1000
0100
0010
0001
1000
0001
1000
,
0010
0100
0001
1000
0010
0100
0001
1000
0010
0100
0001
1000
0010
0100
0001
1000
,
0100
0010
0001
1000
0100
0010
0001
1000
0100
0010
0001
1000
0100
0010
0001
1000
,
0001
0100
0001
1000
0001
0010
0001
1000
0010
1000
0100
1000
0001
0100
0010
0100
,
0001
0010
0001
1000
0001
0100
0001
1000
0100
1000
0010
1000
0001
0010
0100
1000
,
0010
1000
0001
1000
0100
1000
0001
0100
0001
0010
0001
1000
0001
1000
0100
1000
,
0010
1000
0001
1000
0100
1000
0001
0100
0001
0010
0001
1000
0001
1000
0100
1000
,
0001
0100
0001
1000
0001
0010
0001
1000
0010
1000
0100
1000
0001
0100
0010
0100
,
0001
0010
0001
1000
0001
0100
0001
1000
0100
1000
0010
1000
0001
0010
0100
1000
,
0010
1000
0001
1000
0100
1000
0001
0100
0001
0010
0001
1000
0001
1000
0100
1000
,
0010
1000
0001
1000
0100
1000
0001
0100
0001
1000
0100
1000
0001
0100
0001
1000
,
0010
1000
0100
0010
0001
1000
0001
1000
0100
1000
0010
0100
0001
1000
0001
1000
,
0010
1000
0100
0010
0001
1000
0001
1000
0100
1000
0010
0100
0001
1000
0001
1000
,
0010
1000
0100
0010
0001
1000
0001
0100
0001
1000
0001
0010
0001
0100
0010
1000
,
0100
1000
0001
1000
0010
1000
0001
1000
0100
1000
0010
0100
0001
1000
0001
1000
,
0100
1000
0010
0100
0001
1000
0001
1000
0010
1000
0100
0010
0001
1000
0001
1000
,
0100
1000
0010
0100
0001
1000
0001
1000
0010
1000
0100
0010
0001
1000
0001
1000
,
0010
0100
0001
1000
0010
0100
0001
1000
0010
0100
0001
1000
0010
0100
0001
1000
,
0100
0010
0001
1000
0100
0010
0001
1000
0100
0010
0001
1000
0100
0010
0001
1000
,
0001
0100
0001
1000
0001
0010
0001
1000
0010
1000
0100
1000
0001
0100
0010
0100
,
0001
0010
0001
1000
0001
0100
0001
1000
0100
1000
0010
1000
0001
0010
0100
1000
,
0010
1000
0001
1000
0100
1000
0001
0100
0001
0010
0001
1000
0001
1000
0100
1000
,
0010
1000
0001
1000
0100
1000
0001
0100
0001
1000
0100
1000
0001
0100
0001
1000
,
0001
0100
0001
1000
0001
0010
0001
1000
0010
1000
0100
1000
0001
0100
0010
0100
,
0001
0010
0001
1000
0001
0100
0001
1000
0100
1000
0010
1000
0001
0010
0100
1000
,
0001
0100
0010
1000
0001
0010
0001
1000
0100
1000
0001
0100
0001
0100
0001
1000
,
0001
0010
0100
1000
0001
0100
0010
1000
0001
1000
0100
1000
0100
0010
0100
0010
,
0001
1000
0010
0100
0001
1000
0001
1000
0010
1000
0100
0010
0001
1000
0001
1000
,
0100
1000
0010
0100
0001
1000
0001
1000
0010
1000
0100
0010
0001
1000
0001
1000
,
0100
1000
0010
0100
0001
1000
0001
0010
0001
1000
0001
0100
0001
0010
0100
1000
,
0010
1000
0001
1000
0100
1000
0001
1000
0010
1000
0100
0010
0001
1000
0001
1000
,
0010
1000
0100
0010
0001
1000
0001
1000
0100
1000
0010
0100
0001
1000
0001
1000
,
0010
1000
0100
0010
0001
1000
0001
1000
0100
1000
0010
0100
0001
1000
0001
1000
,
0100
0010
0001
1000
0100
0010
0001
1000
0100
0010
0001
1000
0100
0010
0001
1000
,
0010
0100
0001
1000
0010
0100
0001
1000
0010
0100
0001
1000
0010
0100
0001
1000
,
0001
0010
0001
1000
0001
0100
0001
1000
0100
1000
0010
1000
0001
0010
0100
0010
,
0001
0100
0001
1000
0001
0010
0001
1000
0010
1000
0100
1000
0001
0100
0010
1000
,
0100
1000
0001
1000
0010
1000
0001
0010
0001
0100
0001
1000
0001
1000
0010
1000
,
0100
1000
0001
1000
0010
1000
0001
0010
0001
0100
0001
1000
0001
1000
0010
1000
,
0001
0010
0001
1000
0001
0100
0001
1000
0100
1000
0010
1000
0001
0010
0100
0010
,
0001
0100
0001
1000
0001
0010
0001
1000
0010
1000
0100
1000
0001
0100
0010
1000
,
0001
0100
0001
0100
0010
1000
0001
1000
0001
0010
0100
0010
0100
1000
0001
1000
,
0001
0100
0001
0010
0100
1000
0100
1000
0001
1000
0001
0100
0010
0100
0001
1000
,
0001
0100
0010
0100
0001
1000
0100
0010
0001
1000
0001
1000
0010
0100
0001
1000
,
0001
0010
0100
1000
0001
0100
0010
1000
0001
1000
0001
0100
0010
0100
0010
1000
,
0001
0100
0001
1000
0010
0100
0001
1000
0001
0010
0100
1000
0001
0100
0010
1000
,
0010
0100
0001
1000
0001
0010
0100
1000
0001
0100
0001
0100
0010
1000
0100
1000
,
0001
0100
0001
1000
0010
0100
0010
1000
0001
0100
0001
0100
0010
1000
0001
0010
,
0100
1000
0001
1000
0100
0010
0001
1000
0001
1000
0001
0100
0010
0100
0001
1000
,
0001
0010
0100
1000
0001
0100
0001
1000
0100
1000
0001
0100
0010
0100
0001
1000
,
0100
1000
0001
0010
0100
1000
0001
0100
0001
1000
0010
0100
0010
0100
0001
1000
,
0100
0010
0001
1000
0001
0010
0100
1000
0001
0100
0001
0100
0010
0100
0001
1000
,
0100
1000
0001
0010
0100
1000
0100
1000
0001
1000
0001
0100
0010
0100
0001
1000
,
0001
1000
0100
1000
0001
0100
0010
0100
0001
1000
0010
0100
0001
1000
0001
0010
,
0100
0010
0100
1000
0001
0100
0010
1000
0001
1000
0001
1000
0100
0010
0001
1000
,
0001
1000
0001
0100
0010
0100
0001
1000
0100
1000
0001
0100
0010
1000
0001
0100
,
0001
0100
0001
0100
0010
1000
0010
1000
0001
1000
0001
1000
0001
1000
0001
1000
,
0001
0010
0100
1000
0010
0100
0010
1000
0010
1000
0100
1000
0010
0100
0010
1000
,
0001
0100
0010
1000
0001
1000
0100
0010
0100
0010
0100
1000
0001
1000
0010
0100
,
0001
0100
0010
1000
0010
0100
0010
1000
0010
1000
0100
1000
0010
0100
0010
1000
,
0001
0100
0010
1000
0001
1000
0100
0010
0100
0010
0100
1000
0001
0100
0010
1000
,
0001
0100
0010
1000
0100
0010
0100
1000
0100
1000
0010
1000
0100
0010
0100
1000
,
0001
0010
0100
1000
0001
1000
0010
0100
0010
0100
0010
1000
0001
1000
0100
0010
,
0001
1000
0010
0100
0001
1000
0010
0100
0001
0010
0100
1000
0001
0010
0100
1000
,
0010
0100
0001
1000
0010
0100
0001
1000
0100
0010
0001
1000
0100
0010
0001
1000
,
0001
0010
0100
1000
0010
0100
0010
1000
0010
1000
0100
1000
0010
0100
0010
1000
,
0001
0100
0010
1000
0001
1000
0100
0010
0100
0010
0100
1000
0001
1000
0010
0100
,
0001
0100
0010
1000
0010
0100
0010
1000
0010
1000
0100
1000
0010
0100
0010
1000
,
0001
0100
0010
1000
0001
1000
0100
0010
0100
0010
0100
1000
0001
0100
0010
1000
,
0001
0100
0010
1000
0100
0010
0100
1000
0100
1000
0010
1000
0100
0010
0100
1000
,
0001
0010
0100
1000
0001
1000
0010
0100
0010
0100
0010
1000
0001
1000
0100
0010
,
0001
0100
0010
1000
0100
0010
0100
1000
0100
1000
0010
1000
0100
0010
0100
0010
,
0001
1000
0001
1000
0001
0100
0001
0100
0010
1000
0010
1000
0001
1000
0001
1000
,
0010
0100
0010
1000
0001
0100
0010
0100
0001
1000
0100
1000
0001
0100
0010
1000
,
0001
0010
0100
1000
0001
1000
0100
0010
0001
1000
0100
1000
0001
0100
0010
0100
,
0001
1000
0001
1000
0010
0100
0001
0100
0010
1000
0001
1000
0100
0010
0001
1000
,
0001
0100
0010
0100
0001
1000
0100
1000
0001
0100
0010
0100
0001
1000
0100
1000
,
0001
0100
0001
0100
0010
1000
0001
0010
0100
1000
0001
1000
0001
0100
0010
0100
,
0001
1000
0001
0010
0100
1000
0100
1000
0001
1000
0001
0100
0010
1000
0100
1000
,
0001
0010
0100
1000
0001
1000
0001
1000
0001
0010
0100
1000
0001
1000
0001
1000
,
0001
0100
0010
1000
0001
1000
0001
1000
0001
0100
0010
0100
0001
1000
0001
1000
,
0100
1000
0001
0010
0100
0010
0100
1000
0001
1000
0100
1000
0001
0100
0010
1000
,
0001
1000
0010
0100
0001
1000
0100
1000
0001
0100
0001
0100
0010
1000
0001
0100
,
0010
1000
0010
0100
0001
1000
0001
0010
0100
1000
0001
1000
0100
0010
0001
1000
,
0001
1000
0100
1000
0100
0010
0100
0010
0001
1000
0001
1000
0100
1000
0001
0100
,
0010
0100
0001
1000
0100
1000
0001
0010
0100
1000
0001
1000
0001
0100
0010
0100
,
0001
1000
0001
1000
0100
1000
0001
0100
0010
0100
0001
1000
0100
1000
0001
1000
,
0001
0100
0001
0100
0001
0100
0001
0100
0010
1000
0010
1000
0010
1000
0010
1000
,
0001
1000
0001
1000
0001
1000
0001
1000
0010
0100
0010
0100
0010
0100
0010
0100
,
0001
0100
0001
1000
0100
1000
0010
1000
0001
0010
0001
0100
0001
1000
0100
1000
,
0001
0100
0001
0010
0001
1000
0010
1000
0001
0010
0001
0100
0001
1000
0100
1000
,
0001
0100
0001
0010
0001
1000
0010
1000
0100
1000
0001
0100
0001
0010
0001
1000
,
0010
1000
0100
1000
0001
0100
0001
0010
0001
1000
0010
1000
0001
1000
0001
1000
,
0100
0010
0001
1000
0100
0010
0001
1000
0100
0010
0001
1000
0100
0010
0001
1000
,
0001
0010
0100
1000
0001
0010
0100
1000
0001
0010
0100
1000
0001
1000
0001
1000
,
0001
0100
0010
1000
0001
0100
0010
1000
0001
1000
0010
0100
0001
1000
0010
0100
,
0001
1000
0100
0010
0001
1000
0100
0010
0001
1000
0100
0010
0001
1000
0001
1000
,
0001
0010
0001
1000
0010
1000
0100
1000
0001
0100
0001
0010
0001
1000
0010
1000
,
0001
0010
0001
0100
0001
1000
0100
1000
0001
0100
0001
0010
0001
1000
0010
1000
,
0001
0010
0001
0100
0001
1000
0100
1000
0010
1000
0001
0010
0001
0100
0001
1000
,
0100
1000
0010
1000
0001
0010
0001
0100
0001
1000
0100
1000
0001
1000
0001
1000
,
0010
0100
0001
1000
0010
0100
0001
1000
0010
0100
0001
1000
0010
0100
0001
1000
,
0001
0100
0010
1000
0001
0100
0010
1000
0001
0100
0010
1000
0001
1000
0001
1000
,
0001
0010
0100
1000
0001
0010
0100
1000
0001
1000
0100
0010
0001
1000
0100
0010
,
0001
1000
0010
0100
0001
1000
0010
0100
0001
1000
0010
0100
0001
1000
0001
1000
,
0010
0100
0001
1000
0001
1000
0100
0010
0100
0010
0001
1000
0100
1000
0001
0100
,
0001
0010
0100
1000
0001
1000
0010
0100
0010
0100
0010
1000
0001
1000
0100
0010
,
0001
0010
0100
1000
0100
0010
0100
1000
0100
1000
0010
1000
0100
0010
0100
1000
,
0001
0010
0100
1000
0001
1000
0010
0100
0010
0100
0010
1000
0001
0010
0100
1000
,
0001
0010
0100
1000
0010
0100
0010
1000
0010
1000
0100
1000
0010
0100
0010
1000
,
0001
0100
0010
1000
0001
1000
0100
0010
0100
0010
0100
1000
0001
1000
0010
0100
,
0001
1000
0100
0010
0001
1000
0100
0010
0001
0100
0010
1000
0001
0100
0010
1000
,
0100
0010
0001
1000
0100
0010
0001
1000
0010
0100
0001
1000
0010
0100
0001
1000
,
0001
0100
0010
1000
0100
0010
0100
1000
0100
1000
0010
1000
0100
0010
0100
1000
,
0001
0010
0100
1000
0001
1000
0010
0100
0010
0100
0010
1000
0001
1000
0100
0010
,
0001
0010
0100
1000
0100
0010
0100
1000
0100
1000
0010
1000
0100
0010
0100
1000
,
0001
0010
0100
1000
0001
1000
0010
0100
0010
0100
0010
1000
0001
0010
0100
1000
,
0001
0010
0100
1000
0010
0100
0010
1000
0010
1000
0100
1000
0010
0100
0010
1000
,
0001
0100
0010
1000
0001
1000
0100
0010
0100
0010
0100
1000
0001
1000
0010
0100
,
0001
0100
0001
0100
0001
0100
0001
0100
0010
1000
0010
1000
0010
1000
0010
1000
,
0001
1000
0001
1000
0001
1000
0001
1000
0010
0100
0010
0100
0010
0100
0010
0100
,
0001
1000
0100
1000
0001
0100
0010
1000
0001
1000
0010
0100
0001
1000
0100
1000
,
0001
0100
0001
0100
0010
1000
0100
1000
0001
1000
0001
0100
0010
0100
0001
1000
,
0001
0010
0100
1000
0001
0100
0010
1000
0010
0100
0001
1000
0010
1000
0001
0100
,
0010
1000
0010
0100
0001
0100
0010
1000
0001
1000
0001
0100
0010
0100
0001
1000
,
0100
1000
0001
0010
0100
0010
0100
1000
0001
1000
0010
0100
0001
0100
0010
1000
,
0001
1000
0100
0010
0100
0010
0001
1000
0001
1000
0010
0100
0001
1000
0010
0100
,
0001
0010
0100
1000
0001
1000
0001
1000
0001
0010
0100
1000
0001
1000
0001
1000
,
0001
0100
0010
1000
0001
1000
0001
1000
0001
0100
0010
0100
0001
1000
0001
1000
,
0010
0100
0001
0100
0010
1000
0001
1000
0100
0010
0001
1000
0001
1000
0100
1000
,
0001
0100
0001
0100
0010
1000
0100
1000
0001
1000
0001
0100
0010
0100
0001
1000
,
0001
0010
0100
1000
0001
0100
0010
0100
0001
1000
0100
1000
0010
0100
0001
0100
,
0010
1000
0001
1000
0010
0100
0010
0100
0001
1000
0001
0100
0010
0100
0001
1000
,
0100
1000
0100
0010
0001
1000
0001
0100
0010
0100
0001
1000
0100
1000
0001
0100
,
0010
0100
0001
0010
0100
1000
0001
1000
0001
1000
0010
0100
0001
1000
0001
1000
,
0001
0010
0001
0010
0001
0010
0001
0010
0001
1000
0001
1000
0001
1000
0001
1000
,
0100
1000
0100
1000
0100
1000
0100
1000
0001
0010
0001
0010
0001
0010
0001
0010
,
0001
0100
0001
1000
0100
1000
0010
1000
0001
0010
0001
0100
0001
1000
0100
1000
,
0001
0100
0001
0010
0001
1000
0010
1000
0001
0010
0001
0100
0001
1000
0100
1000
,
0001
0100
0001
0010
0001
1000
0010
1000
0100
1000
0001
0100
0001
0010
0001
1000
,
0010
1000
0100
1000
0001
0100
0001
0010
0001
1000
0010
1000
0001
1000
0001
1000
,
0100
0010
0001
1000
0100
0010
0001
1000
0100
0010
0001
1000
0100
0010
0001
1000
,
0001
0010
0100
1000
0001
0010
0100
1000
0001
0010
0100
1000
0001
1000
0001
1000
,
0001
0100
0010
1000
0001
0100
0010
1000
0001
1000
0010
0100
0001
1000
0010
0100
,
0001
1000
0100
0010
0001
1000
0100
0010
0001
1000
0100
0010
0001
1000
0001
1000
,
0001
0010
0001
1000
0010
1000
0100
1000
0001
0100
0001
0010
0001
1000
0010
1000
,
0001
0010
0001
0100
0001
1000
0100
1000
0001
0100
0001
0010
0001
1000
0010
1000
,
0001
0010
0001
0100
0001
1000
0100
1000
0010
1000
0001
0010
0001
0100
0001
1000
,
0100
1000
0010
1000
0001
0010
0001
0100
0001
1000
0100
1000
0001
1000
0001
1000
,
0010
0100
0001
1000
0010
0100
0001
1000
0010
0100
0001
1000
0010
0100
0001
1000
,
0001
0100
0010
1000
0001
0100
0010
1000
0001
0100
0010
1000
0001
1000
0001
1000
,
0001
0010
0100
1000
0001
0010
0100
1000
0001
1000
0100
0010
0001
1000
0100
0010
,
0001
0100
0001
0100
0010
1000
0010
1000
0001
1000
0001
1000
0100
0010
0001
0100
,
0001
0010
0100
1000
0010
0100
0010
1000
0010
1000
0100
1000
0010
0100
0010
1000
,
0001
0100
0010
1000
0001
1000
0100
0010
0100
0010
0100
1000
0001
1000
0010
0100
,
0001
0100
0010
1000
0010
0100
0010
1000
0010
1000
0100
1000
0010
0100
0010
1000
,
0001
0100
0010
1000
0001
1000
0100
0010
0100
0010
0100
1000
0001
0100
0010
1000
,
0001
0100
0010
1000
0100
0010
0100
1000
0100
1000
0010
1000
0100
0010
0100
1000
,
0001
0010
0100
1000
0001
1000
0010
0100
0010
0100
0010
1000
0001
1000
0100
0010
,
0001
0100
0010
1000
0100
0010
0100
1000
0100
1000
0010
1000
0100
0010
0100
1000
,
0001
0100
0010
0100
0010
1000
0001
0010
0100
1000
0001
1000
0100
0010
0001
1000
,
0001
0100
0010
1000
0100
0010
0100
1000
0100
1000
0010
1000
0100
0010
0100
1000
,
0001
0010
0100
1000
0001
1000
0010
0100
0010
0100
0010
1000
0001
1000
0100
0010
,
0001
0010
0100
1000
0100
0010
0100
1000
0100
1000
0010
1000
0100
0010
0100
1000
,
0001
0010
0100
1000
0001
1000
0010
0100
0010
0100
0010
1000
0001
0010
0100
1000
,
0001
0010
0100
1000
0010
0100
0010
1000
0010
1000
0100
1000
0010
0100
0010
1000
,
0001
0100
0010
1000
0001
1000
0100
0010
0100
0010
0100
1000
0001
1000
0010
0100
,
0001
0010
0100
1000
0010
0100
0010
1000
0010
1000
0100
1000
0010
0100
0010
1000
,
0400
1000
0301
1000
0400
1000
0301
1000
0400
1000
0301
1000
0001
1000
0001
1000
,
0010
0100
0001
0100
0001
1000
0010
0100
0010
1000
0001
1000
0001
0100
0010
0100
,
0001
1000
0100
1000
0100
0010
0001
1000
0001
1000
0010
0100
0001
0100
0010
1000
,
0001
0100
0001
1000
0100
0010
0001
1000
0001
0010
0100
1000
0001
0100
0001
0100
,
0010
1000
0010
0100
0001
1000
0001
0010
0100
1000
0001
1000
0100
0010
0100
0010
,
0001
1000
0001
1000
0010
0100
0001
0100
0010
1000
0001
0100
0010
0100
0001
1000
,
0001
0010
0100
0010
0100
1000
0001
1000
0010
0100
0010
0100
0001
1000
0100
1000
,
0001
0010
0100
1000
0001
1000
0001
1000
0001
0010
0100
1000
0001
1000
0001
1000
,
0001
0100
0010
1000
0001
1000
0001
1000
0001
0100
0010
0100
0001
1000
0001
1000
,
0100
0010
0001
1000
0001
1000
0100
0010
0001
1000
0001
0010
0100
1000
0001
1000
,
0001
0100
0010
0100
0001
1000
0001
0100
0010
0100
0001
1000
0001
0010
0100
0010
,
0100
1000
0001
1000
0010
0100
0010
0100
0001
1000
0100
1000
0001
0100
0010
0100
,
0001
1000
0100
0010
0100
0010
0001
1000
0001
1000
0100
1000
0001
0100
0010
0100
,
0001
1000
0001
0010
0100
1000
0001
1000
0100
1000
0001
0100
0001
0100
0010
1000
,
0001
0100
0001
0100
0010
1000
0100
1000
0001
1000
0001
0100
0010
0100
0010
1000
,
0001
1000
0001
1000
0001
1000
0001
1000
0100
1000
0100
1000
0100
1000
0100
1000
,
0100
0010
0100
0010
0100
0010
0100
0010
0001
1000
0001
1000
0001
1000
0001
1000
,
0001
0010
0001
0100
0010
0100
0001
1000
0001
0100
0010
1000
0010
0100
0001
1000
,
0010
0100
0010
0100
0001
0100
0001
0100
0010
1000
0010
1000
0100
1000
0001
0010
,
0100
1000
0010
0100
0001
0010
0001
1000
0001
1000
0100
1000
0010
1000
0001
1000
,
0100
0010
0100
0010
0001
1000
0001
1000
0010
0100
0010
0100
0010
1000
0010
1000
,
0001
0010
0001
0100
0010
0100
0001
1000
0001
0100
0010
1000
0010
0100
0001
1000
,
0010
0100
0010
0100
0001
0100
0001
0100
0010
1000
0010
1000
0100
1000
0001
0010
,
0100
1000
0010
0100
0001
0010
0001
1000
0001
1000
0100
1000
0010
1000
0001
1000
,
0010
1000
0100
1000
0010
1000
0001
1000
0010
0100
0010
0100
0001
0100
0001
0100
,
0010
1000
0100
0010
0001
0100
0010
1000
0001
0010
0100
1000
0100
0010
0001
1000
,
0001
0100
0010
1000
0010
0100
0001
1000
0001
0010
0001
0100
0010
0100
0001
1000
,
0100
0010
0001
0100
0010
1000
0001
0010
0001
0100
0001
1000
0001
0100
0001
0010
,
0001
0100
0001
0100
0010
1000
0010
1000
0100
0010
0100
1000
0100
1000
0001
0010
,
0100
1000
0010
0100
0001
1000
0010
1000
0001
0100
0010
1000
0010
0100
0001
1000
,
0001
0010
0001
0010
0100
1000
0010
1000
0001
0100
0001
0100
0010
1000
0001
1000
,
0001
0010
0001
0010
0100
1000
0100
1000
0001
0100
0010
1000
0010
0100
0001
1000
,
0100
1000
0010
1000
0001
1000
0010
1000
0100
1000
0100
1000
0010
0100
0010
0100
,
0001
0010
0001
1000
0010
1000
0100
1000
0001
0100
0001
0010
0001
1000
0010
1000
,
0001
0010
0001
0100
0001
1000
0100
1000
0001
0100
0001
0010
0001
1000
0010
1000
,
0001
0010
0001
0100
0001
1000
0100
1000
0010
1000
0001
0010
0001
0100
0001
1000
,
0100
1000
0010
1000
0001
0010
0001
0100
0001
1000
0100
1000
0001
1000
0001
1000
,
0010
0100
0001
1000
0010
0100
0001
1000
0010
0100
0001
1000
0010
0100
0001
1000
,
0001
0100
0010
1000
0001
0100
0010
1000
0001
0100
0010
1000
0001
1000
0001
1000
,
0001
0010
0100
1000
0001
0010
0100
1000
0001
1000
0100
0010
0001
1000
0100
0010
,
0001
1000
0010
0100
0001
1000
0010
0100
0001
1000
0010
0100
0001
1000
0001
1000
,
0001
0100
0001
1000
0100
1000
0010
1000
0001
0010
0001
0100
0001
1000
0100
1000
,
0001
0100
0001
0010
0001
1000
0010
1000
0001
0010
0001
0100
0001
1000
0100
1000
,
0001
0100
0001
0010
0001
1000
0010
1000
0100
1000
0001
0100
0001
0010
0001
1000
,
0010
1000
0100
1000
0001
0100
0001
0010
0001
1000
0010
1000
0001
1000
0001
1000
,
0100
0010
0001
1000
0100
0010
0001
1000
0100
0010
0001
1000
0100
0010
0001
1000
,
0001
0010
0100
1000
0001
0010
0100
1000
0001
0010
0100
1000
0001
1000
0001
1000
,
0001
0100
0010
1000
0001
0100
0010
1000
0001
1000
0010
0100
0001
1000
0010
0100
,
0001
1000
0100
0010
0001
1000
0100
0010
0001
1000
0100
0010
0001
1000
0001
1000
,
0100
0010
0001
1000
0001
1000
0010
0100
0010
1000
0001
0100
0001
1000
0100
1000
,
0001
0010
0001
0010
0100
0010
0100
1000
0001
1000
0001
0100
0010
0100
0001
1000
,
0001
0100
0010
1000
0010
0100
0001
1000
0001
1000
0100
0010
0001
1000
0001
0100
,
0010
1000
0001
0100
0010
0100
0001
1000
0001
1000
0001
0100
0010
0100
0001
1000
,
0100
1000
0001
0100
0001
0100
0010
1000
0001
0010
0100
1000
0001
1000
0010
0100
,
0001
0100
0001
1000
0100
1000
0001
0100
0010
0100
0001
1000
0100
1000
0001
1000
,
0001
0010
0100
1000
0001
1000
0001
1000
0001
0010
0100
1000
0001
1000
0001
1000
,
0001
0100
0010
1000
0001
1000
0001
1000
0001
0100
0010
0100
0001
1000
0001
1000
,
0010
0100
0001
0100
0001
1000
0100
1000
0100
0010
0100
0010
0001
1000
0001
1000
,
0010
0100
0010
1000
0010
0100
0010
1000
0001
1000
0001
0100
0001
1000
0100
1000
,
0001
0100
0001
1000
0100
1000
0001
1000
0001
0100
0001
1000
0100
1000
0001
0100
,
0001
1000
0001
1000
0100
0010
0100
0010
0001
1000
0001
1000
0010
0100
0010
1000
,
0001
0100
0001
1000
0100
0010
0100
0010
0001
1000
0001
1000
0010
0100
0001
0100
,
0010
1000
0001
1000
0001
0010
0100
1000
0001
1000
0001
0100
0010
0100
0001
1000
,
0001
0100
0001
0100
0001
0100
0001
0100
0010
1000
0010
1000
0010
1000
0010
1000
,
0001
1000
0001
1000
0001
1000
0001
1000
0010
0100
0010
0100
0010
0100
0010
0100
,
0001
0100
0010
0100
0001
0010
0100
1000
0001
0100
0010
0100
0001
0010
0100
1000
,
0001
0100
0010
0100
0001
0010
0100
1000
0001
0100
0010
0100
0001
1000
0100
0010
,
0001
0100
0010
0100
0001
1000
0100
0010
0001
0100
0010
0100
0001
1000
0100
0010
,
0001
0100
0010
0100
0001
1000
0100
0010
0001
0100
0010
0100
0001
0010
0001
1000
,
0001
0010
0100
0010
0001
0100
0010
1000
0001
0010
0100
0010
0001
0100
0010
1000
,
0001
0010
0100
0010
0001
0100
0010
1000
0001
0010
0100
1000
0001
0100
0010
1000
,
0001
1000
0010
0100
0001
0010
0100
0010
0001
1000
0010
0100
0001
0010
0100
0010
,
0001
0100
0010
1000
0001
0010
0100
0010
0001
0100
0010
1000
0001
0010
0100
0010
,
0001
0100
0010
0100
0001
0010
0100
1000
0001
0100
0010
0100
0001
0010
0100
1000
,
0001
0100
0010
0100
0001
0010
0100
1000
0001
0100
0010
0100
0001
1000
0100
1000
,
0001
1000
0010
1000
0001
0010
0100
0010
0001
0100
0010
1000
0001
0010
0100
0010
,
0001
0100
0010
1000
0001
0010
0100
0010
0001
0100
0010
1000
0001
0010
0001
0100
,
0001
0010
0100
0010
0001
0100
0010
1000
0100
0010
0100
1000
0001
0100
0010
1000
,
0100
0010
0100
1000
0001
0100
0010
1000
0100
0010
0100
1000
0001
1000
0001
0100
,
0010
0100
0001
0010
0100
1000
0010
0100
0010
1000
0100
0010
0001
0100
0010
0100
,
0001
1000
0100
1000
0001
0010
0100
1000
0001
0100
0001
1000
0010
0100
0001
1000
,
0001
0100
0010
1000
0100
0010
0100
1000
0001
0100
0010
0100
0001
1000
0100
1000
,
0001
0100
0010
0100
0001
0010
0100
1000
0001
1000
0010
1000
0010
0100
0001
0010
,
0001
1000
0010
0100
0001
0010
0100
1000
0100
1000
0001
0100
0001
0100
0010
1000
,
0010
1000
0100
0010
0100
0010
0001
1000
0001
1000
0010
0100
0010
1000
0001
1000
,
0100
0010
0001
1000
0010
0100
0010
1000
0001
0010
0100
0010
0001
1000
0010
1000
,
0001
0010
0100
0010
0001
0100
0010
1000
0001
1000
0100
1000
0100
0010
0001
0100
,
0001
1000
0100
0010
0001
0100
0010
0100
0001
1000
0100
0010
0001
1000
0010
0100
,
0001
1000
0100
1000
0001
0100
0010
0100
0001
1000
0100
1000
0001
0100
0010
0100
,
0001
1000
0001
0010
0001
1000
0001
0100
0010
1000
0001
1000
0100
0010
0001
0100
,
0010
1000
0001
1000
0100
1000
0001
0100
0010
0100
0001
0010
0001
1000
0100
1000
,
0010
0100
0001
1000
0100
1000
0001
0100
0001
0100
0010
1000
0100
1000
0001
0010
,
0001
0010
0100
1000
0100
1000
0010
0100
0010
0100
0001
1000
0001
0010
0100
1000
,
0001
1000
0001
0100
0001
1000
0001
0010
0100
1000
0001
1000
0010
0100
0001
0010
,
0100
1000
0001
1000
0010
1000
0001
0010
0100
0010
0001
0100
0001
1000
0010
1000
,
0100
1000
0100
1000
0100
1000
0001
1000
0001
1000
0001
0100
0001
1000
0001
1000
,
0001
1000
0001
1000
0001
1000
0001
1000
0001
1000
0001
1000
0001
1000
0001
1000
,
0001
0010
0100
1000
0001
0010
0100
1000
0001
0010
0001
1000
0010
0100
0010
1000
,
0100
0010
0001
1000
0100
0010
0001
1000
0001
0100
0001
1000
0100
0010
0100
1000
,
0001
0100
0010
1000
0001
0100
0010
1000
0001
0100
0001
1000
0100
0010
0100
1000
,
0010
0100
0001
1000
0010
0100
0001
1000
0001
0010
0001
1000
0010
0100
0010
1000
,
0001
0010
0100
1000
0001
0010
0100
1000
0001
0010
0001
1000
0010
0100
0010
1000
,
0100
0010
0001
1000
0100
0010
0001
1000
0001
0100
0001
1000
0100
0010
0100
1000
,
0001
0100
0010
1000
0001
0100
0010
1000
0001
0100
0001
1000
0100
0010
0100
1000
,
0010
0100
0001
1000
0010
0100
0001
1000
0001
0010
0001
1000
0010
0100
0010
1000
,
0001
0010
0001
1000
0100
0010
0100
1000
0001
0010
0001
1000
0100
0010
0100
1000
,
0001
0010
0001
1000
0100
0010
0100
1000
0001
0010
0001
1000
0100
0010
0001
0100
,
0010
1000
0010
0100
0001
1000
0100
0010
0100
1000
0100
0010
0001
1000
0010
0100
,
0010
1000
0010
0100
0001
1000
0100
0010
0100
1000
0100
0010
0001
1000
0010
0100
,
0001
1000
0001
1000
0001
0010
0001
0010
0001
1000
0001
1000
0001
0010
0001
0010
,
0100
1000
0100
1000
0100
0010
0100
0010
0100
1000
0100
1000
0100
0010
0100
0010
,
0001
0100
0001
0100
0010
0100
0010
0100
0001
0100
0001
0100
0010
0100
0010
0100
,
0001
0010
0100
1000
0001
1000
0001
0010
0001
0100
0010
1000
0001
1000
0001
0010
,
0100
1000
0001
1000
0010
0100
0001
0100
0001
1000
0100
1000
0010
1000
0001
1000
,
0100
1000
0001
1000
0010
0100
0001
0100
0001
1000
0100
1000
0010
0100
0001
1000
,
0010
1000
0001
1000
0100
0010
0001
0010
0001
1000
0010
1000
0100
1000
0001
1000
,
0010
1000
0001
1000
0100
0010
0001
0010
0001
1000
0010
1000
0100
0010
0001
1000
,
0100
1000
0001
1000
0010
0100
0001
0100
0001
1000
0100
1000
0010
1000
0001
1000
,
0100
1000
0001
1000
0010
0100
0001
0100
0001
1000
0100
1000
0010
0100
0001
1000
,
0010
1000
0001
1000
0100
0010
0001
0010
0001
1000
0010
1000
0100
1000
0001
1000
,
0010
1000
0001
1000
0100
0010
0001
0010
0001
1000
0010
1000
0100
0010
0001
1000
,
0100
0010
0001
1000
0010
1000
0001
0100
0001
1000
0100
1000
0010
1000
0001
1000
,
0100
0010
0001
1000
0010
1000
0001
0100
0001
1000
0100
1000
0010
1000
0001
1000
,
0010
0100
0001
1000
0100
1000
0001
0010
0001
1000
0010
1000
0100
1000
0001
1000
,
0010
0100
0001
1000
0100
1000
0001
0010
0001
1000
0010
1000
0100
1000
0001
1000
,
0100
0010
0001
1000
0010
1000
0001
0100
0001
1000
0100
1000
0010
1000
0001
1000
,
0100
0010
0001
1000
0010
1000
0001
0100
0001
1000
0100
1000
0010
1000
0001
1000
,
0010
0100
0001
1000
0100
1000
0001
0010
0001
1000
0010
1000
0100
1000
0001
1000
,
0001
1000
0001
1000
0001
1000
0001
1000
0001
1000
0001
1000
0001
1000
0001
1000
,
0001
0100
0010
1000
0100
0010
0100
1000
0001
0100
0010
0100
0001
1000
0100
1000
,
0001
0100
0010
0100
0001
0010
0100
1000
0001
1000
0010
1000
0010
0100
0001
0010
,
0001
1000
0010
0100
0001
0010
0100
1000
0100
1000
0001
0100
0001
0100
0010
1000
,
0010
1000
0100
0010
0100
0010
0001
1000
0001
1000
0010
0100
0010
1000
0001
1000
,
0100
0010
0001
1000
0010
0100
0010
1000
0001
0010
0100
0010
0001
1000
0010
1000
,
0001
0010
0100
0010
0001
0100
0010
1000
0001
1000
0100
1000
0100
0010
0001
0100
,
0001
1000
0100
0010
0001
0100
0010
0100
0001
1000
0100
0010
0001
1000
0010
0100
,
0001
1000
0100
1000
0001
0100
0010
0100
0001
1000
0100
1000
0001
0100
0010
0100
,
0001
1000
0001
0010
0001
1000
0001
0100
0010
1000
0001
1000
0100
0010
0001
0100
,
0010
1000
0001
1000
0100
1000
0001
0100
0010
0100
0001
0010
0001
1000
0100
1000
,
0010
0100
0001
1000
0100
1000
0001
0100
0001
0100
0010
1000
0100
1000
0001
0010
,
0001
0010
0100
1000
0100
1000
0010
0100
0010
0100
0001
1000
0001
0010
0100
1000
,
0001
1000
0001
0100
0001
1000
0001
0010
0100
1000
0001
1000
0010
0100
0001
0010
,
0100
1000
0001
1000
0010
1000
0001
0010
0100
0010
0001
0100
0001
1000
0010
1000
,
0100
0010
0001
1000
0001
0010
0001
1000
0010
1000
0001
0010
0100
1000
0001
0100
,
0001
1000
0001
1000
0001
1000
0001
1000
0001
1000
0001
1000
0001
1000
0001
1000
,
0001
0010
0100
1000
0001
0010
0100
1000
0001
0010
0001
1000
0010
0100
0010
1000
,
0100
0010
0001
1000
0100
0010
0001
1000
0001
0100
0001
1000
0100
0010
0100
1000
,
0001
0100
0010
1000
0001
0100
0010
1000
0001
0100
0001
1000
0100
0010
0100
1000
,
0010
0100
0001
1000
0010
0100
0001
1000
0001
0010
0001
1000
0010
0100
0010
1000
,
0001
0010
0100
1000
0001
0010
0100
1000
0001
0010
0001
1000
0010
0100
0010
1000
,
0100
0010
0001
1000
0100
0010
0001
1000
0001
0100
0001
1000
0100
0010
0100
1000
,
0001
0100
0010
1000
0001
0100
0010
1000
0001
0100
0001
1000
0100
0010
0100
1000
,
0010
0100
0001
1000
0010
0100
0001
1000
0001
0010
0001
1000
0010
0100
0010
1000
,
0001
0010
0001
1000
0010
0100
0010
1000
0001
0010
0001
1000
0010
0100
0010
1000
,
0001
0010
0001
1000
0010
0100
0010
1000
0001
0010
0001
1000
0100
0010
0001
0100
,
0010
1000
0010
0100
0001
1000
0100
0010
0100
1000
0100
0010
0001
1000
0010
0100
,
0010
1000
0010
0100
0001
1000
0100
0010
0100
1000
0100
0010
0001
1000
0010
0100
,
0001
1000
0001
1000
0001
0010
0001
0010
0001
1000
0001
1000
0001
0010
0001
0010
,
0100
1000
0100
1000
0100
0010
0100
0010
0100
1000
0100
1000
0100
0010
0100
0010
,
0001
0100
0001
0100
0010
0100
0010
0100
0001
0100
0001
0100
0010
0100
0010
0100
,
0001
0010
0100
1000
0001
1000
0001
0010
0001
0100
0010
1000
0001
1000
0001
0010
,
0100
1000
0001
1000
0010
0100
0001
0100
0001
1000
0100
1000
0010
1000
0001
1000
,
0100
1000
0001
1000
0010
0100
0001
0100
0001
1000
0100
1000
0010
0100
0001
1000
,
0010
1000
0001
1000
0100
0010
0001
0010
0001
1000
0010
1000
0100
1000
0001
1000
,
0010
1000
0001
1000
0100
0010
0001
0010
0001
1000
0010
1000
0100
0010
0001
1000
,
0100
1000
0001
1000
0010
0100
0001
0100
0001
1000
0100
1000
0010
1000
0001
1000
,
0100
1000
0001
1000
0010
0100
0001
0100
0001
1000
0100
1000
0010
0100
0001
1000
,
0010
1000
0001
1000
0100
0010
0001
0010
0001
1000
0010
1000
0100
1000
0001
1000
,
0010
1000
0001
1000
0100
0010
0001
0010
0001
1000
0010
1000
0100
0010
0001
1000
,
0100
0010
0001
1000
0010
1000
0001
0100
0001
1000
0100
1000
0010
1000
0001
1000
,
0100
0010
0001
1000
0010
1000
0001
0100
0001
1000
0100
1000
0010
1000
0001
1000
,
0010
0100
0001
1000
0100
1000
0001
0010
0001
1000
0010
1000
0100
1000
0001
1000
,
0010
0100
0001
1000
0100
1000
0001
0010
0001
1000
0010
1000
0100
1000
0001
1000
,
0100
0010
0001
1000
0010
1000
0001
0100
0001
1000
0100
1000
0010
1000
0001
1000
,
0100
0000
0000
0000
0010
0000
0000
0000
0001
0000
0000
0000
1000
0000
0000
0000
0010
0000
0000
0000
1000
0000
0000
0000
0001
0000
0000
0000
0100
0000
0000
0000
0001
0000
0000
0000
1000
0000
0000
0000
0100
0000
0000
0000
1000
0000
0000
0000
0020
0030
0000
0000
0100
0000
0000
0000
0001
0000
0000
0000
1000
0000
0000
0000
,
0020
0000
0030
0000
0100
0000
0000
0000
0001
0000
0000
0000
1000
0000
0000
0000
0020
0000
0000
0030
0100
0000
0000
0000
0001
0000
0000
0000
1000
0000
0000
0000
0020
0000
0000
0000
0130
0000
0000
0000
0001
0000
0000
0000
1000
0000
0000
0000
0020
0000
0000
0000
0100
0030
0000
0000
0001
0000
0000
0000
1000
0000
0000
0000
,
0001
0100
0001
0100
0010
1000
0010
1000
0001
0100
0001
0100
0010
1000
0010
1000
,
0001
0010
0100
1000
0001
0010
0100
1000
0001
0010
0001
1000
0010
0100
0010
1000
,
0100
0010
0001
1000
0100
0010
0001
1000
0001
0100
0001
1000
0100
0010
0100
1000
,
0001
0100
0010
1000
0001
0100
0010
1000
0001
0100
0001
1000
0100
0010
0100
1000
,
0010
0100
0001
1000
0010
0100
0001
1000
0001
0010
0001
1000
0010
0100
0010
1000
,
0001
0010
0100
1000
0001
0010
0100
1000
0001
0010
0001
1000
0010
0100
0010
1000
,
0100
0010
0001
1000
0100
0010
0001
1000
0001
0100
0001
1000
0100
0010
0100
1000
,
0001
0100
0010
1000
0001
0100
0010
1000
0001
0100
0001
1000
0100
0010
0100
1000
,
0010
0100
0001
1000
0010
0100
0001
1000
0001
0010
0001
1000
0010
0100
0010
1000
,
0100
1000
0001
1000
0010
0100
0001
0100
0001
1000
0100
1000
0010
1000
0001
1000
,
0100
1000
0001
1000
0010
0100
0001
0100
0001
1000
0100
1000
0010
0100
0001
1000
,
0010
1000
0001
1000
0100
0010
0001
0010
0001
1000
0010
1000
0100
1000
0001
1000
,
0010
1000
0001
1000
0100
0010
0001
0010
0001
1000
0010
1000
0100
0010
0100
1000
,
0001
1000
0001
1000
0001
0010
0001
0010
0001
1000
0001
1000
0001
0010
0001
0010
,
0100
1000
0100
1000
0100
0010
0100
0010
0100
1000
0100
1000
0100
0010
0100
0010
,
0001
0100
0001
0100
0010
0100
0010
0100
0001
0100
0001
0100
0010
0100
0010
0100
,
0001
0010
0100
1000
0001
0100
0010
1000
0001
0010
0001
1000
0010
0100
0010
1000
,
0001
0100
0010
1000
0001
0100
0010
1000
0001
0100
0001
1000
0100
0010
0100
1000
,
0010
0100
0001
1000
0010
0100
0001
1000
0001
0010
0001
1000
0010
0100
0010
1000
,
0001
0010
0100
1000
0001
0010
0100
1000
0001
0010
0001
1000
0010
0100
0010
1000
,
0100
0010
0001
1000
0100
0010
0001
1000
0001
0100
0001
1000
0100
0010
0100
1000
,
0001
0100
0010
1000
0001
0100
0010
1000
0001
0100
0001
1000
0100
0010
0100
1000
,
0010
0100
0001
1000
0010
0100
0001
1000
0001
0010
0001
1000
0010
0100
0010
1000
,
0001
0010
0100
1000
0001
0010
0100
1000
0001
0010
0001
1000
0010
0100
0010
1000
,
0100
0010
0001
1000
0100
0010
0001
1000
0001
0100
0001
1000
0100
0010
0100
1000
,
0010
1000
0001
1000
0100
0010
0001
0010
0001
1000
0010
1000
0100
1000
0001
1000
,
0010
1000
0001
1000
0100
0010
0001
0010
0001
1000
0010
1000
0100
0010
0001
1000
,
0100
1000
0001
1000
0010
0100
0001
0100
0001
1000
0100
1000
0010
1000
0001
1000
,
0100
1000
0001
1000
0010
0100
0001
0100
0001
1000
0100
1000
0010
0100
0010
1000
,
0001
1000
0001
1000
0001
0100
0001
0100
0001
1000
0001
1000
0001
0100
0001
0100
,
0010
1000
0010
1000
0010
0100
0010
0100
0010
1000
0010
1000
0010
0100
0010
0100
,
0001
0010
0001
0010
0100
0010
0100
0010
0001
0010
0001
0010
0100
0010
0100
0010
,
0001
0100
0010
1000
0001
0010
0100
1000
0001
0100
0001
1000
0100
0010
0100
1000
,
0001
0010
0100
1000
0001
0010
0100
1000
0001
0010
0001
1000
0010
0100
0010
1000
,
0100
0010
0001
1000
0100
0010
0001
1000
0001
0100
0001
1000
0100
0010
0100
1000
,
0001
0100
0010
1000
0001
0100
0010
1000
0001
0100
0001
1000
0100
0010
0100
1000
,
0010
0100
0001
1000
0010
0100
0001
1000
0001
0010
0001
1000
0010
0100
0010
1000
,
0001
0010
0100
1000
0001
0010
0100
1000
0001
0010
0001
1000
0010
0100
0010
1000
,
0100
0010
0001
1000
0100
0010
0001
1000
0001
0100
0001
1000
0100
0010
0100
1000
,
0001
0100
0010
1000
0001
0100
0010
1000
0001
0100
0001
1000
0100
0010
0100
1000
,
0010
0100
0001
1000
0010
0100
0001
1000
0001
0010
0001
1000
0010
0100
0010
1000
,
0100
1000
0001
1000
0010
0100
0001
0100
0001
1000
0100
1000
0010
1000
0001
1000
,
0100
1000
0001
1000
0010
0100
0001
0100
0001
1000
0100
1000
0010
0100
0001
1000
,
0010
1000
0001
1000
0100
0010
0001
0010
0001
1000
0010
1000
0100
1000
0001
1000
,
0010
1000
0001
1000
0100
0010
0001
0010
0001
1000
0010
1000
0100
0010
0100
1000
,
0001
1000
0001
1000
0001
0010
0001
0010
0001
1000
0001
1000
0001
0010
0001
0010
,
0100
1000
0100
1000
0100
0010
0100
0010
0100
1000
0100
1000
0100
0010
0100
0010
,
0001
0100
0001
0100
0010
0100
0010
0100
0001
0100
0001
0100
0010
0100
0010
0100
,
0001
0010
0100
1000
0001
0100
0010
1000
0001
0010
0001
1000
0010
0100
0010
1000
,
0001
1000
0010
1000
0010
0100
0001
1000
0010
1000
0010
0100
0001
0010
0100
1000
,
0001
0010
0100
0010
0100
1000
0001
0010
0100
0010
0100
1000
0001
0010
0100
1000
,
0010
0100
0001
0100
0001
1000
0010
0100
0001
0100
0001
1000
0010
0100
0001
0010
,
0100
1000
0001
0010
0100
1000
0001
0100
0010
1000
0100
0010
0001
1000
0010
0100
,
0001
1000
0100
1000
0001
0100
0010
1000
0001
0010
0001
0010
0100
0010
0100
1000
,
0001
0100
0001
0100
0010
1000
0001
1000
0100
1000
0001
0100
0001
0100
0010
1000
,
0001
0100
0001
1000
0100
1000
0001
0010
0100
0010
0100
1000
0001
0100
0010
0100
,
0001
1000
0001
0100
0010
0100
0001
1000
0100
1000
0001
0100
0001
0010
0001
1000
,
0010
1000
0100
1000
0100
0010
0001
1000
0100
1000
0100
0010
0001
0100
0010
1000
,
0001
0100
0010
0100
0010
1000
0001
0100
0010
0100
0010
1000
0001
0100
0010
1000
,
0100
0010
0001
0010
0001
1000
0100
0010
0001
0010
0001
1000
0100
0010
0001
0100
,
0010
1000
0001
0100
0010
1000
0001
0010
0100
1000
0010
0100
0001
1000
0100
0010
,
0001
0100
0001
1000
0010
0100
0001
1000
0100
1000
0100
0010
0100
0010
0001
1000
,
0001
0100
0001
0100
0010
1000
0001
1000
0100
1000
0001
0100
0001
0100
0010
1000
,
0001
1000
0001
1000
0010
0100
0001
1000
0001
0010
0100
0010
0100
1000
0001
1000
,
0001
0100
0010
0100
0001
1000
0010
0100
0001
0010
0001
1000
0100
1000
0010
0100
,
0001
1000
0010
1000
0010
0100
0001
1000
0010
1000
0010
0100
0001
0010
0100
1000
,
0001
0010
0100
0010
0100
1000
0001
0010
0100
0010
0100
1000
0001
0010
0100
1000
,
0010
0100
0001
0100
0001
1000
0010
0100
0001
0100
0001
1000
0010
0100
0001
0010
,
0100
1000
0001
0010
0100
1000
0001
0100
0010
1000
0100
0010
0001
1000
0010
0100
,
0001
0100
0001
1000
0100
0010
0001
1000
0001
0100
0010
0100
0001
1000
0100
1000
,
0001
0100
0010
1000
0010
0100
0001
1000
0001
0100
0001
1000
0100
0010
0100
0010
,
0001
1000
0001
0100
0010
1000
0001
0100
0001
1000
0100
1000
0001
0010
0100
0010
,
0100
1000
0001
1000
0010
0100
0001
0100
0001
1000
0001
1000
0100
0010
0100
0010
,
0001
1000
0100
1000
0100
0010
0001
1000
0100
1000
0100
0010
0001
0100
0010
1000
,
0001
0100
0010
0100
0010
1000
0001
0100
0010
0100
0010
1000
0001
0100
0010
1000
,
0100
0010
0001
0010
0001
1000
0100
0010
0001
0010
0001
1000
0100
0010
0001
0100
,
0010
1000
0001
0100
0010
1000
0001
0010
0100
1000
0010
0100
0001
1000
0100
0010
,
0001
1000
0001
1000
0100
0010
0001
1000
0010
1000
0010
0100
0001
0100
0001
1000
,
0100
1000
0001
0100
0010
0100
0001
1000
0001
0010
0100
1000
0001
1000
0100
0010
,
0001
1000
0001
0100
0010
0100
0001
1000
0001
1000
0010
0100
0001
1000
0100
1000
,
0001
0100
0010
0100
0001
0100
0010
0100
0001
0010
0100
0010
0001
0100
0001
1000
,
0001
0100
0010
1000
0100
0010
0100
1000
0010
0100
0010
1000
0001
0010
0100
1000
,
0001
0100
0010
0100
0001
0010
0100
0010
0001
0100
0010
0100
0001
1000
0100
0010
,
0001
0100
0010
1000
0100
0010
0100
1000
0010
0100
0010
1000
0001
0010
0100
1000
,
0001
0100
0010
0100
0010
1000
0100
0010
0100
0010
0001
0100
0010
1000
0100
0010
,
0001
0100
0001
0010
0100
0010
0001
1000
0100
0010
0001
1000
0010
0100
0001
1000
,
0001
0010
0001
0100
0010
0100
0001
1000
0010
0100
0001
1000
0100
0010
0001
1000
,
0001
0100
0001
0010
0100
0010
0001
1000
0100
0010
0001
1000
0010
0100
0001
1000
,
0001
0010
0001
0100
0010
0100
0001
1000
0001
0010
0100
1000
0001
0100
0010
1000
,
0001
0010
0100
0010
0001
0100
0010
0100
0001
0010
0100
0010
0001
1000
0010
0100
,
0001
0010
0100
1000
0010
0100
0010
1000
0100
0010
0100
1000
0001
0100
0010
1000
,
0001
0010
0001
0100
0010
0100
0001
1000
0010
0100
0001
1000
0100
0010
0001
1000
,
0001
0100
0001
0010
0100
0010
0001
1000
0100
0010
0001
1000
0010
0100
0001
1000
,
0001
0010
0001
0100
0001
0010
0100
1000
0010
0100
0001
1000
0100
0010
0001
1000
,
0001
0100
0001
0010
0001
0100
0010
1000
0100
0010
0001
1000
0010
0100
0001
1000
,
0001
0010
0001
0100
0001
0010
0100
1000
0010
0100
0001
1000
0100
0010
0001
1000
,
0001
0100
0001
0010
0100
0010
0001
1000
0001
0100
0010
1000
0001
0010
0100
1000
,
0001
0100
0010
1000
0100
0010
0100
1000
0010
0100
0010
1000
0001
0010
0100
1000
,
0001
0100
0010
0100
0001
0010
0100
0010
0001
0100
0010
0100
0001
1000
0100
0010
,
0001
0100
0010
1000
0100
0010
0100
1000
0010
0100
0010
1000
0001
0010
0100
1000
,
0001
0100
0010
0100
0010
1000
0100
0010
0100
0010
0001
0100
0010
1000
0100
0010
,
0001
0100
0001
0010
0100
0010
0001
1000
0100
0010
0001
1000
0010
0100
0001
1000
,
0001
0010
0001
0100
0010
0100
0001
1000
0010
0100
0001
1000
0100
0010
0001
1000
,
0001
0100
0001
0010
0100
0010
0001
1000
0100
0010
0001
1000
0010
0100
0001
1000
,
0001
0010
0001
0100
0010
0100
0001
1000
0001
0010
0100
1000
0001
0100
0010
1000
,
0001
0010
0100
0010
0001
0100
0010
0100
0001
0010
0100
0010
0001
1000
0010
0100
,
0001
0010
0100
1000
0010
0100
0010
1000
0100
0010
0100
1000
0001
0100
0010
1000
,
0001
0010
0001
0100
0010
0100
0001
1000
0010
0100
0001
1000
0100
0010
0001
1000
,
0001
0100
0001
0010
0100
0010
0001
1000
0100
0010
0001
1000
0010
0100
0001
1000
,
0001
0010
0001
0100
0001
0010
0100
1000
0010
0100
0001
1000
0100
0010
0001
1000
,
0001
0100
0001
0010
0001
0100
0010
1000
0100
0010
0001
1000
0010
0100
0001
1000
,
0001
0010
0001
0100
0001
0010
0100
1000
0010
0100
0001
1000
0100
0010
0001
1000
,
0001
0100
0001
0010
0100
0010
0001
1000
0001
0100
0010
1000
0001
0010
0100
1000
,
0001
0100
0001
0100
0010
1000
0010
1000
0001
0010
0001
0010
0100
0010
0100
1000
,
0001
1000
0001
0100
0010
0100
0001
1000
0001
1000
0100
0010
0100
0010
0001
1000
,
0001
0010
0100
1000
0100
1000
0001
0010
0100
0010
0100
1000
0001
1000
0100
0010
,
0001
0010
0001
1000
0001
0010
0100
1000
0001
1000
0001
0100
0010
1000
0100
0010
,
0001
0100
0010
1000
0010
1000
0001
0100
0010
0100
0010
1000
0001
1000
0010
0100
,
0001
0100
0001
1000
0001
0100
0010
1000
0001
1000
0001
0010
0100
1000
0010
0100
,
0001
0010
0100
1000
0100
1000
0001
0010
0100
0010
0100
1000
0001
1000
0100
0010
,
0001
0010
0001
1000
0001
0010
0100
1000
0001
1000
0001
0100
0010
1000
0100
0010
,
0001
0100
0010
1000
0010
1000
0001
0100
0010
0100
0010
1000
0001
1000
0010
0100
,
0001
0100
0001
1000
0001
0100
0010
1000
0001
1000
0001
0010
0100
1000
0010
0100
,
0001
0010
0100
1000
0100
1000
0001
0010
0100
0010
0100
1000
0001
1000
0100
0010
,
0001
0010
0001
1000
0001
0010
0100
1000
0001
1000
0001
0100
0010
1000
0100
0010
,
0001
0100
0010
1000
0010
1000
0001
0100
0010
0100
0010
1000
0001
1000
0010
0100
,
0001
0100
0001
1000
0001
0100
0010
1000
0001
1000
0001
0010
0100
1000
0010
0100
,
0001
0010
0100
1000
0100
1000
0001
0010
0100
0010
0100
1000
0001
1000
0100
0010
,
0001
0010
0001
1000
0001
0010
0100
1000
0001
1000
0001
0100
0010
1000
0100
0010
,
0001
0100
0010
1000
0010
1000
0001
0100
0010
0100
0010
1000
0001
1000
0010
0100
,
0001
0100
0001
1000
0001
0100
0010
1000
0001
1000
0001
0010
0100
1000
0010
0100
,
0001
0010
0100
1000
0100
1000
0001
0010
0100
0010
0100
1000
0001
1000
0100
0010
,
0001
0010
0001
1000
0001
0010
0100
1000
0001
1000
0001
0100
0010
1000
0100
0010
,
0001
0100
0010
1000
0010
1000
0001
0100
0010
0100
0010
1000
0001
1000
0010
0100
,
0001
0100
0001
1000
0001
0100
0010
1000
0001
1000
0001
0010
0100
1000
0010
0100
,
0001
0010
0100
1000
0100
1000
0001
0010
0100
0010
0100
1000
0001
1000
0100
0010
,
0001
0010
0001
1000
0001
0010
0100
1000
0001
1000
0001
0100
0010
1000
0100
0010
,
0001
0100
0010
1000
0010
1000
0001
0100
0010
0100
0010
1000
0001
1000
0010
0100
,
0001
0100
0001
1000
0001
0100
0010
1000
0001
1000
0001
0010
0100
1000
0010
0100
,
0001
0010
0100
1000
0100
1000
0001
0010
0100
0010
0100
1000
0001
1000
0100
0010
,
0001
0010
0001
1000
0001
0010
0100
1000
0001
1000
0001
0100
0010
1000
0100
0010
,
0001
0100
0010
1000
0010
1000
0001
0100
0010
0100
0010
1000
0001
1000
0010
0100
,
0001
0100
0001
1000
0001
0100
0010
1000
0001
1000
0001
0010
0100
1000
0010
0100
,
0001
1000
0100
1000
0100
0010
0001
1000
0100
1000
0100
0010
0001
0100
0010
1000
,
0001
0100
0010
0100
0010
1000
0001
0100
0010
0100
0010
1000
0001
0100
0010
1000
,
0100
0010
0001
0010
0001
1000
0100
0010
0001
0010
0001
1000
0100
0010
0001
0100
,
0010
1000
0001
0100
0010
1000
0001
0010
0100
1000
0010
0100
0001
1000
0100
0010
,
0001
0100
0001
1000
010M
1000
0001
0100
0010
0100
0001
1000
0001
1000
0010
1000
,
0001
1000
0001
0100
0010
0100
0001
1000
0001
0010
0100
1000
0001
1000
0001
0100
,
0010
0100
0001
1000
0100
0010
0001
1000
0001
0100
0001
1000
0010
0100
0001
0100
,
0001
1000
0010
0100
0001
1000
0100
1000
0001
0100
0010
0100
0001
1000
0001
0010
,
0001
1000
0010
1000
0010
0100
0001
1000
0010
1000
0010
0100
0001
0010
0100
1000
,
0001
0010
0100
0010
0100
1000
0001
0010
0100
0010
0100
1000
0001
0010
0100
1000
,
0010
0100
0001
0100
0001
1000
0010
0100
0001
0100
0001
1000
0010
0100
0001
0010
,
0100
1000
0001
0010
0100
1000
0001
0100
0010
1000
0100
0010
0001
1000
0010
0100
,
0001
0100
0001
1000
0100
0010
0100
0010
0001
1000
0001
0100
0010
0100
0001
1000
,
0001
1000
0100
1000
0001
0100
0001
0100
0001
0100
0001
1000
0100
1000
0001
0100
,
0001
0100
0010
1000
0001
0100
0001
1000
0010
0100
0010
1000
0001
1000
0100
0010
,
0100
0010
0001
1000
0001
0100
0010
0100
0001
1000
0001
1000
0010
1000
0100
0010
,
0001
1000
0100
1000
0100
0010
0001
1000
0100
1000
0100
0010
0001
0100
0010
1000
,
0001
0100
0010
0100
0010
1000
0001
0100
0010
0100
0010
1000
0001
0100
0010
1000
,
0100
0010
0001
0010
0001
1000
0100
0010
0001
0010
0001
1000
0100
0010
0001
0100
,
0010
1000
0001
0100
0010
1000
0001
0010
0100
1000
0010
0100
0001
1000
0100
0010
,
0001
1000
0001
0100
0010
0100
0001
1000
0001
0100
0001
1000
0100
1000
0001
0100
,
0001
0100
0010
1000
0001
1000
0001
1000
0001
0100
0001
1000
0010
0100
0001
0100
,
0010
1000
0001
1000
0100
0010
0001
1000
0001
0010
0100
1000
0001
1000
0001
0100
,
0010
0100
0001
1000
0010
0100
0001
0100
0001
1000
0100
1000
0001
0100
0001
0010
,
0001
1000
0010
1000
0010
0100
0001
1000
0010
1000
0010
0100
0001
0010
0100
1000
,
0001
0010
0100
0010
0100
1000
0001
0010
0100
0010
0100
1000
0001
0010
0100
1000
,
0010
0100
0001
0100
0001
1000
0010
0100
0001
0100
0001
1000
0010
0100
0001
0010
,
0100
1000
0001
0010
0100
1000
0001
0100
0010
1000
0100
0010
0001
1000
0010
0100
,
0001
0100
0001
1000
0100
1000
0001
0010
0001
0010
0100
1000
0001
1000
0001
0010
,
0001
1000
0010
0100
0001
0100
0001
1000
0010
1000
0001
0100
0001
0100
0010
1000
,
0001
1000
0100
1000
0001
0100
0001
1000
0010
0100
0010
1000
0001
0100
0010
1000
,
0001
0100
0010
0100
0001
0100
0010
0100
0001
0010
0100
0010
0001
0100
0001
1000
,
0001
0100
0010
1000
0100
0010
0100
1000
0010
0100
0010
1000
0001
0010
0100
1000
,
0001
0100
0010
0100
0001
0010
0100
0010
0001
0100
0010
0100
0001
1000
0100
0010
,
0001
0100
0010
1000
0100
0010
0100
1000
0010
0100
0010
1000
0001
0010
0100
1000
,
0001
0100
0010
0100
0010
1000
0100
0010
0100
0010
0001
0100
0010
1000
0100
0010
,
0001
0100
0001
0010
0100
0010
0001
1000
0100
0010
0001
1000
0010
0100
0001
1000
,
0001
0010
0001
0100
0010
0100
0001
1000
0010
0100
0001
1000
0100
0010
0001
1000
,
0001
0100
0001
0010
0100
0010
0001
1000
0100
0010
0001
1000
0010
0100
0001
1000
,
0001
0010
0001
0100
0010
0100
0001
1000
0001
0010
0100
1000
0001
0100
0010
1000
,
0001
0010
0100
0010
0001
0100
0010
0100
0001
0010
0100
0010
0001
1000
0010
0100
,
0001
0010
0100
1000
0010
0100
0010
1000
0100
0010
0100
1000
0001
0100
0010
1000
,
0001
0010
0001
0100
0010
0100
0001
1000
0010
0100
0001
1000
0100
0010
0001
1000
,
0001
0100
0001
0010
0100
0010
0001
1000
0100
0010
0001
1000
0010
0100
0001
1000
,
0001
0010
0001
0100
0001
0010
0100
1000
0010
0100
0001
1000
0100
0010
0001
1000
,
0001
0100
0001
0010
0001
0100
0010
1000
0100
0010
0001
1000
0010
0100
0001
1000
,
0001
0010
0001
0100
0001
0010
0100
1000
0010
0100
0001
1000
0100
0010
0001
1000
,
0001
0100
0001
0010
0100
0010
0001
1000
0001
0100
0010
1000
0001
0010
0100
1000
,
0001
0100
0010
1000
0100
0010
0100
1000
0010
0100
0010
1000
0001
0010
0100
1000
,
0001
0100
0010
0100
0001
0010
0100
0010
0001
0100
0010
0100
0001
1000
0100
0010
,
0001
0100
0010
1000
0100
0010
0100
1000
0010
0100
0010
1000
0001
0010
0100
1000
,
0001
0100
0010
0100
0010
1000
0100
0010
0100
0010
0001
0100
0010
1000
0100
0010
,
0001
0100
0001
0010
0100
0010
0001
1000
0100
0010
0001
1000
0010
0100
0001
1000
,
0001
0010
0001
0100
0010
0100
0001
1000
0010
0100
0001
1000
0100
0010
0001
1000
,
0001
0100
0001
0010
0100
0010
0001
1000
0100
0010
0001
1000
0010
0100
0001
1000
,
0001
0010
0001
0100
0010
0100
0001
1000
0001
0010
0100
1000
0001
0100
0010
1000
,
0001
0010
0100
0010
0001
0100
0010
0100
0001
0010
0100
0010
0001
1000
0010
0100
,
0001
0010
0100
1000
0010
0100
0010
1000
0100
0010
0100
1000
0001
0100
0010
1000
,
0001
0010
0001
0100
0010
0100
0001
1000
0010
0100
0001
1000
0100
0010
0001
1000
,
0001
0100
0001
0010
0100
0010
0001
1000
0100
0010
0001
1000
0010
0100
0001
1000
,
0001
0010
0001
0100
0001
0010
0100
1000
0010
0100
0001
1000
0100
0010
0001
1000
,
0001
0100
0001
0010
0001
0100
0010
1000
0100
0010
0001
1000
0010
0100
0001
1000
,
0001
0010
0001
0100
0001
0010
0100
1000
0010
0100
0001
1000
0100
0010
0001
1000
,
0001
0100
0001
0010
0100
0010
0001
1000
0001
0100
0010
1000
0001
0010
0100
1000
,
0001
0010
0100
1000
0100
1000
0001
0010
0100
0010
0100
1000
0001
1000
0100
0010
,
0001
0010
0001
1000
0001
0010
0100
1000
0001
1000
0001
0100
0010
1000
0100
0010
,
0001
0100
0010
1000
0010
1000
0001
0100
0010
0100
0010
1000
0001
1000
0010
0100
,
0001
0100
0001
1000
0001
0100
0010
1000
0001
1000
0001
0010
0100
1000
0010
0100
,
0001
0010
0100
1000
0100
1000
0001
0010
0100
0010
0100
1000
0001
1000
0100
0010
,
0001
0010
0001
1000
0001
0010
0100
1000
0001
1000
0001
0100
0010
1000
0100
0010
,
0001
0100
0010
1000
0010
1000
0001
0100
0010
0100
0010
1000
0001
1000
0010
0100
,
0001
0100
0001
1000
0001
0100
0010
1000
0001
1000
0001
0010
0100
1000
0010
0100
,
0001
0010
0100
1000
0100
1000
0001
0010
0100
0010
0100
1000
0001
1000
0100
0010
,
0001
0010
0001
1000
0001
0010
0100
1000
0001
1000
0001
0100
0010
1000
0100
0010
,
0001
0100
0010
1000
0010
1000
0001
0100
0010
0100
0010
1000
0001
1000
0010
0100
,
0001
0100
0001
1000
0001
0100
0010
1000
0001
1000
0001
0010
0100
1000
0010
0100
,
0001
0010
0100
1000
0100
1000
0001
0010
0100
0010
0100
1000
0001
1000
0100
0010
,
0001
0010
0001
1000
0001
0010
0100
1000
0001
1000
0001
0100
0010
1000
0100
0010
,
0001
0100
0010
1000
0010
1000
0001
0100
0010
0100
0010
1000
0001
1000
0010
0100
,
0001
0100
0001
1000
0001
0100
0010
1000
0001
1000
0001
0010
0100
1000
0010
0100
,
0001
0010
0100
1000
0100
1000
0001
0010
0100
0010
0100
1000
0001
1000
0100
0010
,
0001
0010
0001
1000
0001
0010
0100
1000
0001
1000
0001
0100
0010
1000
0100
0010
,
0001
0100
0010
1000
0010
1000
0001
0100
0010
0100
0010
1000
0001
1000
0010
0100
,
0001
0100
0001
1000
0001
0100
0010
1000
0001
1000
0001
0010
0100
1000
0010
0100
,
0001
0010
0100
1000
0100
1000
0001
0010
0100
0010
0100
1000
0001
1000
0100
0010
,
0001
0010
0001
1000
0001
0010
0100
1000
0001
1000
0001
0100
0010
1000
0100
0010
,
0001
0100
0010
1000
0010
1000
0001
0100
0010
0100
0010
1000
0001
1000
0010
0100
,
0001
0100
0001
1000
0001
0100
0010
1000
0001
1000
0001
0010
0100
1000
0010
0100
,
0001
0010
0100
1000
0100
1000
0001
0010
0100
0010
0100
1000
0001
1000
0100
0010
,
0001
0010
0001
1000
0001
0010
0100
1000
0001
1000
0001
0100
0010
1000
0100
0010
,
0001
0100
0010
1000
0010
1000
0001
0100
0010
0100
0010
1000
0001
1000
0010
0100
,
0001
0100
0001
1000
0001
0100
0010
1000
0001
1000
0001
0010
0100
1000
0010
0100
,
0001
0010
0100
1000
0100
1000
0001
0010
0100
0010
0100
1000
0001
1000
0100
0010
,
0001
0010
0001
1000
0001
0010
0100
1000
0001
1000
0001
0100
0010
1000
0100
0010
,
0001
0000
0100
0000
0010
0000
1000
0000
0010
0000
1000
0000
0002
0003
0100
0000
0020
0030
1000
0000
0002
0003
0010
0000
0200
0300
1000
0000
0010
0000
0100
0000
,
0001
0100
0001
1000
0001
0100
0010
1000
0001
1000
0001
0010
0100
1000
0010
0100
,
0001
0000
0010
0000
0100
0000
1000
0000
0100
0000
1000
0000
0002
0003
0100
0000
0020
0030
1000
0000
0002
0003
0010
0000
0200
0300
1000
0000
0002
0003
0010
0000
,
0001
0000
1000
0000
0200
0300
1000
0000
0001
0000
0010
0000
0100
0000
1000
0000
0001
0000
1000
0000
0001
0000
0100
0000
0010
0000
1000
0000
0100
0000
0010
0000
,
0001
0000
0100
0000
0010
0000
1000
0000
0010
0000
1000
0000
0002
0003
0010
0000
0200
0300
1000
0000
0002
0003
0100
0000
0020
0030
1000
0000
0100
0000
0010
0000
,
0001
0010
0001
1000
0001
0010
0100
1000
0001
1000
0001
0100
0010
1000
0100
0010
,
0001
0000
0100
0000
0010
0000
1000
0000
0010
0000
1000
0000
0002
0003
0010
0000
0200
0300
1000
0000
0002
0003
0100
0000
0020
0030
1000
0000
0002
0003
0100
0000
,
0001
0000
1000
0000
0020
0030
1000
0000
0002
0003
0100
0000
0010
0000
1000
0000
0001
0000
1000
0000
0002
0003
0020
0030
0200
0300
0020
0030
0002
0003
2000
3000
,
0100
0000
0010
0000
0100
0000
1000
0000
0100
0000
1000
0000
0002
0003
0010
0000
0200
0300
1000
0000
0002
0003
0100
0000
0020
0030
1000
0000
0100
0000
0010
0000
,
0001
0010
0001
1000
0001
0010
0100
1000
0001
1000
0001
0100
0010
1000
0100
0010
,
0001
0000
0100
0000
0010
0000
1000
0000
0100
0000
1000
0000
0002
0003
0010
0000
0200
0300
1000
0000
0002
0003
0100
0000
0020
0030
1000
0000
0002
0003
0100
0000
,
0001
0000
1000
0000
0020
0030
1000
0000
0001
0000
0100
0000
0010
0000
1000
0000
0001
0000
1000
0000
0001
0000
0010
0000
0100
0000
1000
0000
0010
0000
0100
0000
,
0001
0000
0010
0000
0100
0000
1000
0000
0100
0000
1000
0000
0002
0003
0100
0000
0020
0030
1000
0000
0002
0003
0010
0000
0200
0300
1000
0000
0010
0000
0100
0000
,
0001
0100
0001
1000
0001
0100
0010
1000
0001
1000
0001
0010
0100
1000
0010
0100
,
0001
0000
0010
0000
0100
0000
1000
0000
0100
0000
1000
0000
0002
0003
0100
0000
0020
0030
1000
0000
0002
0003
0010
0000
0200
0300
1000
0000
0002
0003
0010
0000
,
0001
0000
1000
0000
0200
0300
1000
0000
0002
0003
0010
0000
0100
0000
1000
0000
0001
0000
1000
0000
0002
0003
0200
0300
0020
0030
0200
0300
0002
0003
2000
3000
,
0010
0000
0100
0000
0010
0000
1000
0000
0010
0000
1000
0000
0002
0003
0100
0000
0020
0030
1000
0000
0002
0003
0010
0000
0200
0300
1000
0000
0010
0000
0100
0000
,
0001
0100
0001
1000
0001
0100
0010
1000
0001
1000
0001
0010
0100
1000
0010
0100
,
0001
0000
0010
0000
0100
0000
1000
0000
0100
0000
1000
0000
0002
0003
0100
0000
0020
0030
1000
0000
0002
0003
0010
0000
0200
0300
1000
0000
0002
0003
0010
0000
,
0001
0000
1000
0000
0200
0300
1000
0000
0001
0000
0010
0000
0100
0000
1000
0000
0001
0000
1000
0000
0001
0000
0100
0000
0010
0000
1000
0000
0100
0000
0010
0000
,
0001
0000
0100
0000
0010
0000
1000
0000
0010
0000
1000
0000
0002
0003
0010
0000
0200
0300
1000
0000
0002
0003
0100
0000
0020
0030
1000
0000
0100
0000
0010
0000
,
0001
0010
0001
1000
0001
0010
0100
1000
0001
1000
0001
0100
0010
1000
0100
0010
,
0001
0000
0100
0000
0010
0000
1000
0000
0010
0000
1000
0000
0002
0003
0010
0000
0200
0300
1000
0000
0002
0003
0100
0000
0020
0030
1000
0000
0002
0003
0100
0000
,
0001
0000
1000
0000
0020
0030
1000
0000
0002
0003
0100
0000
0010
0000
1000
0000
0001
0000
1000
0000
0002
0003
0020
0030
0200
0300
0020
0030
0002
0003
2000
3000
,
0100
0000
0010
0000
0100
0000
1000
0000
0100
0000
1000
0000
0002
0003
0010
0000
0200
0300
1000
0000
0002
0003
0100
0000
0020
0030
1000
0000
0100
0000
0010
0000
,
0001
0010
0001
1000
0001
0010
0100
1000
0001
1000
0001
0100
0010
1000
0100
0010
,
0001
0000
0100
0000
0010
0000
1000
0000
0100
0000
1000
0000
0002
0003
0010
0000
0200
0300
1000
0000
0002
0003
0100
0000
0020
0030
1000
0000
0002
0003
0100
0000
,
0001
0000
1000
0000
0020
0030
1000
0000
0001
0000
0100
0000
0010
0000
1000
0000
0001
0000
1000
0000
0001
0000
0010
0000
0100
0000
1000
0000
0010
0000
0100
0000
,
0001
0000
0010
0000
0100
0000
1000
0000
0100
0000
1000
0000
0002
0003
0100
0000
0020
0030
1000
0000
0002
0003
0010
0000
0200
0300
1000
0000
0010
0000
0100
0000
,
0001
0100
0001
1000
0001
0100
0010
1000
0001
1000
0001
0010
0100
1000
0010
0100
,
0001
0000
0010
0000
0100
0000
1000
0000
0100
0000
1000
0000
0002
0003
0100
0000
0020
0030
1000
0000
0002
0003
0010
0000
0200
0300
1000
0000
0002
0003
0010
0000
,
0001
0000
1000
0000
0200
0300
1000
0000
0002
0003
0010
0000
0100
0000
1000
0000
0002
0003
0200
0300
0020
0030
0200
0300
0002
0003
0200
0300
0020
0030
0200
0300
,
0010
0100
0010
0100
0010
0100
0001
0100
0001
0100
0001
0100
0010
1000
0100
0010
,
0100
1000
0100
1000
0001
1000
0001
1000
0001
1000
0010
1000
0100
0010
0100
1000
,
0001
0100
0001
0100
0010
1000
0001
1000
0001
1000
0010
1000
0100
0010
0001
0010
,
0100
1000
0100
1000
0001
1000
0001
1000
0001
1000
0100
1000
0010
0100
0010
1000
,
0100
0010
0100
0010
0100
0010
0001
0010
0001
0010
0001
0010
0100
1000
0010
0100
,
0010
1000
0010
1000
0001
1000
0001
1000
0001
1000
0100
1000
0010
0100
0010
1000
,
0001
0010
0001
0010
0100
1000
0001
1000
0001
1000
0100
1000
0010
0100
0001
0100
,
0010
1000
0010
1000
0001
1000
0001
1000
0001
1000
0010
1000
0100
0010
0100
1000
,
0010
0100
0010
0100
0010
0100
0001
0100
0001
0100
0001
0100
0010
1000
0100
0010
,
0100
1000
0100
1000
0001
1000
0001
1000
0001
1000
0010
1000
0100
0010
0100
1000
,
0001
0100
0001
0100
0010
1000
0001
1000
0001
1000
0010
1000
0100
0010
0001
0010
,
0100
1000
0100
1000
0001
1000
0001
1000
0001
1000
0100
1000
0010
0100
0010
1000
,
0100
0010
0100
0010
0100
0010
0001
0010
0001
0010
0001
0010
0100
1000
0010
0100
,
0010
1000
0010
1000
0001
1000
0001
1000
0001
1000
0100
1000
0010
0100
0010
1000
,
0001
0010
0001
0010
0100
1000
0001
1000
0001
1000
0100
1000
0010
0100
0010
0100
,
0001
1000
0010
1000
0001
1000
0001
1000
0001
1000
0010
1000
0100
0010
0001
1000
,
0001
0100
0001
1000
0100
1000
0001
0010
0100
1000
0001
1000
0100
0010
0100
0010
,
0001
1000
0001
1000
0010
0100
0001
0100
0010
1000
0001
1000
0100
1000
0010
0100
,
0001
0100
0001
1000
0001
0010
0100
0010
0100
1000
0001
1000
0010
0100
0001
0100
,
0001
1000
0100
0010
0100
0010
0001
1000
0001
0100
0010
0100
0001
1000
0001
1000
,
0010
0100
0001
1000
0100
1000
0001
0100
0010
0100
0010
1000
0001
0100
0010
1000
,
0010
0100
0001
1000
0100
0010
0001
1000
0001
1000
0010
0100
0001
0100
0001
1000
,
0100
1000
0001
0010
0100
1000
0001
1000
0100
0010
0001
1000
0001
0100
0010
0100
,
0001
1000
0100
1000
0001
0100
0001
1000
0100
0010
0001
1000
0001
0100
0010
0100
,
0001
1000
0001
0010
0100
1000
0001
1000
0010
0100
0001
0100
0010
1000
0001
1000
,
0100
0010
0100
0010
0001
1000
0001
0010
0100
1000
0001
1000
0010
0100
0001
0010
,
0100
1000
0001
1000
0010
0100
0001
0100
0001
1000
0100
1000
0010
0100
0001
0100
,
0010
1000
0001
1000
0001
0010
0100
1000
0001
1000
0010
0100
0001
0010
0100
1000
,
0010
0100
0001
1000
0001
0100
0010
0100
0001
1000
0001
1000
0100
1000
0010
0100
,
0001
1000
0010
0100
0001
1000
0001
0100
0010
0100
0001
1000
0001
1000
0100
1000
,
0001
0100
0001
0100
0010
1000
0001
1000
0001
0100
0010
0100
0001
1000
0001
1000
,
0010
0100
0001
0100
0001
1000
0010
0100
0001
1000
0001
1000
0001
0010
0100
0010
,
0001
1000
0001
1000
0001
1000
0100
0010
0100
0010
0100
0010
0001
0100
0010
1000
,
0001
0100
0001
0100
0010
1000
0100
1000
0100
1000
0010
0100
0001
1000
0010
1000
,
0001
0010
0001
0010
0100
1000
0001
0010
0001
1000
0010
0100
0001
0010
0100
1000
,
0001
0010
0001
0010
0100
1000
0001
0100
0001
1000
0010
0100
0001
1000
0100
0010
,
0001
1000
0001
1000
0001
1000
0010
0100
0010
0100
0010
0100
0001
0010
0100
1000
,
0001
0010
0001
0010
0100
1000
0010
1000
0010
1000
0100
0010
0001
1000
0100
1000
,
0001
0100
0001
0100
0010
1000
0001
0100
0001
1000
0100
0010
0001
0100
0010
1000
,
0001
0100
0001
0100
0010
1000
0001
0010
0001
1000
0100
0010
0001
1000
0010
0100
,
0001
1000
0001
1000
0001
1000
0100
0010
0100
0010
0100
0010
0001
0100
0010
1000
,
0001
0100
0001
0100
0010
1000
0100
1000
0100
1000
0010
0100
0001
1000
0010
1000
,
0001
0010
0001
0010
0100
1000
0001
0010
0001
1000
0010
0100
0001
0010
0100
1000
,
0001
0010
0001
0010
0100
1000
0001
0100
0001
1000
0010
0100
0001
1000
0100
0010
,
0001
1000
0001
1000
0001
1000
0010
0100
0010
0100
0010
0100
0001
0010
0100
1000
,
0001
0010
0001
0010
0100
1000
0010
1000
0010
1000
0100
0010
0001
1000
0100
1000
,
0001
0100
0001
0100
0010
1000
0001
0100
0001
1000
0100
0010
0001
1000
0001
1000
,
0010
0100
0010
0100
0001
1000
0010
1000
0010
1000
0001
0100
0010
1000
0100
0010
,
0001
0100
0001
0100
0010
1000
0010
1000
0100
0010
0001
0100
0010
1000
0100
0010
,
0001
0100
0001
0100
0010
1000
0010
1000
0100
1000
0001
0010
0001
0010
0100
1000
,
0001
0100
0001
0100
0010
1000
0010
1000
0100
1000
0001
0010
0001
0010
0100
1000
,
0001
0100
0001
0100
0010
1000
0010
1000
0100
1000
0001
0010
0001
0010
0100
1000
,
0001
0100
0001
0100
0010
1000
0010
1000
0100
0010
0001
0100
0010
1000
0100
0010
,
0001
0100
0001
0100
0010
1000
0010
1000
0100
1000
0001
0010
0001
0010
0100
1000
,
0001
0100
0001
0100
0010
1000
0010
1000
0100
1000
0001
0010
0001
0010
0100
1000
,
0001
0100
0001
0100
0010
1000
0010
1000
0100
1000
0010
1000
0001
1000
0100
1000
,
0001
0010
0001
0010
0100
1000
0100
1000
0010
0100
0001
0010
0100
1000
0010
0100
,
0001
0010
0001
0010
0100
1000
0100
1000
0010
1000
0001
0100
0001
0100
0010
1000
,
0001
0010
0001
0010
0100
1000
0100
1000
0010
1000
0001
0100
0001
0100
0010
1000
,
0001
0010
0001
0010
0100
1000
0100
1000
0010
1000
0001
0100
0001
0100
0010
1000
,
0001
0010
0001
0010
0100
1000
0100
1000
0010
0100
0001
0010
0100
1000
0010
0100
,
0001
0010
0001
0010
0100
1000
0100
1000
0010
1000
0001
0100
0001
0100
0010
1000
,
0001
0010
0001
0010
0100
1000
0100
1000
0010
1000
0001
0100
0001
0100
0010
1000
,
0001
0010
0001
0010
0100
1000
0100
1000
0010
1000
0100
1000
0001
1000
0010
1000
,
0010
0100
0010
0100
0010
0100
0001
0100
0001
0100
0001
0100
0010
1000
0100
0010
,
0100
1000
0100
1000
0001
1000
0001
1000
0001
1000
0010
1000
0100
0010
0100
1000
,
0001
0100
0001
0100
0010
1000
0001
1000
0001
1000
0010
1000
0100
0010
0001
0010
,
0100
1000
0100
1000
0001
1000
0001
1000
0001
1000
0100
1000
0010
0100
0010
1000
,
0100
0010
0100
0010
0100
0010
0001
0010
0001
0010
0001
0010
0100
1000
0010
0100
,
0010
1000
0010
1000
0001
1000
0001
1000
0001
1000
0100
1000
0010
0100
0010
1000
,
0001
0010
0001
0010
0100
1000
0001
1000
0001
1000
0100
1000
0010
0100
0001
0100
,
0010
1000
0010
1000
0001
1000
0001
1000
0001
1000
0010
1000
0100
0010
0100
1000
,
0010
0100
0010
0100
0010
0100
0001
0100
0001
0100
0001
0100
0010
1000
0100
0010
,
0100
1000
0100
1000
0001
1000
0001
1000
0001
1000
0010
1000
0100
0010
0100
1000
,
0001
0100
0001
0100
0010
1000
0001
1000
0001
1000
0010
1000
0100
0010
0001
0010
,
0100
1000
0100
1000
0001
1000
0001
1000
0001
1000
0100
1000
0010
0100
0010
1000
,
0100
0010
0100
0010
0100
0010
0001
0010
0001
0010
0001
0010
0100
1000
0010
0100
,
0010
1000
0010
1000
0001
1000
0001
1000
0001
1000
0100
1000
0010
0100
0010
1000
,
0001
0010
0001
0010
0100
1000
0001
1000
0001
1000
0100
1000
0010
0100
0010
0100
,
0001
1000
0010
1000
0001
1000
0001
1000
0001
1000
0010
1000
0100
0010
0001
1000
,
0001
0100
0001
1000
0100
1000
0001
0010
0100
1000
0001
1000
0100
0010
0100
0010
,
0001
1000
0001
1000
0010
0100
0001
0100
0010
1000
0001
1000
0100
1000
0010
0100
,
0001
0100
0001
1000
0001
0010
0100
0010
0100
1000
0001
1000
0010
0100
0001
0100
,
0001
1000
0100
0010
0100
0010
0001
1000
0001
0100
0010
0100
0001
1000
0001
1000
,
0010
0100
0001
1000
0100
1000
0001
0100
0010
0100
0010
1000
0001
0100
0010
1000
,
0010
0100
0001
1000
0100
0010
0001
1000
0001
1000
0010
0100
0001
0100
0001
1000
,
0100
1000
0001
0010
0100
1000
0001
1000
0100
0010
0001
1000
0001
0100
0010
0100
,
0001
1000
0100
1000
0001
0100
0001
1000
0100
0010
0001
1000
0001
0100
0010
0100
,
0001
1000
0001
0010
0100
1000
0001
1000
0010
0100
0001
0100
0010
1000
0001
1000
,
0100
0010
0100
0010
0001
1000
0001
0010
0100
1000
0001
1000
0010
0100
0001
0010
,
0100
1000
0001
1000
0010
0100
0001
0100
0001
1000
0100
1000
0010
0100
0001
0100
,
0010
1000
0001
1000
0001
0010
0100
1000
0001
1000
0010
0100
0001
0010
0100
1000
,
0010
0100
0001
1000
0001
0100
0010
0100
0001
1000
0001
1000
0100
1000
0010
0100
,
0001
1000
0010
0100
0001
1000
0001
0100
0010
0100
0001
1000
0001
1000
0100
1000
,
0001
0100
0001
0100
0010
1000
0001
1000
0001
0100
0010
0100
0001
1000
0001
1000
,
0010
0100
0001
0100
0001
1000
0010
0100
0001
1000
0001
1000
0001
0010
0100
0010
,
0001
1000
0001
1000
0001
1000
0100
0010
0100
0010
0100
0010
0001
0100
0010
1000
,
0001
0100
0001
0100
0010
1000
0100
1000
0100
1000
0010
0100
0001
1000
0010
1000
,
0001
0010
0001
0010
0100
1000
0001
0010
0001
1000
0010
0100
0001
0010
0100
1000
,
0001
0010
0001
0010
0100
1000
0001
0100
0001
1000
0010
0100
0001
1000
0100
0010
,
0001
1000
0001
1000
0001
1000
0010
0100
0010
0100
0010
0100
0001
0010
0100
1000
,
0001
0010
0001
0010
0100
1000
0010
1000
0010
1000
0100
0010
0001
1000
0100
1000
,
0001
0100
0001
0100
0010
1000
0001
0100
0001
1000
0100
0010
0001
0100
0010
1000
,
0001
0100
0001
0100
0010
1000
0001
0010
0001
1000
0100
0010
0001
1000
0010
0100
,
0001
1000
0001
1000
0001
1000
0100
0010
0100
0010
0100
0010
0001
0100
0010
1000
,
0001
0100
0001
0100
0010
1000
0100
1000
0100
1000
0010
0100
0001
1000
0010
1000
,
0001
0010
0001
0010
0100
1000
0001
0010
0001
1000
0010
0100
0001
0010
0100
1000
,
0001
0010
0001
0010
0100
1000
0001
0100
0001
1000
0010
0100
0001
1000
0100
0010
,
0001
1000
0001
1000
0001
1000
0010
0100
0010
0100
0010
0100
0001
0010
0100
1000
,
0001
0010
0001
0010
0100
1000
0010
1000
0010
1000
0100
0010
0001
1000
0100
1000
,
0001
0100
0001
0100
0010
1000
0001
0100
0001
1000
0100
0010
0001
1000
0001
1000
,
0010
0100
0010
0100
0001
1000
0010
1000
0010
1000
0001
0100
0010
1000
0100
0010
,
0001
0100
0001
0100
0010
1000
0010
1000
0100
0010
0001
0100
0010
1000
0100
0010
,
0001
0100
0001
0100
0010
1000
0010
1000
0100
1000
0001
0010
0001
0010
0100
1000
,
0001
0100
0001
0100
0010
1000
0010
1000
0100
1000
0001
0010
0001
0010
0100
1000
,
0001
0100
0001
0100
0010
1000
0010
1000
0100
1000
0001
0010
0001
0010
0100
1000
,
0001
0100
0001
0100
0010
1000
0010
1000
0100
0010
0001
0100
0010
1000
0100
0010
,
0001
0100
0001
0100
0010
1000
0010
1000
0100
1000
0001
0010
0001
0010
0100
1000
,
0001
0100
0001
0100
0010
1000
0010
1000
0100
1000
0001
0010
0001
0010
0100
1000
,
0001
0100
0001
0100
0010
1000
0010
1000
0100
1000
0010
1000
0001
1000
0100
1000
,
0001
0010
0001
0010
0100
1000
0100
1000
0010
0100
0001
0010
0100
1000
0010
0100
,
0001
0010
0001
0010
0100
1000
0100
1000
0010
1000
0001
0100
0001
0100
0010
1000
,
0001
0010
0001
0010
0100
1000
0100
1000
0010
1000
0001
0100
0001
0100
0010
1000
,
0001
0010
0001
0010
0100
1000
0100
1000
0010
1000
0001
0100
0001
0100
0010
1000
,
0001
0010
0001
0010
0100
1000
0100
1000
0010
0100
0001
0010
0100
1000
0010
0100
,
0001
0010
0001
0010
0100
1000
0100
1000
0010
1000
0001
0100
0001
0100
0010
1000
,
0001
0010
0001
0010
0100
1000
0100
1000
0010
1000
0001
0100
0001
0100
0010
1000
,
0001
0010
0001
0010
0100
1000
0100
1000
0010
1000
0100
1000
0001
1000
0010
1000
,
0001
1000
0001
1000
0001
1000
0010
0100
0010
0100
0010
0100
0001
0010
0100
1000
,
0001
0010
0001
0010
0100
1000
0010
1000
0010
1000
0100
0010
0001
1000
0100
1000
,
0001
0100
0001
0100
0010
1000
0001
0100
0001
1000
0100
0010
0001
0100
0010
1000
,
0001
0100
0001
0100
0010
1000
0001
0010
0001
1000
0100
0010
0001
1000
0010
0100
,
0001
1000
0001
1000
0001
1000
0100
0010
0100
0010
0100
0010
0001
0100
0010
1000
,
0001
0100
0001
0100
0010
1000
0100
1000
0100
1000
0010
0100
0001
1000
0010
1000
,
0001
0010
0001
0010
0100
1000
0001
0010
0001
1000
0010
0100
0001
0010
0100
1000
,
0001
0010
0001
0010
0100
1000
0001
0100
0001
1000
0010
0100
0001
1000
0100
0010
,
0001
1000
0001
1000
0001
1000
0010
0100
0010
0100
0010
0100
0001
0010
0100
1000
,
0001
0010
0001
0010
0100
1000
0010
1000
0010
1000
0100
0010
0001
1000
0100
1000
,
0001
0100
0001
0100
0010
1000
0001
0100
0001
1000
0100
0010
0001
0100
0010
1000
,
0001
0100
0001
0100
0010
1000
0001
0010
0001
1000
0100
0010
0001
1000
0010
0100
,
0001
1000
0001
1000
0001
1000
0100
0010
0100
0010
0100
0010
0001
0100
0010
1000
,
0001
0100
0001
0100
0010
1000
0100
1000
0100
1000
0010
0100
0001
1000
0010
1000
,
0001
0010
0001
0010
0100
1000
0001
0010
0001
1000
0010
0100
0001
1000
0001
1000
,
0100
0010
0100
0010
0001
1000
0100
1000
0100
1000
0001
0010
0100
1000
0010
0100
,
0001
0010
0001
0010
0100
1000
0100
1000
0010
0100
0001
0010
0100
1000
0010
0100
,
0001
0010
0001
0010
0100
1000
0100
1000
0010
1000
0001
0100
0001
0100
0010
1000
,
0001
0010
0001
0010
0100
1000
0100
1000
0010
1000
0001
0100
0001
0100
0010
1000
,
0001
0010
0001
0010
0100
1000
0100
1000
0010
1000
0001
0100
0001
0100
0010
1000
,
0001
0010
0001
0010
0100
1000
0100
1000
0010
0100
0001
0010
0100
1000
0010
0100
,
0001
0010
0001
0010
0100
1000
0100
1000
0010
1000
0001
0100
0001
0100
0010
1000
,
0001
0010
0001
0010
0100
1000
0100
1000
0010
1000
0001
0100
0001
0100
0010
1000
,
0001
0010
0001
0010
0100
1000
0100
1000
0010
1000
0100
1000
0001
1000
0010
1000
,
0001
0100
0001
0100
0010
1000
0010
1000
0100
0010
0001
0100
0010
1000
0100
0010
,
0001
0100
0001
0100
0010
1000
0010
1000
0100
1000
0001
0010
0001
0010
0100
1000
,
0001
0100
0001
0100
0010
1000
0010
1000
0100
1000
0001
0010
0001
0010
0100
1000
,
0001
0100
0001
0100
0010
1000
0010
1000
0100
1000
0001
0010
0001
0010
0100
1000
,
0001
0100
0001
0100
0010
1000
0010
1000
0100
0010
0001
0100
0010
1000
0100
0010
,
0001
0100
0001
0100
0010
1000
0010
1000
0100
1000
0001
0010
0001
0010
0100
1000
,
0001
0100
0001
0100
0010
1000
0010
1000
0100
1000
0001
0010
0001
0010
0100
1000
,
0001
0100
0001
0100
0010
1000
0010
1000
0100
1000
0010
1000
0001
1000
0100
1000
,
0020
0000
0000
0000
,
0000
000M
0M00
0M00
000M
M000
0000
0000
,
0000
0000
0000
0000
,
0000
0000
0000
0000
0000
0000
0000
0000
000M
0000
0000
0000
0000
0000
0000
0000
0M00
0000
0000
0000
0000
0000
0000
0000
0M00
0000
0000
0000
0000
0000
0000
0000
000M
0000
0000
0000
0000
0000
0000
0030
M210
0000
0000
0000
0000
0000
0000
0000
000M
0000
0000
0000
0000
0000
0000
0000
M000
0000
0000
0000
0000
0000
0000
0000
,
1321
0000
0000
0000
,
0000
000M
0M00
0M00
000M
M000
0000
0000
,
0000
0000
0000
0000
,
0000
000M
0M00
0M00
M000
000M
0M30
M000
,
MMMM
MMMM
MMMM
0MMM
0MMM
0MM0
0MM0
00M0
,
00M0
00M0
00M0
00M0
00M0
00M0
00M0
00M0
,
0000
00M0
0000
00M0
0000
00M0
0000
0000
,
00M0
0000
0000
00M0
0000
0000
0000
00M0
,
0000
0000
0000
00M0
0000
0000
0000
0000
,
00M0
0000
0000
0000
0000
00M0
0000
0000
,
0000
00M0
0000
0000
,
0000
0000
0000
0000
,
0000
0000
0000
0000
0000
0000
0000
0000
0000
0000
0000
0000
1000
0010
0100
0001
,
1000
0001
1000
0010
0100
0001
0100
0010
1000
0100
0010
0001
1000
0100
1000
0001
,
0010
0100
1000
0001
1000
0010
0100
0001
0100
0010
0100
0001
1000
0100
0010
0001
,
1000
0100
1000
0100
0010
0001
1000
0100
1000
0010
0100
0001
1000
0010
1000
0010
,
0100
0001
1000
0001
0100
0001
1000
0010
0100
0001
0100
0010
1000
0100
0010
0001
,
1000
0001
1000
0100
0010
0001
0010
0100
1000
0010
0100
0001
1000
0010
1000
0001
,
0100
0010
1000
0001
1000
0100
0010
0001
0010
0100
0010
0001
1000
0010
0100
0001
,
1000
0010
1000
0010
0100
0001
1000
0010
1000
0100
0010
0001
1000
0100
1000
0100
,
0010
0001
1000
0001
1000
0010
0100
0001
1000
0100
0010
0001
2000
0000
0000
0000
,
0000
0000
0000
0000
,
0000
0000
0000
3000
;

//---------------dance-single - ----------------
#NOTES:
     dance-single:
     :
     Hard:
     9:
     0.818,0.615,0.001,0.002,0.000,13036.000,2.000,4.000,65.000,1.000:

1000
0001
0100
0010
1000
0100
0010
0001
,
0100
0001
0010
0100
1000
0010
0100
0001
,
1000
0010
1000
0100
0010
0001
0100
0010
,
0100
0001
1000
0100
0010
0100
1000
0001
,
0100
0010
1000
0001
0100
0001
0010
0100
,
1000
0100
0010
0001
0100
0010
1000
0001
,
0100
0001
0010
0100
1000
0010
0100
0001
,
1000
0100
1000
0010
0100
0001
0100
0010
,
1000
0100
0010
0001
1000
0001
0100
0010
,
1000
0001
0100
0010
1000
0100
0010
0001
,
0100
0001
0010
0100
1000
0010
0100
0001
,
1000
0010
1000
0100
0010
0001
0100
0010
,
0100
0001
1000
0100
0010
0100
1000
0001
,
0100
0010
1000
0001
0100
0001
0010
0100
,
1000
0100
0010
0001
0100
0010
1000
0001
,
0100
0001
0010
0100
1000
0010
0100
0001
,
1000
0100
1000
0010
0100
0001
0100
0010
,
1000
0100
0010
0001
1000
0001
0100
0010
,
1000
0001
0100
0010
1000
0100
0010
0001
,
0100
0001
0010
0100
1000
0010
0100
0001
,
1000
0010
1000
0100
0010
0001
0100
0010
,
0100
0001
1000
0100
0010
0100
1000
0001
,
0100
0010
1000
0001
0100
0001
0010
0100
,
1000
0100
0010
0001
0100
0010
1000
0001
,
0100
0001
0010
0100
1000
0010
0100
0001
,
1000
0100
1000
0010
0100
0001
0100
0010
,
1000
0100
0010
0001
1000
0001
0100
0010
,
1000
0001
0100
0010
1000
0100
0010
0001
,
0100
0001
0010
0100
1000
0010
0100
0001
,
1000
0010
1000
0100
0010
0001
0100
0010
,
0100
0001
1000
0100
0010
0100
1000
0001
,
0100
0010
1000
0001
0100
0001
0010
0100
,
1000
0100
0010
0001
0100
0010
1000
0001
,
0100
0001
0010
0100
1000
0010
0100
0001
,
1000
0100
1000
0010
0100
0001
0100
0010
,
1000
0100
0010
0001
1000
0001
0100
0010
,
1000
0001
0100
0010
1000
0100
0010
0001
,
0100
0001
0010
0100
1000
0010
0100
0001
,
1000
0010
1000
0100
0010
0001
0100
0010
,
0100
0001
1000
0100
0010
0100
1000
0001
,
0100
0010
1000
0001
0100
0001
0010
0100
,
1000
0100
0010
0001
0100
0010
1000
0001
,
0100
0001
0010
0100
1000
0010
0100
0001
,
1000
0100
1000
0010
0100
0001
0100
0010
,
1000
0100
0010
0001
1000
0001
0100
0010
,
1000
0001
0100
0010
1000
0100
0010
0001
,
0100
0001
0010
0100
1000
0010
0100
0001
,
1000
0010
1000
0100
0010
0001
0100
0010
,
0100
0001
1000
0100
0010
0100
1000
0001
,
0100
0010
1000
0001
0100
0001
0010
0100
,
1000
0100
0010
0001
0100
0010
1000
0001
,
0100
0001
0010
0100
1000
0010
0100
0001
,
1000
0100
1000
0010
0100
0001
0100
0010
,
1000
0100
0010
0001
1000
0001
0100
0010
,
1000
0001
0100
0010
1000
0100
0010
0001
,
0100
0001
0010
0100
1000
0010
0100
0001
,
1000
0010
1000
0100
0010
0001
0100
0010
,
0100
0001
1000
0100
0010
0100
1000
0001
,
0100
0010
1000
0001
0100
0001
0010
0100
,
1000
0100
0010
0001
0100
0010
1000
0001
,
0100
0001
0010
0100
1000
0010
0100
0001
,
1000
0100
1000
0010
0100
0001
0100
0010
,
1000
0100
0010
0001
1000
0001
0100
0010
,
1000
0001
0100
0010
1000
0100
0010
0001
,
0100
0001
0010
0100
1000
0010
0100
0001
,
1000
0010
1000
0100
0010
0001
0100
0010
,
0100
0001
1000
0100
0010
0100
1000
0001
,
0100
0010
1000
0001
0100
0001
0010
0100
,
1000
0100
0010
0001
0100
0010
1000
0001
,
0100
0001
0010
0100
1000
0010
0100
0001
,
1000
0100
1000
0010
0100
0001
0100
0010
,
1000
0100
0010
0001
1000
0001
0100
0010
,
1000
0001
0100
0010
1000
0100
0010
0001
,
0100
0001
0010
0100
1000
0010
0100
0001
,
1000
0010
1000
0100
0010
0001
0100
0010
,
0100
0001
1000
0100
0010
0100
1000
0001
,
0100
0010
1000
0001
0100
0001
0010
0100
,
1000
0100
0010
0001
0100
0010
1000
0001
,
0100
0001
0010
0100
1000
0010
0100
0001
,
1000
0100
1000
0010
0100
0001
0100
0010
,
1000
0100
0010
0001
1000
0001
0100
0010
,
1000
0001
0100
0010
1000
0100
0010
0001
,
0100
0001
0010
0100
1000
0010
0100
0001
,
1000
0010
1000
0100
0010
0001
0100
0010
,
0100
0001
1000
0100
0010
0100
1000
0001
,
0100
0010
1000
0001
0100
0001
0010
0100
,
1000
0100
0010
0001
0100
0010
1000
0001
,
0100
0001
0010
0100
1000
0010
0100
0001
,
1000
0100
1000
0010
0100
0001
0100
0010
,
1000
0100
0010
0001
1000
0001
0100
0010
,
1000
0001
0100
0010
1000
0100
0010
0001
,
0100
0001
0010
0100
1000
0010
0100
0001
,
1000
0010
1000
0100
0010
0001
0100
0010
,
0100
0001
1000
0100
0010
0100
1000
0001
,
0100
0010
1000
0001
0100
0001
0010
0100
,
1000
0100
0010
0001
0100
0010
1000
0001
,
0100
0001
0010
0100
1000
0010
0100
0001
,
1000
0100
1000
0010
0100
0001
0100
0010
,
1000
0100
0010
0001
1000
0001
0100
0010
,
1000
0001
0100
0010
1000
0100
0010
0001
,
0100
0001
0010
0100
1000
0010
0100
0001
,
1000
0010
1000
0100
0010
0001
0100
0010
,
0100
0001
1000
0100
0010
0100
1000
0001
,
0100
0010
1000
0001
0100
0001
0010
0100
,
1000
0100
0010
0001
0100
0010
1000
0001
,
0100
0001
0010
0100
1000
0010
0100
0001
,
1000
0100
1000
0010
0100
0001
0100
0010
,
1000
0100
0010
0001
1000
0001
0100
0010
,
1000
0001
0100
0010
1000
0100
0010
0001
,
0100
0001
0010
0100
1000
0010
0100
0001
,
1000
0010
1000
0100
0010
0001
0100
0010
,
0100
0001
1000
0100
0010
0100
1000
0001
,
0100
0010
1000
0001
0100
0001
0010
0100
,
1000
0100
0010
0001
0100
0010
1000
0001
,
0100
0001
0010
0100
1000
0010
0100
0001
,
1000
0100
1000
0010
0100
0001
0100
0010
,
1000
0100
0010
0001
1000
0001
0100
0010
,
1000
0001
0100
0010
1000
0100
0010
0001
,
0100
0001
0010
0100
1000
0010
0100
0001
,
1000
0010
1000
0100
0010
0001
0100
0010
,
0100
0001
1000
0100
0010
0100
1000
0001
,
0100
0010
1000
0001
0100
0001
0010
0100
,
1000
0100
0010
0001
0100
0010
1000
0001
,
0100
0001
0010
0100
1000
0010
0100
0001
,
1000
0100
1000
0010
0100
0001
0100
0010
,
1000
0100
0010
0001
1000
0001
0100
0010
,
1000
0001
0100
0010
1000
0100
0010
0001
,
0100
0001
0010
0100
1000
0010
0100
0001
,
1000
0010
1000
0100
0010
0001
0100
0010
,
0100
0001
1000
0100
0010
0100
1000
0001
,
0100
0010
1000
0001
0100
0001
0010
0100
,
1000
0100
0010
0001
0100
0010
1000
0001
,
0100
0001
0010
0100
1000
0010
0100
0001
,
1000
0100
1000
0010
0100
0001
0100
0010
,
1000
0100
0010
0001
1000
0001
0100
0010
,
1000
0001
0100
0010
1000
0100
0010
0001
,
0100
0001
0010
0100
1000
0010
0100
0001
,
1000
0010
1000
0100
0010
0001
0100
0010
,
0100
0001
1000
0100
0010
0100
1000
0001
,
0100
0010
1000
0001
0100
0001
0010
0100
,
1000
0100
0010
0001
0100
0010
1000
0001
,
0100
0001
0010
0100
1000
0010
0100
0001
,
1000
0100
1000
0010
0100
0001
0100
0010
,
1000
0100
0010
0001
1000
0001
0100
0010
,
1000
0001
0100
0010
1000
0100
0010
0001
,
0100
0001
0010
0100
1000
0010
0100
0001
,
1000
0010
1000
0100
0010
0001
0100
0010
,
0100
0001
1000
0100
0010
0100
1000
0001
,
0100
0010
1000
0001
0100
0001
0010
0100
,
1000
0100
0010
0001
0100
0010
1000
0001
,
0100
0001
0010
0100
1000
0010
0100
0001
,
1000
0100
1000
0010
0100
0001
0100
0010
,
1000
0100
0010
0001
1000
0001
0100
0010
,
1000
0001
0100
0010
1000
0100
0010
0001
,
0100
0001
0010
0100
1000
0010
0100
0001
,
1000
0010
1000
0100
0010
0001
0100
0010
,
0100
0001
1000
0100
0010
0100
1000
0001
,
0100
0010
1000
0001
0100
0001
0010
0100
,
1000
0100
0010
0001
0100
0010
1000
0001
,
0100
0001
0010
0100
1000
0010
0100
0001
,
1000
0100
1000
0010
0100
0001
0100
0010
,
1000
0100
0010
0001
1000
0001
0100
0010
,
1000
0001
0100
0010
1000
0100
0010
0001
,
0100
0001
0010
0100
1000
0010
0100
0001
,
1000
0010
1000
0100
0010
0001
0100
0010
,
0100
0001
1000
0100
0010
0100
1000
0001
,
0100
0010
1000
0001
0100
0001
0010
0100
,
1000
0100
0010
0001
0100
0010
1000
0001
,
0100
0001
0010
0100
1000
0010
0100
0001
,
1000
0100
1000
0010
0100
0001
0100
0010
,
1000
0100
0010
0001
1000
0001
0100
0010
,
1000
0001
0100
0010
1000
0100
0010
0001
,
0100
0001
0010
0100
1000
0010
0100
0001
,
1000
0010
1000
0100
0010
0001
0100
0010
,
0100
0001
1000
0100
0010
0100
1000
0001
,
0100
0010
1000
0001
0100
0001
0010
0100
,
1000
0100
0010
0001
0100
0010
1000
0001
,
0100
0001
0010
0100
1000
0010
0100
0001
,
1000
0100
1000
0010
0100
0001
0100
0010
,
1000
0100
0010
0001
1000
0001
0100
0010
,
1000
0001
0100
0010
1000
0100
0010
0001
,
0100
0001
0010
0100
1000
0010
0100
0001
,
1000
0010
1000
0100
0010
0001
0100
0010
,
0100
0001
1000
0100
0010
0100
1000
0001
,
0100
0010
1000
0001
0100
0001
0010
0100
,
1000
0100
0010
0001
0100
0010
1000
0001
,
0100
0001
0010
0100
1000
0010
0100
0001
,
1000
0100
1000
0010
0100
0001
0100
0010
,
1000
0100
0010
0001
1000
0001
0100
0010
,
1000
0001
0100
0010
1000
0100
0010
0001
,
0100
0001
0010
0100
1000
0010
0100
0001
,
1000
0010
1000
0100
0010
0001
0100
0010
,
0100
0001
1000
0100
0010
0100
1000
0001
,
0100
0010
1000
0001
0100
0001
0010
0100
,
1000
0100
0010
0001
0100
0010
1000
0001
,
0100
0001
0010
0100
1000
0010
0100
0001
,
1000
0100
1000
0010
0100
0001
0100
0010
,
1000
0100
0010
0001
1000
0001
0100
0010
,
1000
0001
0100
0010
1000
0100
0010
0001
,
0100
0001
0010
0100
1000
0010
0100
0001
,
1000
0010
1000
0100
0010
0001
0100
0010
,
0100
0001
1000
0100
0010
0100
1000
0001
,
0100
0010
1000
0001
0100
0001
0010
0100
,
1000
0100
0010
0001
0100
0010
1000
0001
,
0100
0001
0010
0100
1000
0010
0100
0001
,
1000
0100
1000
0010
0100
0001
0100
0010
,
1000
0100
0010
0001
1000
0001
0100
0010
,
1000
0001
0100
0010
1000
0100
0010
0001
,
0100
0001
0010
0100
1000
0010
0100
0001
,
1000
0010
1000
0100
0010
0001
0100
0010
,
0100
0001
1000
0100
0010
0100
1000
0001
,
0100
0010
1000
0001
0100
0001
0010
0100
,
1000
0100
0010
0001
0100
0010
1000
0001
,
0100
0001
0010
0100
1000
0010
0100
0001
,
1000
0100
1000
0010
0100
0001
0100
0010
,
1000
0100
0010
0001
1000
0001
0100
0010
,
1000
0001
0100
0010
1000
0100
0010
0001
,
0100
0001
0010
0100
1000
0010
0100
0001
,
1000
0010
1000
0100
0010
0001
0100
0010
,
0100
0001
1000
0100
0010
0100
1000
0001
,
0100
0010
1000
0001
0100
0001
0010
0100
,
1000
0100
0010
0001
0100
0010
1000
0001
,
0100
0001
0010
0100
1000
0010
0100
0001
,
1000
0100
1000
0010
0100
0001
0100
0010
,
1000
0100
0010
0001
1000
0001
0100
0010
,
1000
0001
0100
0010
1000
0100
0010
0001
,
0100
0001
0010
0100
1000
0010
0100
0001
,
1000
0010
1000
0100
0010
0001
0100
0010
,
0100
0001
1000
0100
0010
0100
1000
0001
,
0100
0010
1000
0001
0100
0001
0010
0100
,
1000
0100
0010
0001
0100
0010
1000
0001
,
0100
0001
0010
0100
1000
0010
0100
0001
,
1000
0100
1000
0010
0100
0001
0100
0010
,
1000
0100
0010
0001
1000
0001
0100
0010
,
1000
0001
0100
0010
1000
0100
0010
0001
,
0100
0001
0010
0100
1000
0010
0100
0001
,
1000
0010
1000
0100
0010
0001
0100
0010
,
0100
0001
1000
0100
0010
0100
1000
0001
,
0100
0010
1000
0001
0100
0001
0010
0100
,
1000
0100
0010
0001
0100
0010
1000
0001
,
0100
0001
0010
0100
1000
0010
0100
0001
,
1000
0100
1000
0010
0100
0001
0100
0010
,
1000
0100
0010
0001
1000
0001
0100
0010
,
1000
0001
0100
0010
1000
0100
0010
0001
,
0100
0001
0010
0100
1000
0010
0100
0001
,
1000
0010
1000
0100
0010
0001
0100
0010
,
0100
0001
1000
0100
0010
0100
1000
0001
,
0100
0010
1000
0001
0100
0001
0010
0100
,
1000
0100
0010
0001
0100
0010
1000
0001
,
0100
0001
0010
0100
1000
0010
0100
0001
,
1000
0100
1000
0010
0100
0001
0100
0010
,
1000
0100
0010
0001
1000
0001
0100
0010
,
1000
0001
0100
0010
1000
0100
0010
0001
,
0100
0001
0010
0100
1000
0010
0100
0001
,
1000
0010
1000
0100
0010
0001
0100
0010
,
0100
0001
1000
0100
0010
0100
1000
0001
,
0100
0010
1000
0001
0100
0001
0010
0100
,
1000
0100
0010
0001
0100
0010
1000
0001
,
0100
0001
0010
0100
1000
0010
0100
0001
,
1000
0100
1000
0010
0100
0001
0100
0010
,
1000
0100
0010
0001
1000
0001
0100
0010
,
1000
0001
0100
0010
1000
0100
0010
0001
,
0100
0001
0010
0100
1000
0010
0100
0001
,
1000
0010
1000
0100
0010
0001
0100
0010
,
0100
0001
1000
0100
0010
0100
1000
0001
,
0100
0010
1000
0001
0100
0001
0010
0100
,
1000
0100
0010
0001
0100
0010
1000
0001
,
0100
0001
0010
0100
1000
0010
0100
0001
,
1000
0100
1000
0010
0100
0001
0100
0010
,
1000
0100
0010
0001
1000
0001
0100
0010
,
1000
0001
0100
0010
1000
0100
0010
0001
,
0100
0001
0010
0100
1000
0010
0100
0001
,
1000
0010
1000
0100
0010
0001
0100
0010
,
0100
0001
1000
0100
0010
0100
1000
0001
,
0100
0010
1000
0001
0100
0001
0010
0100
,
1000
0100
0010
0001
0100
0010
1000
0001
,
0100
0001
0010
0100
1000
0010
0100
0001
,
1000
0100
1000
0010
0100
0001
0100
0010
,
1000
0100
0010
0001
1000
0001
0100
0010
,
1000
0001
0100
0010
1000
0100
0010
0001
,
0100
0001
0010
0100
1000
0010
0100
0001
,
1000
0010
1000
0100
0010
0001
0100
0010
,
0100
0001
1000
0100
0010
0100
1000
0001
,
0100
0010
1000
0001
0100
0001
0010
0100
,
1000
0100
0010
0001
0100
0010
1000
0001
,
0100
0001
0010
0100
1000
0010
0100
0001
,
1000
0100
1000
0010
0100
0001
0100
0010
,
1000
0100
0010
0001
1000
0001
0100
0010
,
1000
0100
0010
0001
1000
0001
0100
0010
,
1000
0001
0100
0010
1000
0010
0001
0100
,
0001
0010
0100
1000
0010
0100
0001
0100
,
0010
1000
0100
1000
0010
1000
0100
0010
,
0001
0100
0001
1000
0010
0100
0001
1000
,
0100
0010
0001
1000
0100
0010
0001
0010
,
0100
1000
0001
0010
0100
1000
0010
0100
,
0001
0010
0001
0100
0010
1000
0100
1000
,
0001
1000
0010
0100
0001
0010
0100
1000
,
0100
0010
0001
0100
0001
0010
0100
1000
,
0010
1000
0001
0100
0001
1000
0010
0100
,
1000
0001
0100
0010
1000
0100
0010
0001
,
0100
0001
0010
0100
1000
0010
0100
0001
,
1000
0010
1000
0100
0010
0001
0100
0010
,
0100
0001
1000
0100
0010
0100
1000
0001
,
0100
0010
1000
0001
0100
0001
0010
0100
,
1000
0100
0010
0001
0100
0010
1000
0001
,
0100
0001
0010
0100
1000
0010
0100
0001
,
1000
0100
1000
0010
0100
0001
0100
0010
,
1000
0100
0010
0001
1000
0001
0100
0010
,
1000
0001
0100
0010
1000
0100
0010
0001
,
0100
0001
0010
0100
1000
0010
0100
0001
,
1000
0010
1000
0100
0010
0001
0100
0010
,
0100
0001
1000
0100
0010
0100
1000
0001
,
0100
0010
1000
0001
0100
0001
0010
0100
,
1000
0100
0010
0001
0100
0010
1000
0001
,
0100
0001
0010
0100
1000
0010
0100
0001
,
1000
0100
1000
0010
0100
0001
0100
0010
,
1000
0100
0010
0001
1000
0001
0100
0010
,
1000
0001
0100
0010
1000
0100
0010
0001
,
0100
0001
0010
0100
1000
0010
0100
0001
,
1000
0010
1000
0100
0010
0001
0100
0010
,
0100
0001
1000
0100
0010
0100
1000
0001
,
0100
0010
1000
0001
0100
0001
0010
0100
,
1000
0100
0010
0001
0100
0010
1000
0001
,
0100
0001
0010
0100
1000
0010
0100
0001
,
1000
0100
1000
0010
0100
0001
0100
0010
,
1000
0100
0010
0001
1000
0001
0100
0010
,
1000
0001
0100
0010
1000
0100
0010
0001
,
0100
0001
0010
0100
1000
0010
0100
0001
,
1000
0010
1000
0100
0010
0001
0100
0010
,
0100
0001
1000
0100
0010
0100
1000
0001
,
0100
0010
1000
0001
0100
0001
0010
0100
,
1000
0100
0010
0001
0100
0010
1000
0001
,
0100
0001
0010
0100
1000
0010
0100
0001
,
1000
0100
1000
0010
0100
0001
0100
0010
,
1000
0100
0010
0001
1000
0001
0100
0010
,
1000
0001
0100
0010
1000
0100
0010
0001
,
0100
0001
0010
0100
1000
0010
0100
0001
,
1000
0010
1000
0100
0010
0001
0100
0010
,
0100
0001
1000
0100
0010
0100
1000
0001
,
0100
0010
1000
0001
0100
0001
0010
0100
,
1000
0100
0010
0001
0100
0010
1000
0001
,
0100
0001
0010
0100
1000
0010
0100
0001
,
1000
0100
1000
0010
0100
0001
0100
0010
,
1000
0100
0010
0001
1000
0001
0100
0010
,
1000
0001
0100
0010
1000
0100
0010
0001
,
0100
0001
0010
0100
1000
0010
0100
0001
,
1000
0010
1000
0100
0010
0001
0100
0010
,
0100
0001
1000
0100
0010
0100
1000
0001
,
0100
0010
1000
0001
0100
0001
0010
0100
,
1000
0100
0010
0001
0100
0010
1000
0001
,
0100
0001
0010
0100
1000
0010
0100
0001
,
1000
0100
1000
0010
0100
0001
0100
0010
,
1000
0100
0010
0001
1000
0001
0100
0010
,
1000
0001
0100
0010
1000
0100
0010
0001
,
0100
0001
0010
0100
1000
0010
0100
0001
,
1000
0010
1000
0100
0010
0001
0100
0010
,
0100
0001
1000
0100
0010
0100
1000
0001
,
0100
0010
1000
0001
0100
0001
0010
0100
,
1000
0100
0010
0001
0100
0010
1000
0001
,
0100
0001
0010
0100
1000
0010
0100
0001
,
1000
0100
1000
0010
0100
0001
0100
0010
,
1000
0100
0010
0001
1000
0001
0100
0010
,
1000
0001
0100
0010
1000
0100
0010
0001
,
0100
0001
0010
0100
1000
0010
0100
0001
,
1000
0010
1000
0100
0010
0001
0100
0010
,
0100
0001
1000
0100
0010
0100
1000
0001
,
0100
0010
1000
0001
0100
0001
0010
0100
,
1000
0100
0010
0001
0100
0010
1000
0001
,
0100
0001
0010
0100
1000
0010
0100
0001
,
1000
0100
1000
0010
0100
0001
0100
0010
,
1000
0100
0010
0001
1000
0001
0100
0010
,
1000
0001
0100
0010
1000
0100
0010
0001
,
0100
0001
0010
0100
1000
0010
0100
0001
,
1000
0010
1000
0100
0010
0001
0100
0010
,
0100
0001
1000
0100
0010
0100
1000
0001
,
0100
0010
1000
0001
0100
0001
0010
0100
,
1000
0100
0010
0001
0100
0010
1000
0001
,
0100
0001
0010
0100
1000
0010
0100
0001
,
1000
0100
1000
0010
0100
0001
0100
0010
,
1000
0100
0010
0001
1000
0001
0100
0010
,
1000
0001
0100
0010
1000
0100
0010
0001
,
0100
0001
0010
0100
1000
0010
0100
0001
,
1000
0010
1000
0100
0010
0001
0100
0010
,
0100
0001
1000
0100
0010
0100
1000
0001
,
0100
0010
1000
0001
0100
0001
0010
0100
,
1000
0100
0010
0001
0100
0010
1000
0001
,
0100
0001
0010
0100
1000
0010
0100
0001
,
1000
0100
1000
0010
0100
0001
0100
0010
,
1000
0100
0010
0001
1000
0001
0100
0010
,
1000
0001
0100
0010
1000
0100
0010
0001
,
0100
0001
0010
0100
1000
0010
0100
0001
,
1000
0010
1000
0100
0010
0001
0100
0010
,
0100
0001
1000
0100
0010
0100
1000
0001
,
0100
0010
1000
0001
0100
0001
0010
0100
,
1000
0100
0010
0001
0100
0010
1000
0001
,
0100
0001
0010
0100
1000
0010
0100
0001
,
1000
0100
1000
0010
0100
0001
0100
0010
,
1000
0100
0010
0001
1000
0001
0100
0010
,
1000
0001
0100
0010
1000
0100
0010
0001
,
0100
0001
0010
0100
1000
0010
0100
0001
,
1000
0010
1000
0100
0010
0001
0100
0010
,
0100
0001
1000
0100
0010
0100
1000
0001
,
0100
0010
1000
0001
0100
0001
0010
0100
,
1000
0100
0010
0001
0100
0010
1000
0001
,
0100
0001
0010
0100
1000
0010
0100
0001
,
1000
0100
1000
0010
0100
0001
0100
0010
,
1000
0100
0010
0001
1000
0001
0100
0010
,
1000
0001
0100
0010
1000
0100
0010
0001
,
0100
0001
0010
0100
1000
0010
0100
0001
,
1000
0010
1000
0100
0010
0001
0100
0010
,
0100
0001
1000
0100
0010
0100
1000
0001
,
0100
0010
1000
0001
0100
0001
0010
0100
,
1000
0100
0010
0001
0100
0010
1000
0001
,
0100
0001
0010
0100
1000
0010
0100
0001
,
1000
0100
1000
0010
0100
0001
0100
0010
,
1000
0100
0010
0001
1000
0001
0100
0010
,
1000
0001
0100
0010
1000
0100
0010
0001
,
0100
0001
0010
0100
1000
0010
0100
0001
,
1000
0010
1000
0100
0010
0001
0100
0010
,
0100
0001
1000
0100
0010
0100
1000
0001
,
0100
0010
1000
0001
0100
0001
0010
0100
,
1000
0100
0010
0001
0100
0010
1000
0001
,
0100
0001
0010
0100
1000
0010
0100
0001
,
1000
0100
1000
0010
0100
0001
0100
0010
,
1000
0100
0010
0001
1000
0001
0100
0010
,
1000
0001
0100
0010
1000
0100
0010
0001
,
0100
0001
0010
0100
1000
0010
0100
0001
,
1000
0010
1000
0100
0010
0001
0100
0010
,
0100
0001
1000
0100
0010
0100
1000
0001
,
0100
0010
1000
0001
0100
0001
0010
0100
,
1000
0100
0010
0001
0100
0010
1000
0001
,
0100
0001
0010
0100
1000
0010
0100
0001
,
1000
0100
1000
0010
0100
0001
0100
0010
,
1000
0100
0010
0001
1000
0001
0100
0010
,
1000
0001
0100
0010
1000
0100
0010
0001
,
0100
0001
0010
0100
1000
0010
0100
0001
,
1000
0010
1000
0100
0010
0001
0100
0010
,
0100
0001
1000
0100
0010
0100
1000
0001
,
0100
0010
1000
0001
0100
0001
0010
0100
,
1000
0100
0010
0001
0100
0010
1000
0001
,
0100
0001
0010
0100
1000
0010
0100
0001
,
1000
0100
1000
0010
0100
0001
0100
0010
,
1000
0100
0010
0001
1000
0001
0100
0010
,
1000
0001
0100
0010
1000
0100
0010
0001
,
0100
0001
0010
0100
1000
0010
0100
0001
,
1000
0010
1000
0100
0010
0001
0100
0010
,
0100
0001
1000
0100
0010
0100
1000
0001
,
0100
0010
1000
0001
0100
0001
0010
0100
,
1000
0100
0010
0001
0100
0010
1000
0001
,
0100
0001
0010
0100
1000
0010
0100
0001
,
1000
0100
1000
0010
0100
0001
0100
0010
,
1000
0100
0010
0001
1000
0001
0100
0010
,
1000
0001
0100
0010
1000
0100
0010
0001
,
0100
0001
0010
0100
1000
0010
0100
0001
,
1000
0010
1000
0100
0010
0001
0100
0010
,
0100
0001
1000
0100
0010
0100
1000
0001
,
0100
0010
1000
0001
0100
0001
0010
0100
,
1000
0100
0010
0001
0100
0010
1000
0001
,
0100
0001
0010
0100
1000
0010
0100
0001
,
1000
0100
1000
0010
0100
0001
0100
0010
,
1000
0100
0010
0001
1000
0001
0100
0010
,
1000
0001
0100
0010
1000
0100
0010
0001
,
0100
0001
0010
0100
1000
0010
0100
0001
,
1000
0010
1000
0100
0010
0001
0100
0010
,
0100
0001
1000
0100
0010
0100
1000
0001
,
0100
0010
1000
0001
0100
0001
0010
0100
,
1000
0100
0010
0001
0100
0010
1000
0001
,
0100
0001
0010
0100
1000
0010
0100
0001
,
1000
0100
1000
0010
0100
0001
0100
0010
,
1000
0100
0010
0001
1000
0001
0100
0010
,
1000
0001
0100
0010
1000
0100
0010
0001
,
0100
0001
0010
0100
1000
0010
0100
0001
,
1000
0010
1000
0100
0010
0001
0100
0010
,
0100
0001
1000
0100
0010
0100
1000
0001
,
0100
0010
1000
0001
0100
0001
0010
0100
,
1000
0100
0010
0001
0100
0010
1000
0001
,
0100
0001
0010
0100
1000
0010
0100
0001
,
1000
0100
1000
0010
0100
0001
0100
0010
,
1000
0100
0010
0001
1000
0001
0100
0010
,
1000
0001
0100
0010
1000
0100
0010
0001
,
0100
0001
0010
0100
1000
0010
0100
0001
,
1000
0010
1000
0100
0010
0001
0100
0010
,
0100
0001
1000
0100
0010
0100
1000
0001
,
0100
0010
1000
0001
0100
0001
0010
0100
,
1000
0100
0010
0001
0100
0010
1000
0001
,
0100
0001
0010
0100
1000
0010
0100
0001
,
1000
0100
1000
0010
0100
0001
0100
0010
,
1000
0100
0010
0001
1000
0001
0100
0010
,
1000
0001
0100
0010
1000
0100
0010
0001
,
0100
0001
0010
0100
1000
0010
0100
0001
,
1000
0010
1000
0100
0010
0001
0100
0010
,
0100
0001
1000
0100
0010
0100
1000
0001
,
0100
0010
1000
0001
0100
0001
0010
0100
,
1000
0100
0010
0001
0100
0010
1000
0001
,
0100
0001
0010
0100
1000
0010
0100
0001
,
1000
0100
1000
0010
0100
0001
0100
0010
,
1000
0100
0010
0001
1000
0001
0100
0010
,
1000
0001
0100
0010
1000
0100
0010
0001
,
0100
0001
0010
0100
1000
0010
0100
0001
,
1000
0010
1000
0100
0010
0001
0100
0010
,
0100
0001
1000
0100
0010
0100
1000
0001
,
0100
0010
1000
0001
0100
0001
0010
0100
,
1000
0100
0010
0001
0100
0010
1000
0001
,
0100
0001
0010
0100
1000
0010
0100
0001
,
1000
0100
1000
0010
0100
0001
0100
0010
,
1000
0100
0010
0001
1000
0001
0100
0010
,
1000
0001
0100
0010
1000
0100
0010
0001
,
0100
0001
0010
0100
1000
0010
0100
0001
,
1000
0010
1000
0100
0010
0001
0100
0010
,
0100
0001
1000
0100
0010
0100
1000
0001
,
0100
0010
1000
0001
0100
0001
0010
0100
,
1000
0100
0010
0001
0100
0010
1000
0001
,
0100
0001
0010
0100
1000
0010
0100
0001
,
1000
0100
1000
0010
0100
0001
0100
0010
,
1000
0100
0010
0001
1000
0001
0100
0010
,
1000
0001
0100
0010
1000
0100
0010
0001
,
0100
0001
0010
0100
1000
0010
0100
0001
,
1000
0010
1000
0100
0010
0001
0100
0010
,
0100
0001
1000
0100
0010
0100
1000
0001
,
0100
0010
1000
0001
0100
0001
0010
0100
,
1000
0100
0010
0001
0100
0010
1000
0001
,
0100
0001
0010
0100
1000
0010
0100
0001
,
1000
0100
1000
0010
0100
0001
0100
0010
,
1000
0100
0010
0001
1000
0001
0100
0010
,
1000
0001
0100
0010
1000
0100
0010
0001
,
0100
0001
0010
0100
1000
0010
0100
0001
,
1000
0010
1000
0100
0010
0001
0100
0010
,
0100
0001
1000
0100
0010
0100
1000
0001
,
0100
0010
1000
0001
0100
0001
0010
0100
,
1000
0100
0010
0001
0100
0010
1000
0001
,
0100
0001
0010
0100
1000
0010
0100
0001
,
1000
0100
1000
0010
0100
0001
0100
0010
,
1000
0100
0010
0001
1000
0001
0100
0010
,
1000
0001
0100
0010
1000
0100
0010
0001
,
0100
0001
0010
0100
1000
0010
0100
0001
,
1000
0010
1000
0100
0010
0001
0100
0010
,
0100
0001
1000
0100
0010
0100
1000
0001
,
0100
0010
1000
0001
0100
0001
0010
0100
,
1000
0100
0010
0001
0100
0010
1000
0001
,
0100
0001
0010
0100
1000
0010
0100
0001
,
1000
0100
1000
0010
0100
0001
0100
0010
,
1000
0100
0010
0001
1000
0001
0100
0010
,
1000
0001
0100
0010
1000
0100
0010
0001
,
0100
0001
0010
0100
1000
0010
0100
0001
,
1000
0010
1000
0100
0010
0001
0100
0010
,
0100
0001
1000
0100
0010
0100
1000
0001
,
0100
0010
1000
0001
0100
0001
0010
0100
,
1000
0100
0010
0001
0100
0010
1000
0001
,
0100
0001
0010
0100
1000
0010
0100
0001
,
1000
0100
1000
0010
0100
0001
0100
0010
,
1000
0100
0010
0001
1000
0001
0100
0010
,
1000
0001
0100
0010
1000
0100
0010
0001
,
0100
0001
0010
0100
1000
0010
0100
0001
,
1000
0010
1000
0100
0010
0001
0100
0010
,
0100
0001
1000
0100
0010
0100
1000
0001
,
0100
0010
1000
0001
0100
0001
0010
0100
,
1000
0100
0010
0001
0100
0010
1000
0001
,
0100
0001
0010
0100
1000
0010
0100
0001
,
1000
0100
1000
0010
0100
0001
0100
0010
,
1000
0100
0010
0001
1000
0001
0100
0010
,
1000
0001
0100
0010
1000
0100
0010
0001
,
0100
0001
0010
0100
1000
0010
0100
0001
,
1000
0010
1000
0100
0010
0001
0100
0010
,
0100
0001
1000
0100
0010
0100
1000
0001
,
0100
0010
1000
0001
0100
0001
0010
0100
,
1000
0100
0010
0001
0100
0010
1000
0001
,
0100
0001
0010
0100
1000
0010
0100
0001
,
1000
0100
1000
0010
0100
0001
0100
0010
,
1000
0100
0010
0001
1000
0001
0100
0010
,
1000
0001
0100
0010
1000
0100
0010
0001
,
0100
0001
0010
0100
1000
0010
0100
0001
,
1000
0010
1000
0100
0010
0001
0100
0010
,
0100
0001
1000
0100
0010
0100
1000
0001
,
0100
0010
1000
0001
0100
0001
0010
0100
,
1000
0100
0010
0001
0100
0010
1000
0001
,
0100
0001
0010
0100
1000
0010
0100
0001
,
1000
0100
1000
0010
0100
0001
0100
0010
,
1000
0100
0010
0001
1000
0001
0100
0010
,
1000
0001
0100
0010
1000
0100
0010
0001
,
0100
0001
0010
0100
1000
0010
0100
0001
,
1000
0010
1000
0100
0010
0001
0100
0010
,
0100
0001
1000
0100
0010
0100
1000
0001
,
0100
0010
1000
0001
0100
0001
0010
0100
,
1000
0100
0010
0001
0100
0010
1000
0001
,
0100
0001
0010
0100
1000
0010
0100
0001
,
1000
0100
1000
0010
0100
0001
0100
0010
,
1000
0100
0010
0001
1000
0001
0100
0010
,
1000
0100
0010
0001
1000
0001
0100
0010
,
1000
0001
0100
0010
1000
0010
0001
0100
,
0001
0010
0100
1000
0010
0100
0001
0100
,
0010
1000
0100
1000
0010
1000
0100
0010
,
0001
0100
0001
1000
0010
0100
0001
1000
,
0100
0010
0001
1000
0100
0010
0001
0010
,
0100
1000
0001
0010
0100
1000
0010
0100
,
0001
0010
0001
0100
0010
1000
0100
1000
,
0001
1000
0010
0100
0001
0010
0100
1000
,
0100
0010
0001
0100
0001
0010
0100
1000
,
0010
1000
0001
0100
0001
1000
0010
0100
,
1000
0001
0100
0010
1000
0100
0010
0001
,
0100
0001
0010
0100
1000
0010
0100
0001
,
1000
0010
1000
0100
0010
0001
0100
0010
,
0100
0001
1000
0100
0010
0100
1000
0001
,
0100
0010
1000
0001
0100
0001
0010
0100
,
1000
0100
0010
0001
0100
0010
1000
0001
,
0100
0001
0010
0100
1000
0010
0100
0001
,
1000
0100
1000
0010
0100
0001
0100
0010
,
1000
0100
0010
0001
1000
0001
0100
0010
,
1000
0001
0100
0010
1000
0100
0010
0001
,
0100
0001
0010
0100
1000
0010
0100
0001
,
1000
0010
1000
0100
0010
0001
0100
0010
,
0100
0001
1000
0100
0010
0100
1000
0001
,
0100
0010
1000
0001
0100
0001
0010
0100
,
1000
0100
0010
0001
0100
0010
1000
0001
,
0100
0001
0010
0100
1000
0010
0100
0001
,
1000
0100
1000
0010
0100
0001
0100
0010
,
1000
0100
0010
0001
1000
0001
0100
0010
,
1000
0001
0100
0010
1000
0100
0010
0001
,
0100
0001
0010
0100
1000
0010
0100
0001
,
1000
0010
1000
0100
0010
0001
0100
0010
,
0100
0001
1000
0100
0010
0100
1000
0001
,
0100
0010
1000
0001
0100
0001
0010
0100
,
1000
0100
0010
0001
0100
0010
1000
0001
,
0100
0001
0010
0100
1000
0010
0100
0001
,
1000
0100
1000
0010
0100
0001
0100
0010
,
1000
0100
0010
0001
1000
0001
0100
0010
,
1000
0001
0100
0010
1000
0100
0010
0001
,
0100
0001
0010
0100
1000
0010
0100
0001
,
1000
0010
1000
0100
0010
0001
0100
0010
,
0100
0001
1000
0100
0010
0100
1000
0001
,
0100
0010
1000
0001
0100
0001
0010
0100
,
1000
0100
0010
0001
0100
0010
1000
0001
,
0100
0001
0010
0100
1000
0010
0100
0001
,
1000
0100
1000
0010
0100
0001
0100
0010
,
1000
0100
0010
0001
1000
0001
0100
0010
,
1000
0001
0100
0010
1000
0100
0010
0001
,
0100
0001
0010
0100
1000
0010
0100
0001
,
1000
0010
1000
0100
0010
0001
0100
0010
,
0100
0001
1000
0100
0010
0100
1000
0001
,
0100
0010
1000
0001
0100
0001
0010
0100
,
1000
0100
0010
0001
0100
0010
1000
0001
,
0100
0001
0010
0100
1000
0010
0100
0001
,
1000
0100
1000
0010
0100
0001
0100
0010
,
1000
0100
0010
0001
1000
0001
0100
0010
,
1000
0001
0100
0010
1000
0100
0010
0001
,
0100
0001
0010
0100
1000
0010
0100
0001
,
1000
0010
1000
0100
0010
0001
0100
0010
,
0100
0001
1000
0100
0010
0100
1000
0001
,
0100
0010
1000
0001
0100
0001
0010
0100
,
1000
0100
0010
0001
0100
0010
1000
0001
,
0100
0001
0010
0100
1000
0010
0100
0001
,
1000
0100
1000
0010
0100
0001
0100
0010
,
1000
0100
0010
0001
1000
0001
0100
0010
,
1000
0001
0100
0010
1000
0100
0010
0001
,
0100
0001
0010
0100
1000
0010
0100
0001
,
1000
0010
1000
0100
0010
0001
0100
0010
,
0100
0001
1000
0100
0010
0100
1000
0001
,
0100
0010
1000
0001
0100
0001
0010
0100
,
1000
0100
0010
0001
0100
0010
1000
0001
,
0100
0001
0010
0100
1000
0010
0100
0001
,
1000
0100
1000
0010
0100
0001
0100
0010
,
1000
0100
0010
0001
1000
0001
0100
0010
,
1000
0001
0100
0010
1000
0100
0010
0001
,
0100
0001
0010
0100
1000
0010
0100
0001
,
1000
0010
1000
0100
0010
0001
0100
0010
,
0100
0001
1000
0100
0010
0100
1000
0001
,
0100
0010
1000
0001
0100
0001
0010
0100
,
1000
0100
0010
0001
0100
0010
1000
0001
,
0100
0001
0010
0100
1000
0010
0100
0001
,
1000
0100
1000
0010
0100
0001
0100
0010
,
1000
0100
0010
0001
1000
0001
0100
0010
,
1000
0001
0100
0010
1000
0100
0010
0001
,
0100
0001
0010
0100
1000
0010
0100
0001
,
1000
0010
1000
0100
0010
0001
0100
0010
,
0100
0001
1000
0100
0010
0100
1000
0001
,
0100
0010
1000
0001
0100
0001
0010
0100
,
1000
0100
0010
0001
0100
0010
1000
0001
,
0100
0001
0010
0100
1000
0010
0100
0001
,
1000
0100
1000
0010
0100
0001
0100
0010
,
1000
0100
0010
0001
1000
0001
0100
0010
,
1000
0001
0100
0010
1000
0100
0010
0001
,
0100
0001
0010
0100
1000
0010
0100
0001
,
1000
0010
1000
0100
0010
0001
0100
0010
,
0100
0001
1000
0100
0010
0100
1000
0001
,
0100
0010
1000
0001
0100
0001
0010
0100
,
1000
0100
0010
0001
0100
0010
1000
0001
,
0100
0001
0010
0100
1000
0010
0100
0001
,
1000
0100
1000
0010
0100
0001
0100
0010
,
1000
0100
0010
0001
1000
0001
0100
0010
,
1000
0001
0100
0010
1000
0100
0010
0001
,
0100
0001
0010
0100
1000
0010
0100
0001
,
1000
0010
1000
0100
0010
0001
0100
0010
,
0100
0001
1000
0100
0010
0100
1000
0001
,
0100
0010
1000
0001
0100
0001
0010
0100
,
1000
0100
0010
0001
0100
0010
1000
0001
,
0100
0001
0010
0100
1000
0010
0100
0001
,
1000
0100
1000
0010
0100
0001
0100
0010
,
1000
0100
0010
0001
1000
0001
0100
0010
,
1000
0001
0100
0010
1000
0100
0010
0001
,
0100
0001
0010
0100
1000
0010
0100
0001
,
1000
0010
1000
0100
0010
0001
0100
0010
,
0100
0001
1000
0100
0010
0100
1000
0001
,
0100
0010
1000
0001
0100
0001
0010
0100
,
1000
0100
0010
0001
0100
0010
1000
0001
,
0100
0001
0010
0100
1000
0010
0100
0001
,
1000
0100
1000
0010
0100
0001
0100
0010
,
1000
0100
0010
0001
1000
0001
0100
0010
,
1000
0001
0100
0010
1000
0100
0010
0001
,
0100
0001
0010
0100
1000
0010
0100
0001
,
1000
0010
1000
0100
0010
0001
0100
0010
,
0100
0001
1000
0100
0010
0100
1000
0001
,
0100
0010
1000
0001
0100
0001
0010
0100
,
1000
0100
0010
0001
0100
0010
1000
0001
,
0100
0001
0010
0100
1000
0010
0100
0001
,
1000
0100
1000
0010
0100
0001
0100
0010
,
1000
0100
0010
0001
1000
0001
0100
0010
,
1000
0001
0100
0010
1000
0100
0010
0001
,
0100
0001
0010
0100
1000
0010
0100
0001
,
1000
0010
1000
0100
0010
0001
0100
0010
,
0100
0001
1000
0100
0010
0100
1000
0001
,
0100
0010
1000
0001
0100
0001
0010
0100
,
1000
0100
0010
0001
0100
0010
1000
0001
,
0100
0001
0010
0100
1000
0010
0100
0001
,
1000
0100
1000
0010
0100
0001
0100
0010
,
1000
0100
0010
0001
1000
0001
0100
0010
,
1000
0001
0100
0010
1000
0100
0010
0001
,
0100
0001
0010
0100
1000
0010
0100
0001
,
1000
0010
1000
0100
0010
0001
0100
0010
,
0100
0001
1000
0100
0010
0100
1000
0001
,
0100
0010
1000
0001
0100
0001
0010
0100
,
1000
0100
0010
0001
0100
0010
1000
0001
,
0100
0001
0010
0100
1000
0010
0100
0001
,
1000
0100
1000
0010
0100
0001
0100
0010
,
1000
0100
0010
0001
1000
0001
0100
0010
,
1000
0001
0100
0010
1000
0100
0010
0001
,
0100
0001
0010
0100
1000
0010
0100
0001
,
1000
0010
1000
0100
0010
0001
0100
0010
,
0100
0001
1000
0100
0010
0100
1000
0001
,
0100
0010
1000
0001
0100
0001
0010
0100
,
1000
0100
0010
0001
0100
0010
1000
0001
,
0100
0001
0010
0100
1000
0010
0100
0001
,
1000
0100
1000
0010
0100
0001
0100
0010
,
1000
0100
0010
0001
1000
0001
0100
0010
,
1000
0001
0100
0010
1000
0100
0010
0001
,
0100
0001
0010
0100
1000
0010
0100
0001
,
1000
0010
1000
0100
0010
0001
0100
0010
,
0100
0001
1000
0100
0010
0100
1000
0001
,
0100
0010
1000
0001
0100
0001
0010
0100
,
1000
0100
0010
0001
0100
0010
1000
0001
,
0100
0001
0010
0100
1000
0010
0100
0001
,
1000
0100
1000
0010
0100
0001
0100
0010
,
1000
0100
0010
0001
1000
0001
0100
0010
,
1000
0001
0100
0010
1000
0100
0010
0001
,
0100
0001
0010
0100
1000
0010
0100
0001
,
1000
0010
1000
0100
0010
0001
0100
0010
,
0100
0001
1000
0100
0010
0100
1000
0001
,
0100
0010
1000
0001
0100
0001
0010
0100
,
1000
0100
0010
0001
0100
0010
1000
0001
,
0100
0001
0010
0100
1000
0010
0100
0001
,
1000
0100
1000
0010
0100
0001
0100
0010
,
1000
0100
0010
0001
1000
0001
0100
0010
,
1000
0001
0100
0010
1000
0100
0010
0001
,
0100
0001
0010
0100
1000
0010
0100
0001
,
1000
0010
1000
0100
0010
0001
0100
0010
,
0100
0001
1000
0100
0010
0100
1000
0001
,
0100
0010
1000
0001
0100
0001
0010
0100
,
1000
0100
0010
0001
0100
0010
1000
0001
,
0100
0001
0010
0100
1000
0010
0100
0001
,
1000
0100
1000
0010
0100
0001
0100
0010
,
1000
0100
0010
0001
1000
0001
0100
0010
,
1000
0001
0100
0010
1000
0100
0010
0001
,
0100
0001
0010
0100
1000
0010
0100
0001
,
1000
0010
1000
0100
0010
0001
0100
0010
,
0100
0001
1000
0100
0010
0100
1000
0001
,
0100
0010
1000
0001
0100
0001
0010
0100
,
1000
0100
0010
0001
0100
0010
1000
0001
,
0100
0001
0010
0100
1000
0010
0100
0001
,
1000
0100
1000
0010
0100
0001
0100
0010
,
1000
0100
0010
0001
1000
0001
0100
0010
,
1000
0001
0100
0010
1000
0100
0010
0001
,
0100
0001
0010
0100
1000
0010
0100
0001
,
1000
0010
1000
0100
0010
0001
0100
0010
,
0100
0001
1000
0100
0010
0100
1000
0001
,
0100
0010
1000
0001
0100
0001
0010
0100
,
1000
0100
0010
0001
0100
0010
1000
0001
,
0100
0001
0010
0100
1000
0010
0100
0001
,
1000
0100
1000
0010
0100
0001
0100
0010
,
1000
0100
0010
0001
1000
0001
0100
0010
,
1000
0001
0100
0010
1000
0100
0010
0001
,
0100
0001
0010
0100
1000
0010
0100
0001
,
1000
0010
1000
0100
0010
0001
0100
0010
,
0100
0001
1000
0100
0010
0100
1000
0001
,
0100
0010
1000
0001
0100
0001
0010
0100
,
1000
0100
0010
0001
0100
0010
1000
0001
,
0100
0001
0010
0100
1000
0010
0100
0001
,
1000
0100
1000
0010
0100
0001
0100
0010
,
1000
0100
0010
0001
1000
0001
0100
0010
,
1000
0001
0100
0010
1000
0100
0010
0001
,
0100
0001
0010
0100
1000
0010
0100
0001
,
1000
0010
1000
0100
0010
0001
0100
0010
,
0100
0001
1000
0100
0010
0100
1000
0001
,
0100
0010
1000
0001
0100
0001
0010
0100
,
1000
0100
0010
0001
0100
0010
1000
0001
,
0100
0001
0010
0100
1000
0010
0100
0001
,
1000
0100
1000
0010
0100
0001
0100
0010
,
1000
0100
0010
0001
1000
0001
0100
0010
,
1000
0001
0100
0010
1000
0100
0010
0001
,
0100
0001
0010
0100
1000
0010
0100
0001
,
1000
0010
1000
0100
0010
0001
0100
0010
,
0100
0001
1000
0100
0010
0100
1000
0001
,
0100
0010
1000
0001
0100
0001
0010
0100
,
1000
0100
0010
0001
0100
0010
1000
0001
,
0100
0001
0010
0100
1000
0010
0100
0001
,
1000
0100
1000
0010
0100
0001
0100
0010
,
1000
0100
0010
0001
1000
0001
0100
0010
,
1000
0001
0100
0010
1000
0100
0010
0001
,
0100
0001
0010
0100
1000
0010
0100
0001
,
1000
0010
1000
0100
0010
0001
0100
0010
,
0100
0001
1000
0100
0010
0100
1000
0001
,
0100
0010
1000
0001
0100
0001
0010
0100
,
1000
0100
0010
0001
0100
0010
1000
0001
,
0100
0001
0010
0100
1000
0010
0100
0001
,
1000
0100
1000
0010
0100
0001
0100
0010
,
1000
0100
0010
0001
1000
0001
0100
0010
,
1000
0001
0100
0010
1000
0100
0010
0001
,
0100
0001
0010
0100
1000
0010
0100
0001
,
1000
0010
1000
0100
0010
0001
0100
0010
,
0100
0001
1000
0100
0010
0100
1000
0001
,
0100
0010
1000
0001
0100
0001
0010
0100
,
1000
0100
0010
0001
0100
0010
1000
0001
,
0100
0001
0010
0100
1000
0010
0100
0001
,
1000
0100
1000
0010
0100
0001
0100
0010
,
1000
0100
0010
0001
1000
0001
0100
0010
,
1000
0001
0100
0010
1000
0100
0010
0001
,
0100
0001
0010
0100
1000
0010
0100
0001
,
1000
0010
1000
0100
0010
0001
0100
0010
,
0100
0001
1000
0100
0010
0100
1000
0001
,
0100
0010
1000
0001
0100
0001
0010
0100
,
1000
0100
0010
0001
0100
0010
1000
0001
,
0100
0001
0010
0100
1000
0010
0100
0001
,
1000
0100
1000
0010
0100
0001
0100
0010
,
1000
0100
0010
0001
1000
0001
0100
0010
,
1000
0001
0100
0010
1000
0100
0010
0001
,
0100
0001
0010
0100
1000
0010
0100
0001
,
1000
0010
1000
0100
0010
0001
0100
0010
,
0100
0001
1000
0100
0010
0100
1000
0001
,
0100
0010
1000
0001
0100
0001
0010
0100
,
1000
0100
0010
0001
0100
0010
1000
0001
,
0100
0001
0010
0100
1000
0010
0100
0001
,
1000
0100
1000
0010
0100
0001
0100
0010
,
1000
0100
0010
0001
1000
0001
0100
0010
,
1000
0001
0100
0010
1000
0100
0010
0001
,
0100
0001
0010
0100
1000
0010
0100
0001
,
1000
0010
1000
0100
0010
0001
0100
0010
,
0100
0001
1000
0100
0010
0100
1000
0001
,
0100
0010
1000
0001
0100
0001
0010
0100
,
1000
0100
0010
0001
0100
0010
1000
0001
,
0100
0001
0010
0100
1000
0010
0100
0001
,
1000
0100
1000
0010
0100
0001
0100
0010
,
1000
0100
0010
0001
1000
0001
0100
0010
,
1000
0001
0100
0010
1000
0100
0010
0001
,
0100
0001
0010
0100
1000
0010
0100
0001
,
1000
0010
1000
0100
0010
0001
0100
0010
,
0100
0001
1000
0100
0010
0100
1000
0001
,
0100
0010
1000
0001
0100
0001
0010
0100
,
1000
0100
0010
0001
0100
0010
1000
0001
,
0100
0001
0010
0100
1000
0010
0100
0001
,
1000
0100
1000
0010
0100
0001
0100
0010
,
1000
0100
0010
0001
1000
0001
0100
0010
,
1000
0001
0100
0010
1000
0100
0010
0001
,
0100
0001
0010
0100
1000
0010
0100
0001
,
1000
0010
1000
0100
0010
0001
0100
0010
,
0100
0001
1000
0100
0010
0100
1000
0001
,
0100
0010
1000
0001
0100
0001
0010
0100
,
1000
0100
0010
0001
0100
0010
1000
0001
,
0100
0001
0010
0100
1000
0010
0100
0001
,
1000
0100
1000
0010
0100
0001
0100
0010
,
1000
0100
0010
0001
1000
0001
0100
0010
,
1000
0001
0100
0010
1000
0100
0010
0001
,
0100
0001
0010
0100
1000
0010
0100
0001
,
1000
0010
1000
0100
0010
0001
0100
0010
,
0100
0001
1000
0100
0010
0100
1000
0001
,
0100
0010
1000
0001
0100
0001
0010
0100
,
1000
0100
0010
0001
0100
0010
1000
0001
,
0100
0001
0010
0100
1000
0010
0100
0001
,
1000
0100
1000
0010
0100
0001
0100
0010
,
1000
0100
0010
0001
1000
0001
0100
0010
,
1000
0100
0010
0001
1000
0001
0100
0010
,
1000
0001
0100
0010
1000
0010
0001
0100
,
0001
0010
0100
1000
0010
0100
0001
0100
,
0010
1000
0100
1000
0010
1000
0100
0010
,
0001
0100
0001
1000
0010
0100
0001
1000
,
0100
0010
0001
1000
0100
0010
0001
0010
,
0100
1000
0001
0010
0100
1000
0010
0100
,
0001
0010
0001
0100
0010
1000
0100
1000
,
0001
1000
0010
0100
0001
0010
0100
1000
,
0100
0010
0001
0100
0001
0010
0100
1000
,
0010
1000
0001
0100
0001
1000
0010
0100
,
1000
0001
0100
0010
1000
0100
0010
0001
,
0100
0001
0010
0100
1000
0010
0100
0001
,
1000
0010
1000
0100
0010
0001
0100
0010
,
0100
0001
1000
0100
0010
0100
1000
0001
,
0100
0010
1000
0001
0100
0001
0010
0100
,
1000
0100
0010
0001
0100
0010
1000
0001
,
0100
0001
0010
0100
1000
0010
0100
0001
,
1000
0100
1000
0010
0100
0001
0100
0010
,
1000
0100
0010
0001
1000
0001
0100
0010
,
1000
0001
0100
0010
1000
0100
0010
0001
,
0100
0001
0010
0100
1000
0010
0100
0001
,
1000
0010
1000
0100
0010
0001
0100
0010
,
0100
0001
1000
0100
0010
0100
1000
0001
,
0100
0010
1000
0001
0100
0001
0010
0100
,
1000
0100
0010
0001
0100
0010
1000
0001
,
0100
0001
0010
0100
1000
0010
0100
0001
,
1000
0100
1000
0010
0100
0001
0100
0010
,
1000
0100
0010
0001
1000
0001
0100
0010
,
1000
0001
0100
0010
1000
0100
0010
0001
,
0100
0001
0010
0100
1000
0010
0100
0001
,
1000
0010
1000
0100
0010
0001
0100
0010
,
0100
0001
1000
0100
0010
0100
1000
0001
,
0100
0010
1000
0001
0100
0001
0010
0100
,
1000
0100
0010
0001
0100
0010
1000
0001
,
0100
0001
0010
0100
1000
0010
0100
0001
,
1000
0100
1000
0010
0100
0001
0100
0010
,
1000
0100
0010
0001
1000
0001
0100
0010
,
1000
0001
0100
0010
1000
0100
0010
0001
,
0100
0001
0010
0100
1000
0010
0100
0001
,
1000
0010
1000
0100
0010
0001
0100
0010
,
0100
0001
1000
0100
0010
0100
1000
0001
,
0100
0010
1000
0001
0100
0001
0010
0100
,
1000
0100
0010
0001
0100
0010
1000
0001
,
0100
0001
0010
0100
1000
0010
0100
0001
,
1000
0100
1000
0010
0100
0001
0100
0010
,
1000
0100
0010
0001
1000
0001
0100
0010
,
1000
0001
0100
0010
1000
0100
0010
0001
,
0100
0001
0010
0100
1000
0010
0100
0001
,
1000
0010
1000
0100
0010
0001
0100
0010
,
0100
0001
1000
0100
0010
0100
1000
0001
,
0100
0010
1000
0001
0100
0001
0010
0100
,
1000
0100
0010
0001
0100
0010
1000
0001
,
0100
0001
0010
0100
1000
0010
0100
0001
,
1000
0100
1000
0010
0100
0001
0100
0010
,
1000
0100
0010
0001
1000
0001
0100
0010
,
1000
0001
0100
0010
1000
0100
0010
0001
,
0100
0001
0010
0100
1000
0010
0100
0001
,
1000
0010
1000
0100
0010
0001
0100
0010
,
0100
0001
1000
0100
0010
0100
1000
0001
,
0100
0010
1000
0001
0100
0001
0010
0100
,
1000
0100
0010
0001
0100
0010
1000
0001
,
0100
0001
0010
0100
1000
0010
0100
0001
,
1000
0100
1000
0010
0100
0001
0100
0010
,
1000
0100
0010
0001
1000
0001
0100
0010
,
1000
0001
0100
0010
1000
0100
0010
0001
,
0100
0001
0010
0100
1000
0010
0100
0001
,
1000
0010
1000
0100
0010
0001
0100
0010
,
0100
0001
1000
0100
0010
0100
1000
0001
,
0100
0010
1000
0001
0100
0001
0010
0100
,
1000
0100
0010
0001
0100
0010
1000
0001
,
0100
0001
0010
0100
1000
0010
0100
0001
,
1000
0100
1000
0010
0100
0001
0100
0010
,
1000
0100
0010
0001
1000
0001
0100
0010
,
1000
0001
0100
0010
1000
0100
0010
0001
,
0100
0001
0010
0100
1000
0010
0100
0001
,
1000
0010
1000
0100
0010
0001
0100
0010
,
0100
0001
1000
0100
0010
0100
1000
0001
,
0100
0010
1000
0001
0100
0001
0010
0100
,
1000
0100
0010
0001
0100
0010
1000
0001
,
0100
0001
0010
0100
1000
0010
0100
0001
,
1000
0100
1000
0010
0100
0001
0100
0010
,
1000
0100
0010
0001
1000
0001
0100
0010
,
1000
0001
0100
0010
1000
0100
0010
0001
,
0100
0001
0010
0100
1000
0010
0100
0001
,
1000
0010
1000
0100
0010
0001
0100
0010
,
0100
0001
1000
0100
0010
0100
1000
0001
,
0100
0010
1000
0001
0100
0001
0010
0100
,
1000
0100
0010
0001
0100
0010
1000
0001
,
0100
0001
0010
0100
1000
0010
0100
0001
,
1000
0100
1000
0010
0100
0001
0100
0010
,
1000
0100
0010
0001
1000
0001
0100
0010
,
1000
0001
0100
0010
1000
0100
0010
0001
,
0100
0001
0010
0100
1000
0010
0100
0001
,
1000
0010
1000
0100
0010
0001
0100
0010
,
0100
0001
1000
0100
0010
0100
1000
0001
,
0100
0010
1000
0001
0100
0001
0010
0100
,
1000
0100
0010
0001
0100
0010
1000
0001
,
0100
0001
0010
0100
1000
0010
0100
0001
,
1000
0100
1000
0010
0100
0001
0100
0010
,
1000
0100
0010
0001
1000
0001
0100
0010
,
1000
0001
0100
0010
1000
0100
0010
0001
,
0100
0001
0010
0100
1000
0010
0100
0001
,
1000
0010
1000
0100
0010
0001
0100
0010
,
0100
0001
1000
0100
0010
0100
1000
0001
,
0100
0010
1000
0001
0100
0001
0010
0100
,
1000
0100
0010
0001
0100
0010
1000
0001
,
0100
0001
0010
0100
1000
0010
0100
0001
,
1000
0100
1000
0010
0100
0001
0100
0010
,
1000
0100
0010
0001
1000
0001
0100
0010
,
1000
0001
0100
0010
1000
0100
0010
0001
,
0100
0001
0010
0100
1000
0010
0100
0001
,
1000
0010
1000
0100
0010
0001
0100
0010
,
0100
0001
1000
0100
0010
0100
1000
0001
,
0100
0010
1000
0001
0100
0001
0010
0100
,
1000
0100
0010
0001
0100
0010
1000
0001
,
0100
0001
0010
0100
1000
0010
0100
0001
,
1000
0100
1000
0010
0100
0001
0100
0010
,
1000
0100
0010
0001
1000
0001
0100
0010
,
1000
0001
0100
0010
1000
0100
0010
0001
,
0100
0001
0010
0100
1000
0010
0100
0001
,
1000
0010
1000
0100
0010
0001
0100
0010
,
0100
0001
1000
0100
0010
0100
1000
0001
,
0100
0010
1000
0001
0100
0001
0010
0100
,
1000
0100
0010
0001
0100
0010
1000
0001
,
0100
0001
0010
0100
1000
0010
0100
0001
,
1000
0100
1000
0010
0100
0001
0100
0010
,
1000
0100
0010
0001
1000
0001
0100
0010
,
1000
0001
0100
0010
1000
0100
0010
0001
,
0100
0001
0010
0100
1000
0010
0100
0001
,
1000
0010
1000
0100
0010
0001
0100
0010
,
0100
0001
1000
0100
0010
0100
1000
0001
,
0100
0010
1000
0001
0100
0001
0010
0100
,
1000
0100
0010
0001
0100
0010
1000
0001
,
0100
0001
0010
0100
1000
0010
0100
0001
,
1000
0100
1000
0010
0100
0001
0100
0010
,
1000
0100
0010
0001
1000
0001
0100
0010
,
1000
0001
0100
0010
1000
0100
0010
0001
,
0100
0001
0010
0100
1000
0010
0100
0001
,
1000
0010
1000
0100
0010
0001
0100
0010
,
0100
0001
1000
0100
0010
0100
1000
0001
,
0100
0010
1000
0001
0100
0001
0010
0100
,
1000
0100
0010
0001
0100
0010
1000
0001
,
0100
0001
0010
0100
1000
0010
0100
0001
,
1000
0100
1000
0010
0100
0001
0100
0010
,
1000
0100
0010
0001
1000
0001
0100
0010
,
1000
0001
0100
0010
1000
0100
0010
0001
,
0100
0001
0010
0100
1000
0010
0100
0001
,
1000
0010
1000
0100
0010
0001
0100
0010
,
0100
0001
1000
0100
0010
0100
1000
0001
,
0100
0010
1000
0001
0100
0001
0010
0100
,
1000
0100
0010
0001
0100
0010
1000
0001
,
0100
0001
0010
0100
1000
0010
0100
0001
,
1000
0100
1000
0010
0100
0001
0100
0010
,
1000
0100
0010
0001
1000
0001
0100
0010
,
1000
0001
0100
0010
1000
0100
0010
0001
,
0100
0001
0010
0100
1000
0010
0100
0001
,
1000
0010
1000
0100
0010
0001
0100
0010
,
0100
0001
1000
0100
0010
0100
1000
0001
,
0100
0010
1000
0001
0100
0001
0010
0100
,
1000
0100
0010
0001
0100
0010
1000
0001
,
0100
0001
0010
0100
1000
0010
0100
0001
,
1000
0100
1000
0010
0100
0001
0100
0010
,
1000
0100
0010
0001
1000
0001
0100
0010
,
1000
0001
0100
0010
1000
0100
0010
0001
,
0100
0001
0010
0100
1000
0010
0100
0001
,
1000
0010
1000
0100
0010
0001
0100
0010
,
0100
0001
1000
0100
0010
0100
1000
0001
,
0100
0010
1000
0001
0100
0001
0010
0100
,
1000
0100
0010
0001
0100
0010
1000
0001
,
0100
0001
0010
0100
1000
0010
0100
0001
,
1000
0100
1000
0010
0100
0001
0100
0010
,
1000
0100
0010
0001
1000
0001
0100
0010
,
1000
0001
0100
0010
1000
0100
0010
0001
,
0100
0001
0010
0100
1000
0010
0100
0001
,
1000
0010
1000
0100
0010
0001
0100
0010
,
0100
0001
1000
0100
0010
0100
1000
0001
,
0100
0010
1000
0001
0100
0001
0010
0100
,
1000
0100
0010
0001
0100
0010
1000
0001
,
0100
0001
0010
0100
1000
0010
0100
0001
,
1000
0100
1000
0010
0100
0001
0100
0010
,
1000
0100
0010
0001
1000
0001
0100
0010
,
1000
0001
0100
0010
1000
0100
0010
0001
,
0100
0001
0010
0100
1000
0010
0100
0001
,
1000
0010
1000
0100
0010
0001
0100
0010
,
0100
0001
1000
0100
0010
0100
1000
0001
,
0100
0010
1000
0001
0100
0001
0010
0100
,
1000
0100
0010
0001
0100
0010
1000
0001
,
0100
0001
0010
0100
1000
0010
0100
0001
,
1000
0100
1000
0010
0100
0001
0100
0010
,
1000
0100
0010
0001
1000
0001
0100
0010
,
1000
0001
0100
0010
1000
0100
0010
0001
,
0100
0001
0010
0100
1000
0010
0100
0001
,
1000
0010
1000
0100
0010
0001
0100
0010
,
0100
0001
1000
0100
0010
0100
1000
0001
,
0100
0010
1000
0001
0100
0001
0010
0100
,
1000
0100
0010
0001
0100
0010
1000
0001
,
0100
0001
0010
0100
1000
0010
0100
0001
,
1000
0100
1000
0010
0100
0001
0100
0010
,
1000
0100
0010
0001
1000
0001
0100
0010
,
1000
0001
0100
0010
1000
0100
0010
0001
,
0100
0001
0010
0100
1000
0010
0100
0001
,
1000
0010
1000
0100
0010
0001
0100
0010
,
0100
0001
1000
0100
0010
0100
1000
0001
,
0100
0010
1000
0001
0100
0001
0010
0100
,
1000
0100
0010
0001
0100
0010
1000
0001
,
0100
0001
0010
0100
1000
0010
0100
0001
,
1000
0100
1000
0010
0100
0001
0100
0010
,
1000
0100
0010
0001
1000
0001
0100
0010
,
1000
0001
0100
0010
1000
0100
0010
0001
,
0100
0001
0010
0100
1000
0010
0100
0001
,
1000
0010
1000
0100
0010
0001
0100
0010
,
0100
0001
1000
0100
0010
0100
1000
0001
,
0100
0010
1000
0001
0100
0001
0010
0100
,
1000
0100
0010
0001
0100
0010
1000
0001
,
0100
0001
0010
0100
1000
0010
0100
0001
,
1000
0100
1000
0010
0100
0001
0100
0010
,
1000
0100
0010
0001
1000
0001
0100
0010
,
1000
0001
0100
0010
1000
0100
0010
0001
,
0100
0001
0010
0100
1000
0010
0100
0001
,
1000
0010
1000
0100
0010
0001
0100
0010
,
0100
0001
1000
0100
0010
0100
1000
0001
,
0100
0010
1000
0001
0100
0001
0010
0100
,
1000
0100
0010
0001
0100
0010
1000
0001
,
0100
0001
0010
0100
1000
0010
0100
0001
,
1000
0100
1000
0010
0100
0001
0100
0010
,
1000
0100
0010
0001
1000
0001
0100
0010
,
1000
0001
0100
0010
1000
0100
0010
0001
,
0100
0001
0010
0100
1000
0010
0100
0001
,
1000
0010
1000
0100
0010
0001
0100
0010
,
0100
0001
1000
0100
0010
0100
1000
0001
,
0100
0010
1000
0001
0100
0001
0010
0100
,
1000
0100
0010
0001
0100
0010
1000
0001
,
0100
0001
0010
0100
1000
0010
0100
0001
,
1000
0100
1000
0010
0100
0001
0100
0010
,
1000
0100
0010
0001
1000
0001
0100
0010
,
1000
0001
0100
0010
1000
0100
0010
0001
,
0100
0001
0010
0100
1000
0010
0100
0001
,
1000
0010
1000
0100
0010
0001
0100
0010
,
0100
0001
1000
0100
0010
0100
1000
0001
,
0100
0010
1000
0001
0100
0001
0010
0100
,
1000
0100
0010
0001
0100
0010
1000
0001
,
0100
0001
0010
0100
1000
0010
0100
0001
,
1000
0100
1000
0010
0100
0001
0100
0010
,
1000
0100
0010
0001
1000
0001
0100
0010
,
1000
0001
0100
0010
1000
0100
0010
0001
,
0100
0001
0010
0100
1000
0010
0100
0001
,
1000
0010
1000
0100
0010
0001
0100
0010
,
0100
0001
1000
0100
0010
0100
1000
0001
,
0100
0010
1000
0001
0100
0001
0010
0100
,
1000
0100
0010
0001
0100
0010
1000
0001
,
0100
0001
0010
0100
1000
0010
0100
0001
,
1000
0100
1000
0010
0100
0001
0100
0010
,
1000
0100
0010
0001
1000
0001
0100
0010
,
1000
0001
0100
0010
1000
0100
0010
0001
,
0100
0001
0010
0100
1000
0010
0100
0001
,
1000
0010
1000
0100
0010
0001
0100
0010
,
0100
0001
1000
0100
0010
0100
1000
0001
,
0100
0010
1000
0001
0100
0001
0010
0100
,
1000
0100
0010
0001
0100
0010
1000
0001
,
0100
0001
0010
0100
1000
0010
0100
0001
,
1000
0100
1000
0010
0100
0001
0100
0010
,
1000
0100
0010
0001
1000
0001
0100
0010
,
1000
0001
0100
0010
1000
0100
0010
0001
,
0100
0001
0010
0100
1000
0010
0100
0001
,
1000
0010
1000
0100
0010
0001
0100
0010
,
0100
0001
1000
0100
0010
0100
1000
0001
,
0100
0010
1000
0001
0100
0001
0010
0100
,
1000
0100
0010
0001
0100
0010
1000
0001
,
0100
0001
0010
0100
1000
0010
0100
0001
,
1000
0100
1000
0010
0100
0001
0100
0010
,
1000
0100
0010
0001
1000
0001
0100
0010
,
1000
0001
0100
0010
1000
0100
0010
0001
,
0100
0001
0010
0100
1000
0010
0100
0001
,
1000
0010
1000
0100
0010
0001
0100
0010
,
0100
0001
1000
0100
0010
0100
1000
0001
,
0100
0010
1000
0001
0100
0001
0010
0100
,
1000
0100
0010
0001
0100
0010
1000
0001
,
0100
0001
0010
0100
1000
0010
0100
0001
,
1000
0100
1000
0010
0100
0001
0100
0010
,
1000
0100
0010
0001
1000
0001
0100
0010
,
1000
0001
0100
0010
1000
0100
0010
0001
,
0100
0001
0010
0100
1000
0010
0100
0001
,
1000
0010
1000
0100
0010
0001
0100
0010
,
0100
0001
1000
0100
0010
0100
1000
0001
,
0100
0010
1000
0001
0100
0001
0010
0100
,
1000
0100
0010
0001
0100
0010
1000
0001
,
0100
0001
0010
0100
1000
0010
0100
0001
,
1000
0100
1000
0010
0100
0001
0100
0010
,
1000
0100
0010
0001
1000
0001
0100
0010
,
1000
0001
0100
0010
1000
0100
0010
0001
,
0100
0001
0010
0100
1000
0010
0100
0001
,
1000
0010
1000
0100
0010
0001
0100
0010
,
0100
0001
1000
0100
0010
0100
1000
0001
,
0100
0010
1000
0001
0100
0001
0010
0100
,
1000
0100
0010
0001
0100
0010
1000
0001
,
0100
0001
0010
0100
1000
0010
0100
0001
,
1000
0100
1000
0010
0100
0001
0100
0010
,
1000
0100
0010
0001
1000
0001
0100
0010
,
1000
0100
0010
0001
1000
0001
0100
0010
,
1000
0001
0100
0010
1000
0010
0001
0100
,
0001
0010
0100
1000
0010
0100
0001
0100
,
0010
1000
0100
1000
0010
1000
0100
0010
,
0001
0100
0001
1000
0010
0100
0001
1000
,
0100
0010
0001
1000
0100
0010
0001
0010
,
0100
1000
0001
0010
0100
1000
0010
0100
,
0001
0010
0001
0100
0010
1000
0100
1000
,
0001
1000
0010
0100
0001
0010
0100
1000
,
0100
0010
0001
0100
0001
0010
0100
1000
,
0010
1000
0001
0100
0001
1000
0010
0100
,
1000
0001
0100
0010
1000
0100
0010
0001
,
0100
0001
0010
0100
1000
0010
0100
0001
,
1000
0010
1000
0100
0010
0001
0100
0010
,
0100
0001
1000
0100
0010
0100
1000
0001
,
0100
0010
1000
0001
0100
0001
0010
0100
,
1000
0100
0010
0001
0100
0010
1000
0001
,
0100
0001
0010
0100
1000
0010
0100
0001
,
1000
0100
1000
0010
0100
0001
0100
0010
,
1000
0100
0010
0001
1000
0001
0100
0010
,
1000
0001
0100
0010
1000
0100
0010
0001
,
0100
0001
0010
0100
1000
0010
0100
0001
,
1000
0010
1000
0100
0010
0001
0100
0010
,
0100
0001
1000
0100
0010
0100
1000
0001
,
0100
0010
1000
0001
0100
0001
0010
0100
,
1000
0100
0010
0001
0100
0010
1000
0001
,
0100
0001
0010
0100
1000
0010
0100
0001
,
1000
0100
1000
0010
0100
0001
0100
0010
,
1000
0100
0010
0001
1000
0001
0100
0010
,
1000
0001
0100
0010
1000
0100
0010
0001
,
0100
0001
0010
0100
1000
0010
0100
0001
,
1000
0010
1000
0100
0010
0001
0100
0010
,
0100
0001
1000
0100
0010
0100
1000
0001
,
0100
0010
1000
0001
0100
0001
0010
0100
,
1000
0100
0010
0001
0100
0010
1000
0001
,
0100
0001
0010
0100
1000
0010
0100
0001
,
1000
0100
1000
0010
0100
0001
0100
0010
,
1000
0100
0010
0001
1000
0001
0100
0010
,
1000
0001
0100
0010
1000
0100
0010
0001
,
0100
0001
0010
0100
1000
0010
0100
0001
,
1000
0010
1000
0100
0010
0001
0100
0010
,
0100
0001
1000
0100
0010
0100
1000
0001
,
0100
0010
1000
0001
0100
0001
0010
0100
,
1000
0100
0010
0001
0100
0010
1000
0001
,
0100
0001
0010
0100
1000
0010
0100
0001
,
1000
0100
1000
0010
0100
0001
0100
0010
,
1000
0100
0010
0001
1000
0001
0100
0010
,
1000
0001
0100
0010
1000
0100
0010
0001
,
0100
0001
0010
0100
1000
0010
0100
0001
,
1000
0010
1000
0100
0010
0001
0100
0010
,
0100
0001
1000
0100
0010
0100
1000
0001
,
0100
0010
1000
0001
0100
0001
0010
0100
,
1000
0100
0010
0001
0100
0010
1000
0001
,
0100
0001
0010
0100
1000
0010
0100
0001
,
1000
0100
1000
0010
0100
0001
0100
0010
,
1000
0100
0010
0001
1000
0001
0100
0010
,
1000
0001
0100
0010
1000
0100
0010
0001
,
0100
0001
0010
0100
1000
0010
0100
0001
,
1000
0010
1000
0100
0010
0001
0100
0010
,
0100
0001
1000
0100
0010
0100
1000
0001
,
0100
0010
1000
0001
0100
0001
0010
0100
,
1000
0100
0010
0001
0100
0010
1000
0001
,
0100
0001
0010
0100
1000
0010
0100
0001
,
1000
0100
1000
0010
0100
0001
0100
0010
,
1000
0100
0010
0001
1000
0001
0100
0010
,
1000
0001
0100
0010
1000
0100
0010
0001
,
0100
0001
0010
0100
1000
0010
0100
0001
,
1000
0010
1000
0100
0010
0001
0100
0010
,
0100
0001
1000
0100
0010
0100
1000
0001
,
0100
0010
1000
0001
0100
0001
0010
0100
,
1000
0100
0010
0001
0100
0010
1000
0001
,
0100
0001
0010
0100
1000
0010
0100
0001
,
1000
0100
1000
0010
0100
0001
0100
0010
,
1000
0100
0010
0001
1000
0001
0100
0010
,
1000
0001
0100
0010
1000
0100
0010
0001
,
0100
0001
0010
0100
1000
0010
0100
0001
,
1000
0010
1000
0100
0010
0001
0100
0010
,
0100
0001
1000
0100
0010
0100
1000
0001
,
0100
0010
1000
0001
0100
0001
0010
0100
,
1000
0100
0010
0001
0100
0010
1000
0001
,
0100
0001
0010
0100
1000
0010
0100
0001
,
1000
0100
1000
0010
0100
0001
0100
0010
,
1000
0100
0010
0001
1000
0001
0100
0010
,
1000
0001
0100
0010
1000
0100
0010
0001
,
0100
0001
0010
0100
1000
0010
0100
0001
,
1000
0010
1000
0100
0010
0001
0100
0010
,
0100
0001
1000
0100
0010
0100
1000
0001
,
0100
0010
1000
0001
0100
0001
0010
0100
,
1000
0100
0010
0001
0100
0010
1000
0001
,
0100
0001
0010
0100
1000
0010
0100
0001
,
1000
0100
1000
0010
0100
0001
0100
0010
,
1000
0100
0010
0001
1000
0001
0100
0010
,
1000
0001
0100
0010
1000
0100
0010
0001
,
0100
0001
0010
0100
1000
0010
0100
0001
,
1000
0010
1000
0100
0010
0001
0100
0010
,
0100
0001
1000
0100
0010
0100
1000
0001
,
0100
0010
1000
0001
0100
0001
0010
0100
,
1000
0100
0010
0001
0100
0010
1000
0001
,
0100
0001
0010
0100
1000
0010
0100
0001
,
1000
0100
1000
0010
0100
0001
0100
0010
,
1000
0100
0010
0001
1000
0001
0100
0010
,
1000
0001
0100
0010
1000
0100
0010
0001
,
0100
0001
0010
0100
1000
0010
0100
0001
,
1000
0010
1000
0100
0010
0001
0100
0010
,
0100
0001
1000
0100
0010
0100
1000
0001
,
0100
0010
1000
0001
0100
0001
0010
0100
,
1000
0100
0010
0001
0100
0010
1000
0001
,
0100
0001
0010
0100
1000
0010
0100
0001
,
1000
0100
1000
0010
0100
0001
0100
0010
,
1000
0100
0010
0001
1000
0001
0100
0010
,
1000
0001
0100
0010
1000
0100
0010
0001
,
0100
0001
0010
0100
1000
0010
0100
0001
,
1000
0010
1000
0100
0010
0001
0100
0010
,
0100
0001
1000
0100
0010
0100
1000
0001
,
0100
0010
1000
0001
0100
0001
0010
0100
,
1000
0100
0010
0001
0100
0010
1000
0001
,
0100
0001
0010
0100
1000
0010
0100
0001
,
1000
0100
1000
0010
0100
0001
0100
0010
,
1000
0100
0010
0001
1000
0001
0100
0010
,
1000
0001
0100
0010
1000
0100
0010
0001
,
0100
0001
0010
0100
1000
0010
0100
0001
,
1000
0010
1000
0100
0010
0001
0100
0010
,
0100
0001
1000
0100
0010
0100
1000
0001
,
0100
0010
1000
0001
0100
0001
0010
0100
,
1000
0100
0010
0001
0100
0010
1000
0001
,
0100
0001
0010
0100
1000
0010
0100
0001
,
1000
0100
1000
0010
0100
0001
0100
0010
,
1000
0100
0010
0001
1000
0001
0100
0010
,
1000
0001
0100
0010
1000
0100
0010
0001
,
0100
0001
0010
0100
1000
0010
0100
0001
,
1000
0010
1000
0100
0010
0001
0100
0010
,
0100
0001
1000
0100
0010
0100
1000
0001
,
0100
0010
1000
0001
0100
0001
0010
0100
,
1000
0100
0010
0001
0100
0010
1000
0001
,
0100
0001
0010
0100
1000
0010
0100
0001
,
1000
0100
1000
0010
0100
0001
0100
0010
,
1000
0100
0010
0001
1000
0001
0100
0010
,
1000
0001
0100
0010
1000
0100
0010
0001
,
0100
0001
0010
0100
1000
0010
0100
0001
,
1000
0010
1000
0100
0010
0001
0100
0010
,
0100
0001
1000
0100
0010
0100
1000
0001
,
0100
0010
1000
0001
0100
0001
0010
0100
,
1000
0100
0010
0001
0100
0010
1000
0001
,
0100
0001
0010
0100
1000
0010
0100
0001
,
1000
0100
1000
0010
0100
0001
0100
0010
,
1000
0100
0010
0001
1000
0001
0100
0010
,
1000
0001
0100
0010
1000
0100
0010
0001
,
0100
0001
0010
0100
1000
0010
0100
0001
,
1000
0010
1000
0100
0010
0001
0100
0010
,
0100
0001
1000
0100
0010
0100
1000
0001
,
0100
0010
1000
0001
0100
0001
0010
0100
,
1000
0100
0010
0001
0100
0010
1000
0001
,
0100
0001
0010
0100
1000
0010
0100
0001
,
1000
0100
1000
0010
0100
0001
0100
0010
,
1000
0100
0010
0001
1000
0001
0100
0010
,
1000
0001
0100
0010
1000
0100
0010
0001
,
0100
0001
0010
0100
1000
0010
0100
0001
,
1000
0010
1000
0100
0010
0001
0100
0010
,
0100
0001
1000
0100
0010
0100
1000
0001
,
0100
0010
1000
0001
0100
0001
0010
0100
,
1000
0100
0010
0001
0100
0010
1000
0001
,
0100
0001
0010
0100
1000
0010
0100
0001
,
1000
0100
1000
0010
0100
0001
0100
0010
,
1000
0100
0010
0001
1000
0001
0100
0010
,
1000
0001
0100
0010
1000
0100
0010
0001
,
0100
0001
0010
0100
1000
0010
0100
0001
,
1000
0010
1000
0100
0010
0001
0100
0010
,
0100
0001
1000
0100
0010
0100
1000
0001
,
0100
0010
1000
0001
0100
0001
0010
0100
,
1000
0100
0010
0001
0100
0010
1000
0001
,
0100
0001
0010
0100
1000
0010
0100
0001
,
1000
0100
1000
0010
0100
0001
0100
0010
,
1000
0100
0010
0001
1000
0001
0100
0010
,
1000
0001
0100
0010
1000
0100
0010
0001
,
0100
0001
0010
0100
1000
0010
0100
0001
,
1000
0010
1000
0100
0010
0001
0100
0010
,
0100
0001
1000
0100
0010
0100
1000
0001
,
0100
0010
1000
0001
0100
0001
0010
0100
,
1000
0100
0010
0001
0100
0010
1000
0001
,
0100
0001
0010
0100
1000
0010
0100
0001
,
1000
0100
1000
0010
0100
0001
0100
0010
,
1000
0100
0010
0001
1000
0001
0100
0010
,
1000
0001
0100
0010
1000
0100
0010
0001
,
0100
0001
0010
0100
1000
0010
0100
0001
,
1000
0010
1000
0100
0010
0001
0100
0010
,
0100
0001
1000
0100
0010
0100
1000
0001
,
0100
0010
1000
0001
0100
0001
0010
0100
,
1000
0100
0010
0001
0100
0010
1000
0001
,
0100
0001
0010
0100
1000
0010
0100
0001
,
1000
0100
1000
0010
0100
0001
0100
0010
,
1000
0100
0010
0001
1000
0001
0100
0010
,
1000
0001
0100
0010
1000
0100
0010
0001
,
0100
0001
0010
0100
1000
0010
0100
0001
,
1000
0010
1000
0100
0010
0001
0100
0010
,
0100
0001
1000
0100
0010
0100
1000
0001
,
0100
0010
1000
0001
0100
0001
0010
0100
,
1000
0100
0010
0001
0100
0010
1000
0001
,
0100
0001
0010
0100
1000
0010
0100
0001
,
1000
0100
1000
0010
0100
0001
0100
0010
,
1000
0100
0010
0001
1000
0001
0100
0010
,
1000
0001
0100
0010
1000
0100
0010
0001
,
0100
0001
0010
0100
1000
0010
0100
0001
,
1000
0010
1000
0100
0010
0001
0100
0010
,
0100
0001
1000
0100
0010
0100
1000
0001
,
0100
0010
1000
0001
0100
0001
0010
0100
,
1000
0100
0010
0001
0100
0010
1000
0001
,
0100
0001
0010
0100
1000
0010
0100
0001
,
1000
0100
1000
0010
0100
0001
0100
0010
,
1000
0100
0010
0001
1000
0001
0100
0010
,
1000
0001
0100
0010
1000
0100
0010
0001
,
0100
0001
0010
0100
1000
0010
0100
0001
,
1000
0010
1000
0100
0010
0001
0100
0010
,
0100
0001
1000
0100
0010
0100
1000
0001
,
0100
0010
1000
0001
0100
0001
0010
0100
,
1000
0100
0010
0001
0100
0010
1000
0001
,
0100
0001
0010
0100
1000
0010
0100
0001
,
1000
0100
1000
0010
0100
0001
0100
0010
,
1000
0100
0010
0001
1000
0001
0100
0010
,
1000
0001
0100
0010
1000
0100
0010
0001
,
0100
0001
0010
0100
1000
0010
0100
0001
,
1000
0010
1000
0100
0010
0001
0100
0010
,
0100
0001
1000
0100
0010
0100
1000
0001
,
0100
0010
1000
0001
0100
0001
0010
0100
,
1000
0100
0010
0001
0100
0010
1000
0001
,
0100
0001
0010
0100
1000
0010
0100
0001
,
1000
0100
1000
0010
0100
0001
0100
0010
,
1000
0100
0010
0001
1000
0001
0100
0010
,
1000
0001
0100
0010
1000
0100
0010
0001
,
0100
0001
0010
0100
1000
0010
0100
0001
,
1000
0010
1000
0100
0010
0001
0100
0010
,
0100
0001
1000
0100
0010
0100
1000
0001
,
0100
0010
1000
0001
0100
0001
0010
0100
,
1000
0100
0010
0001
0100
0010
1000
0001
,
0100
0001
0010
0100
1000
0010
0100
0001
,
1000
0100
1000
0010
0100
0001
0100
0010
,
1000
0100
0010
0001
1000
0001
0100
0010
,
1000
0001
0100
0010
1000
0100
0010
0001
,
0100
0001
0010
0100
1000
0010
0100
0001
,
1000
0010
1000
0100
0010
0001
0100
0010
,
0100
0001
1000
0100
0010
0100
1000
0001
,
0100
0010
1000
0001
0100
0001
0010
0100
,
1000
0100
0010
0001
0100
0010
1000
0001
,
0100
0001
0010
0100
1000
0010
0100
0001
,
1000
0100
1000
0010
0100
0001
0100
0010
,
1000
0100
0010
0001
1000
0001
0100
0010
,
1000
0001
0100
0010
1000
0100
0010
0001
,
0100
0001
0010
0100
1000
0010
0100
0001
,
1000
0010
1000
0100
0010
0001
0100
0010
,
0100
0001
1000
0100
0010
0100
1000
0001
,
0100
0010
1000
0001
0100
0001
0010
0100
,
1000
0100
0010
0001
0100
0010
1000
0001
,
0100
0001
0010
0100
1000
0010
0100
0001
,
1000
0100
1000
0010
0100
0001
0100
0010
,
1000
0100
0010
0001
1000
0001
0100
0010
,
1000
0001
0100
0010
1000
0100
0010
0001
,
0100
0001
0010
0100
1000
0010
0100
0001
,
1000
0010
1000
0100
0010
0001
0100
0010
,
0100
0001
1000
0100
0010
0100
1000
0001
,
0100
0010
1000
0001
0100
0001
0010
0100
,
1000
0100
0010
0001
0100
0010
1000
0001
,
0100
0001
0010
0100
1000
0010
0100
0001
,
1000
0100
1000
0010
0100
0001
0100
0010
,
1000
0100
0010
0001
1000
0001
0100
0010
,
1000
0001
0100
0010
1000
0100
0010
0001
,
0100
0001
0010
0100
1000
0010
0100
0001
,
1000
0010
1000
0100
0010
0001
0100
0010
,
0100
0001
1000
0100
0010
0100
1000
0001
,
0100
0010
1000
0001
0100
0001
0010
0100
,
1000
0100
0010
0001
0100
0010
1000
0001
,
0100
0001
0010
0100
1000
0010
0100
0001
,
1000
0100
1000
0010
0100
0001
0100
0010
,
1000
0100
0010
0001
1000
0001
0100
0010
,
1000
0001
0100
0010
1000
0100
0010
0001
,
0100
0001
0010
0100
1000
0010
0100
0001
,
1000
0010
1000
0100
0010
0001
0100
0010
,
0100
0001
1000
0100
0010
0100
1000
0001
,
0100
0010
1000
0001
0100
0001
0010
0100
,
1000
0100
0010
0001
0100
0010
1000
0001
,
0100
0001
0010
0100
1000
0010
0100
0001
,
1000
0100
1000
0010
0100
0001
0100
0010
,
1000
0100
0010
0001
1000
0001
0100
0010
,
1000
0001
0100
0010
1000
0100
0010
0001
,
0100
0001
0010
0100
1000
0010
0100
0001
,
1000
0010
1000
0100
0010
0001
0100
0010
,
0100
0001
1000
0100
0010
0100
1000
0001
,
0100
0010
1000
0001
0100
0001
0010
0100
,
1000
0100
0010
0001
0100
0010
1000
0001
,
0100
0001
0010
0100
1000
0010
0100
0001
,
1000
0100
1000
0010
0100
0001
0100
0010
,
1000
0100
0010
0001
1000
0001
0100
0010
,
1000
0001
0100
0010
1000
0100
0010
0001
,
0100
0001
0010
0100
1000
0010
0100
0001
,
1000
0010
1000
0100
0010
0001
0100
0010
,
0100
0001
1000
0100
0010
0100
1000
0001
,
0100
0010
1000
0001
0100
0001
0010
0100
,
1000
0100
0010
0001
0100
0010
1000
0001
,
0100
0001
0010
0100
1000
0010
0100
0001
,
1000
0100
1000
0010
0100
0001
0100
0010
,
1000
0100
0010
0001
1000
0001
0100
0010
,
1000
0100
0010
0001
1000
0001
0100
0010
,
1000
0001
0100
0010
1000
0010
0001
0100
,
0001
0010
0100
1000
0010
0100
0001
0100
,
0010
1000
0100
1000
0010
1000
0100
0010
,
0001
0100
0001
1000
0010
0100
0001
1000
,
0100
0010
0001
1000
0100
0010
0001
0010
,
0100
1000
0001
0010
0100
1000
0010
0100
,
0001
0010
0001
0100
0010
1000
0100
1000
,
0001
1000
0010
0100
0001
0010
0100
1000
,
0100
0010
0001
0100
0001
0010
0100
1000
,
0010
1000
0001
0100
0001
1000
0010
0100
,
1000
0100
0010
0001
0100
0010
1000
0001
,
0100
0001
0010
0100
1000
0010
0100
0001
,
1000
0100
1000
0010
0100
0001
0100
0010
,
1000
0100
0010
0001
1000
0001
0100
0010
,
1000
0001
0100
0010
1000
0100
0010
0001
,
0100
0001
0010
0100
1000
0010
0100
0001
,
1000
0010
1000
0100
0010
0001
0100
0010
,
0100
0001
1000
0100
0010
0100
1000
0001
,
0100
0010
1000
0001
0100
0001
0010
0100
,
1000
0100
0010
0001
0100
0010
1000
0001
,
0100
0001
0010
0100
1000
0010
0100
0001
,
1000
0100
1000
0010
0100
0001
0100
0010
,
1000
0100
0010
0001
1000
0001
0100
0010
,
1000
0001
0100
0010
1000
0100
0010
0001
,
0100
0001
0010
0100
1000
0010
0100
0001
,
1000
0010
1000
0100
0010
0001
0100
0010
,
0100
0001
1000
0100
0010
0100
1000
0001
,
0100
0010
1000
0001
0100
0001
0010
0100
,
1000
0100
0010
0001
0100
0010
1000
0001
,
0100
0001
0010
0100
1000
0010
0100
0001
,
1000
0100
1000
0010
0100
0001
0100
0010
,
1000
0100
0010
0001
1000
0001
0100
0010
,
1000
0001
0100
0010
1000
0100
0010
0001
,
0100
0001
0010
0100
1000
0010
0100
0001
,
1000
0010
1000
0100
0010
0001
0100
0010
,
0100
0001
1000
0100
0010
0100
1000
0001
,
0100
0010
1000
0001
0100
0001
0010
0100
,
1000
0100
0010
0001
0100
0010
1000
0001
,
0100
0001
0010
0100
1000
0010
0100
0001
,
1000
0100
1000
0010
0100
0001
0100
0010
,
1000
0100
0010
0001
1000
0001
0100
0010
,
1000
0001
0100
0010
1000
0100
0010
0001
,
0100
0001
0010
0100
1000
0010
0100
0001
,
1000
0010
1000
0100
0010
0001
0100
0010
,
0100
0001
1000
0100
0010
0100
1000
0001
,
0100
0010
1000
0001
0100
0001
0010
0100
,
1000
0100
0010
0001
0100
0010
1000
0001
,
0100
0001
0010
0100
1000
0010
0100
0001
,
1000
0100
1000
0010
0100
0001
0100
0010
,
1000
0100
0010
0001
1000
0001
0100
0010
,
1000
0001
0100
0010
1000
0100
0010
0001
,
0100
0001
0010
0100
1000
0010
0100
0001
,
1000
0010
1000
0100
0010
0001
0100
0010
,
0100
0001
1000
0100
0010
0100
1000
0001
,
0100
0010
1000
0001
0100
0001
0010
0100
,
1000
0100
0010
0001
0100
0010
1000
0001
,
0100
0001
0010
0100
1000
0010
0100
0001
,
1000
0100
1000
0010
0100
0001
0100
0010
,
1000
0100
0010
0001
1000
0001
0100
0010
,
1000
0001
0100
0010
1000
0100
0010
0001
,
0100
0001
0010
0100
1000
0010
0100
0001
,
1000
0010
1000
0100
0010
0001
0100
0010
,
0100
0001
1000
0100
0010
0100
1000
0001
,
0100
0010
1000
0001
0100
0001
0010
0100
,
1000
0100
0010
0001
0100
0010
1000
0001
,
0100
0001
0010
0100
1000
0010
0100
0001
,
1000
0100
1000
0010
0100
0001
0100
0010
,
1000
0100
0010
0001
1000
0001
0100
0010
,
1000
0001
0100
0010
1000
0100
0010
0001
,
0100
0001
0010
0100
1000
0010
0100
0001
,
1000
0010
1000
0100
0010
0001
0100
0010
,
0100
0001
1000
0100
0010
0100
1000
0001
,
0100
0010
1000
0001
0100
0001
0010
0100
,
1000
0100
0010
0001
0100
0010
1000
0001
,
0100
0001
0010
0100
1000
0010
0100
0001
,
1000
0100
1000
0010
0100
0001
0100
0010
,
1000
0100
0010
0001
1000
0001
0100
0010
,
1000
0001
0100
0010
1000
0100
0010
0001
,
0100
0001
0010
0100
1000
0010
0100
0001
,
1000
0010
1000
0100
0010
0001
0100
0010
,
0100
0001
1000
0100
0010
0100
1000
0001
,
0100
0010
1000
0001
0100
0001
0010
0100
,
1000
0100
0010
0001
0100
0010
1000
0001
,
0100
0001
0010
0100
1000
0010
0100
0001
,
1000
0100
1000
0010
0100
0001
0100
0010
,
1000
0100
0010
0001
1000
0001
0100
0010
,
1000
0001
0100
0010
1000
0100
0010
0001
,
0100
0001
0010
0100
1000
0010
0100
0001
,
1000
0010
1000
0100
0010
0001
0100
0010
,
0100
0001
1000
0100
0010
0100
1000
0001
,
0100
0010
1000
0001
0100
0001
0010
0100
,
1000
0100
0010
0001
0100
0010
1000
0001
,
0100
0001
0010
0100
1000
0010
0100
0001
,
1000
0100
1000
0010
0100
0001
0100
0010
,
1000
0100
0010
0001
1000
0001
0100
0010
,
1000
0100
0010
0001
1000
0001
0100
0010
,
1000
0001
0100
0010
1000
0010
0001
0100
,
0001
0010
0100
1000
0010
0100
0001
0100
,
0010
1000
0100
1000
0010
1000
0100
0010
,
0001
0100
0001
1000
0010
0100
0001
1000
,
0100
0010
0001
1000
0100
0010
0001
0010
,
0100
1000
0001
0010
0100
1000
0010
0100
,
0001
0010
0001
0100
0010
1000
0100
1000
,
0001
1000
0010
0100
0001
0010
0100
1000
,
0100
0010
0001
0100
0001
0010
0100
1000
,
0010
1000
0001
0100
0001
1000
0010
0100
,
1000
0001
0010
0100
1000
0010
0100
0001
,
1000
0010
1000
0100
0010
0001
0100
0010
,
0100
0001
1000
0100
0010
0100
1000
0001
,
0100
0010
1000
0001
0100
0001
0010
0100
,
1000
0100
0010
0001
0100
0010
1000
0001
,
0100
0001
0010
0100
1000
0010
0100
0001
,
1000
0100
1000
0010
0100
0001
0100
0010
,
1000
0100
0010
0001
1000
0001
0100
0010
,
1000
0100
0010
0001
1000
0001
0100
0010
,
1000
0001
0100
0010
1000
0010
0001
0100
,
0001
0010
0100
1000
0010
0100
0001
0100
,
0010
1000
0100
1000
0010
1000
0100
0010
,
0001
0100
0001
1000
0010
0100
0001
1000
,
0100
0010
0001
1000
0100
0010
0001
0010
,
0100
1000
0001
0010
0100
1000
0010
0100
,
0001
0010
0001
0100
0010
1000
0100
1000
,
0001
1000
0010
0100
0001
0010
0100
1000
,
0100
0010
0001
0100
0001
0010
0100
1000
,
0010
1000
0001
0100
0001
1000
0010
0100
,
1000
0001
0010
0100
1000
0010
0100
0001
,
1000
0010
1000
0100
0010
0001
0100
0010
,
0100
0001
1000
0100
0010
0100
1000
0001
,
0100
0010
1000
0001
0100
0001
0010
0100
,
1000
0100
0010
0001
0100
0010
1000
0001
,
0100
0001
0010
0100
1000
0010
0100
0001
,
1000
0100
1000
0010
0100
0001
0100
0010
,
1000
0100
0010
0001
1000
0001
0100
0010
,
1000
0100
0010
0001
1000
0001
0100
0010
,
1000
0001
0100
0010
1000
0010
0001
0100
,
0001
0010
0100
1000
0010
0100
0001
1000
,
0020
0000
0000
0000
,
0000
000M
0M00
0M00
000M
M000
0000
0000
,
0000
0000
0000
0000
,
0000
0000
0000
0000
0000
0000
0000
0000
000M
0000
0000
0000
0000
0000
0000
0000
0M00
0000
0000
0000
0000
0000
0000
0000
0M00
0000
0000
0000
0000
0000
0000
0000
000M
0000
0000
0000
0000
0000
0000
0030
M210
0000
0000
0000
0000
0000
0000
0000
000M
0000
0000
0000
0000
0000
0000
0000
M000
0000
0000
0000
0000
0000
0000
0000
,
1320
0000
0000
0000
,
0000
000M
0M00
0M00
000M
M000
0000
0000
,
0000
0000
0000
0000
,
0000
000M
0M00
0M00
M000
000M
0M30
M000
,
MMMM
MMMM
MMMM
0MMM
0MMM
0MM0
0MM0
00M0
,
00M0
00M0
00M0
00M0
00M0
00M0
00M0
00M0
,
0000
00M0
0000
00M0
0000
00M0
0000
0000
,
00M0
0000
0000
00M0
0000
0000
0000
00M0
,
0000
0000
0000
00M0
0000
0000
0000
0000
,
00M0
0000
0000
0000
0000
00M0
0000
0000
,
0000
00M0
0000
0000
,
0000
0000
0000
0000
,
0000
0000
0000
0000
0000
0000
0001
0100
,
0001
0010
0100
1000
0001
0100
0001
0010
,
0100
1000
0010
1000
0001
0100
0010
1000
,
0001
0100
0001
0010
0100
1000
0001
0100
,
0001
0010
0100
1000
0010
1000
0001
0100
,
0010
1000
0001
0100
0001
0010
0100
1000
,
0001
0100
0001
0010
0100
1000
0010
1000
,
0001
0100
0010
1000
0001
0010
0100
1000
,
0001
0100
0001
0010
1000
0001
2000
0000
,
0000
0000
0000
0000
,
0000
0000
0000
3000
;
