#TITLE:GERUDO VALLEY;
#SUBTITLE:~Steps by MaxX PoweR~;
#ARTIST:Nintendo;
#TITLETRANSLIT:;
#SUBTITLETRANSLIT:;
#ARTISTTRANSLIT:;
#CREDIT:;
#BANNER:Gerudo-bn.JPG;
#BACKGROUND:Ganondorf-bg.jpg;
#LYRICSPATH:;
#CDTITLE:Hadoken!!-cdtitle.png.jpg;
#MUSIC:Gerudo Valley.mp3;
#OFFSET:-3.727;
#SAMPLESTART:27.660;
#SAMPLELENGTH:11.980;
#SELECTABLE:YES;
#BPMS:0.000=130.000,179.000=666.000;
#STOPS:;
#BGCHANGES:;
// cache tags:
#FIRSTBEAT:5.250;
#LASTBEAT:194.500;
#SONGFILENAME:Songs/keyboard/Gerudo Valley/Gerudo Valley.sm;
#HASMUSIC:1;
#HASBANNER:1;
#MUSICLENGTH:91.645;
// end cache tags

//---------------dance-single - MaxX PoweR Edit----------------
#NOTES:
     dance-single:
     MaxX PoweR Edit:
     Challenge:
     9:
     0.764,0.796,0.229,0.218,1.000,449.000,21.000,20.000,78.000,6.000:

0000
0000
0000
0000
,
0000
0000
0000
0000
0000
0020
0000
0000
0000
0000
0000
0000
0002
0000
0000
0000
,
1033
0100
1000
0100
0000
0010
0000
0001
0000
1000
0001
1000
0001
0000
0000
0000
,
1000
0001
1000
0001
0100
0001
0100
0001
1000
0010
0100
0001
0000
1000
0100
0010
,
0001
0100
0001
0100
0001
1000
0001
1000
0001
0100
0010
1000
0000
0001
0100
0010
,
1000
0010
1000
0001
0000
1M1M
0000
1000
0010
0100
0001
0100
0000
MM11
0000
1000
,
0100
0010
0001
1000
0000
M11M
0000
1000
0001
0100
0010
1000
0000
M1M1
0000
0001
,
0100
0001
1000
0010
0000
1MM1
0000
0001
0100
0010
1000
0010
0000
11MM
0000
0001
,
0010
0100
1000
0001
0000
M11M
0000
0001
1000
0010
0100
0001
0000
1M1M
0000
0100
,
1000
0100
0010
0001
0000
11MM
0000
0100
1000
0001
0010
0001
0000
1M1M
0000
0100
,
0001
1000
0010
0100
0000
1MM1
0000
0100
0010
0001
1000
0100
0000
MM11
0000
0010
,
0001
0010
0100
1000
0000
M1M1
0000
0010
0001
1000
0100
1000
0000
MM11
0000
0010
,
1000
0001
0100
0010
0000
1MM1
0000
0010
0100
1000
0001
0010
0000
11MM
0000
0000
,
0001
0010
0100
1000
0010
0000
0100
0001
0010
0100
1000
0000
0010
0000
0100
0000
,
0001
0100
0010
1000
0100
0000
0010
0001
0100
0010
1000
0000
0001
0000
0100
0000
,
0001
1000
0010
1000
0100
0000
0010
0001
0100
0001
1000
0000
0001
0000
0100
0000
,
0010
1000
0010
0100
2MM1
0000
0000
0000
0M1M
0000
0000
0000
31MM
0000
0000
0000
,
1000
0010
0100
0010
1000
0000
0001
0100
0010
0100
0001
0000
1000
0000
0001
0000
,
0100
0001
1000
0001
0100
0000
0010
1000
0001
1000
0010
0000
0100
0000
0010
0000
,
1000
0100
0010
0001
0100
0000
0010
1000
0100
0010
0001
0000
1000
0000
0010
0000
,
0100
0001
1000
0010
M1M2
0000
0000
0000
1MM0
0000
0000
0000
MM13
0000
0000
0000
,
0100
0000
0010
0000
1000
0100
0000
1000
0001
0000
0100
0010
0000
0100
0001
1000
,
0010
0000
0100
0000
0001
1000
0010
0200
M0M1
0000
0000
0000
10MM
0000
0000
0000
,
M31M
0000
0100
0000
0001
0010
0000
0001
1000
0000
0010
0100
0000
0010
1000
0001
,
0100
0000
0010
0000
1000
0001
0100
0002
MM10
0000
0000
0000
M1M0
0000
0000
0000
,
1MM3
0000
0100
0000
0001
0010
0000
0001
1000
0000
0010
0100
0000
0010
1000
0001
,
0100
0000
0010
0000
1000
0001
0100
0001
2000
0000
0000
0000
3000
0000
0010
1000
,
0010
0000
0100
0001
0000
1000
0001
0100
0001
0000
1000
0010
0000
0100
0001
1000
,
0100
0001
0010
1000
0100
0001
0010
1000
,
0010
0000
0100
0000
0001
0010
0000
0010
0100
0000
0100
1000
0000
1000
0001
0100
,
0010
0000
0100
0000
0001
1000
0010
0200
10MM
0000
0000
0000
M0M1
0000
0000
0000
,
M31M
0000
1000
0000
1000
0100
0000
0100
0010
0000
0010
0001
0000
0001
1000
0100
,
0010
0000
0100
0000
0010
0001
1000
0020
MM01
0000
0000
0000
M10M
0000
0000
0000
,
1M3M
0000
1000
0010
1000
0010
0000
0100
0001
1000
0001
0100
0000
0000
0001
0000
,
1000
0000
0001
0010
0100
1000
0000
0010
0100
0001
1000
0010
0000
0000
1000
0000
,
2200
0000
0000
0001
3300
0000
MM1M
0000
0022
0000
0000
0100
0033
0000
1MMM
0000
,
2002
0000
0100
0000
0010
0000
3103
MMMM
,
0100
0010
0100
0001
0100
0000
0010
1000
0100
0000
1000
0100
0010
0001
0100
1000
,
0100
0001
0010
0100
1000
0000
0010
0100
0001
0000
1000
0010
0001
0010
1000
0100
,
0001
0100
1000
0001
0100
0000
0010
1000
0100
0000
0010
0001
1000
0100
0001
0100
,
0010
0001
0100
0010
1000
0000
0001
0010
0001
0000
1000
0100
1000
0000
0001
0010
,
0001
1000
0020
0000
0000
0000
0000
0000
0030
0000
0000
1000
0010
1000
0001
1000
,
0100
1000
0002
0000
0000
0000
0000
0000
0000
0000
0003
0000
0000
0000
0000
0000
,
1000
0010
0200
0000
0000
0000
0000
0000
0300
0000
0000
0010
1000
0001
1000
0100
,
1000
0001
2000
0000
0000
0000
0000
0000
0000
0000
0020
0000
3000
0000
0000
0000
,
0000
0000
0000
0000
,
0000
0000
0000
0000
,
0000
0000
0000
0000
,
0000
0000
0000
0000
0000
0030
0000
0000
;
