#TITLE:Back to the Gate;
#SUBTITLE:;
#ARTIST:DJ Sharpnel;
#TITLETRANSLIT:;
#SUBTITLETRANSLIT:;
#ARTISTTRANSLIT:;
#CREDIT:;
#BANNER:back to the bn.png;
#BACKGROUND:back to the bg.png;
#LYRICSPATH:;
#CDTITLE:;
#MUSIC:Back to the Gate.ogg;
#OFFSET:-0.493;
#SAMPLESTART:106.560;
#SAMPLELENGTH:20.140;
#SELECTABLE:YES;
#BPMS:0.000=190.651;
#STOPS:;
#BGCHANGES:;
// cache tags:
#FIRSTBEAT:12.000;
#LASTBEAT:1020.000;
#SONGFILENAME:Songs/SHARPNELSTREAMZ v2/Back to the Gate/Back to the Gate.sm;
#HASMUSIC:1;
#HASBANNER:1;
#MUSICLENGTH:323.000;
// end cache tags

//---------------dance-single - 17- (Zaia)----------------
#NOTES:
     dance-single:
     17- (Zaia):
     Challenge:
     17:
     1.000,1.000,0.037,0.136,1.000,3424.000,12.000,44.000,0.000,0.000:
0000
0000
0000
0000
,
0000
0000
0000
0000
,
0000
0000
0000
0000
,
1000
0001
0100
0010
1000
0001
0100
0010
0100
0001
1000
0001
0100
0010
1000
0001
,
1000
0100
1000
0001
0010
0100
0010
0001
1000
0100
0010
0001
1000
0100
1000
0001
,
0100
0010
0100
0001
1000
0010
0100
0010
1000
0001
0100
0010
1000
0001
0100
0001
,
1000
0100
0010
0100
1000
0001
0010
0100
1000
0100
0010
0001
1000
0100
0010
0001
,
1000
0010
0100
0010
1000
0001
0100
0010
1000
0001
1000
0010
0100
0010
1000
0001
,
1000
0100
1000
0001
0010
0100
0010
0001
1000
0100
1000
0001
0010
0100
0010
0001
,
1000
0001
0100
0010
1000
0001
1000
0010
0100
0010
1000
0001
0100
0010
1000
0001
,
1000
0100
1000
0001
0010
0100
1000
0001
1000
0100
0010
0001
1000
0100
1000
0001
,
0100
0010
0100
0001
1000
0010
0100
0001
0100
0010
1000
0001
0100
0010
0100
0001
,
1000
0100
1000
0001
0010
0100
1000
0001
0010
0001
1000
0100
0010
0100
1000
0001
,
1000
0010
0100
0010
1000
0001
0100
0001
1000
0010
0100
0010
1000
0001
0100
0010
,
1000
0001
1000
0100
0010
0100
1000
0001
0010
0100
1000
0100
0010
0001
1000
0001
,
0100
0010
0100
0001
1000
0010
0100
0001
1000
0001
0100
0010
1000
0001
0100
0010
,
1000
0001
0010
0001
1000
0100
1000
0001
0010
0100
1000
0001
0010
0100
0010
0001
,
1000
0010
0100
0001
1000
0001
0100
0010
0100
0001
1000
0001
0100
0010
1000
0001
,
1000
0000
0000
0100
0000
0000
0010
0000
0000
0100
0000
0000
0010
0000
0000
0001
0010
0000
0100
1000
0000
0001
0010
0000
,
0100
1000
0001
0100
0010
1000
0010
1000
0001
0010
0100
1000
0001
0100
0001
0100
,
0010
1000
0001
0010
0100
1000
0100
1000
0001
0100
0010
1000
0001
0010
0001
0010
,
0100
1000
0001
0100
0010
1000
0010
1000
0001
0010
0100
1000
0001
0100
0001
0100
,
0010
1000
0001
0010
0100
1000
0100
1000
0001
0100
0010
1000
0001
0010
0001
0010
,
0100
1000
0001
1000
0010
0100
0001
0100
0001
1000
0100
0010
0001
1000
0010
1000
,
0010
0100
0001
1000
0100
0010
0001
0010
0001
1000
0010
0100
0001
1000
0100
1000
,
0100
0010
0001
1000
0010
0100
0001
0100
0001
1000
0100
0010
0001
1000
0010
1000
,
0010
0100
0001
1000
0100
0010
0001
1000
0001
0100
0010
0100
0001
1000
0100
0010
,
0001
1000
0001
0100
0010
1000
0010
1000
0001
0010
0100
1000
0001
0010
0001
0010
,
0100
1000
0001
0100
0010
1000
0001
1000
0100
0010
0001
0100
0001
0100
0010
1000
,
0100
0010
0100
0010
0001
1000
0001
0100
0010
1000
0001
0100
0010
1000
0010
1000
,
0001
0010
0100
1000
0010
0100
0010
0100
0001
1000
0001
0010
0100
1000
0001
0100
,
0001
0010
0100
0010
0001
1000
0010
0100
0010
1000
0001
1000
0010
1000
0001
1000
,
0100
0010
0100
1000
0001
1000
0100
0010
0001
1000
0100
1000
0010
1000
0001
1000
,
0010
0100
0001
0100
0010
1000
0010
1000
0001
0100
0001
1000
0100
0010
0100
0010
,
0001
1000
0010
1000
0001
0010
0001
1000
0001
1000
0010
0100
0010
1000
0001
1000
,
0100
0010
0100
1000
0010
0100
0001
0010
0100
0010
0001
1000
0001
0010
0100
1000
,
0010
0100
0010
0100
0001
0100
0001
0100
0001
1000
0001
1000
0100
1000
0100
1000
,
0001
0100
0010
0100
0001
0010
0100
1000
0010
0100
0010
1000
0001
0010
0100
1000
,
0001
0100
0001
0100
0010
1000
0010
1000
0001
1000
0001
1000
0001
0010
0001
0010
,
0100
1000
0001
0100
0010
0100
0001
0010
0100
1000
0001
0100
0010
0100
0001
0010
,
0100
1000
0100
1000
0001
1000
0001
1000
0010
0100
0010
0100
0001
0100
0001
0100
,
0010
1000
0001
0010
0100
0010
0001
0100
0010
1000
0001
0010
0100
0010
0001
0100
,
0010
1000
0010
1000
0001
1000
0001
1000
0001
0010
0001
0010
0100
1000
0100
1000
,
0001
0100
0010
1000
0100
0010
0001
0100
0010
0100
0001
1000
0001
0100
0010
1000
,
0100
0010
0100
0010
0001
0010
0001
0010
0001
1000
0001
1000
0010
1000
0010
1000
,
0001
0010
0100
0010
0001
0100
0010
1000
0100
0010
0100
1000
0001
0100
0010
1000
,
0001
0010
0001
0010
0100
1000
0100
1000
0001
1000
0001
1000
0001
0100
0001
0100
,
0010
1000
0001
0010
0100
0010
0001
0100
0010
1000
0001
0010
0100
0010
0001
0100
,
0010
1000
0010
1000
0001
1000
0001
1000
0100
0010
0100
0010
0001
0010
0001
0010
,
0100
1000
0001
0100
0010
0100
0001
0010
0100
1000
0001
0100
0010
0100
0001
0010
,
0100
1000
0001
0100
0010
0100
0001
1000
0001
0100
0010
1000
0001
0100
0001
1000
,
0010
0000
0100
0000
0010
0000
1000
0001
,
0000
0000
0010
0100
0000
0000
0000
1000
,
0100
0000
0010
0001
0000
0000
1000
0010
,
0100
0000
0000
0000
,
0000
0000
0001
1000
0010
0000
0100
0001
,
0000
0000
1000
0000
0100
0000
0010
0100
,
1000
0000
0000
0000
0000
0000
0010
0100
,
0001
0000
1000
0000
0100
0000
0010
0001
,
1001
1000
0000
0001
0000
0100
0000
0010
,
0000
1000
0000
0001
0000
0010
0000
0001
,
0000
1000
0000
0100
0000
1000
0000
0010
,
0000
0100
0000
0001
0000
1000
0000
0010
,
0100
0001
1000
0100
0010
0100
1000
0001
0100
0010
1000
0001
1000
0010
0100
0001
,
1000
0001
0010
0100
0010
0001
1000
0001
0100
0010
0100
0001
1000
0100
0010
0100
,
4000
0004
0000
0000
0000
0000
0000
0000
0000
0000
0000
0000
0000
0000
0000
0000
0000
0000
0000
0000
0000
0000
0000
0000
,
3003
0000
0000
0000
0000
0000
0000
0000
0000
0000
0000
0000
0000
0000
0000
1000
0001
0000
0100
0010
0000
1000
0001
0000
,
0100
0010
1000
0001
0010
0100
0010
0001
1000
0010
0100
0001
1000
0100
1000
0001
,
0010
0001
1000
0010
0100
0001
1000
0001
0010
0100
0010
0001
1000
0010
0100
0001
,
1000
0100
1000
0001
0100
0001
1000
0010
0100
0010
1000
0001
0010
0100
0010
0001
,
1000
0010
0100
0001
1000
0100
1000
0001
0010
0001
1000
0010
0100
0001
0010
0100
,
1000
0100
0010
0001
1000
0010
0100
0001
1000
0100
1000
0001
0100
0010
1000
0001
,
1000
0100
1000
0100
0010
0001
0010
0001
1000
0001
0100
0001
1000
0001
0010
0100
,
1000
0001
0010
0001
1000
0010
0100
0001
1000
0001
0010
0001
1000
0010
0100
0001
,
1000
0001
0100
0001
1000
0001
0010
0100
1000
0001
0100
0001
1000
0001
0010
0100
,
1000
0001
1000
0001
0100
0010
0100
0001
1000
0100
0010
0001
1000
0010
1000
0001
,
0100
0001
1000
0100
0010
0001
1000
0001
0100
0010
0100
0001
1000
0100
0010
0001
,
1000
0010
1000
0001
0010
0001
1000
0100
0010
0100
1000
0001
0100
0010
0100
0001
,
1000
0100
0010
0001
1000
0010
1000
0001
0100
0001
1000
0100
0010
0001
0100
0010
,
1000
0010
0100
0001
1000
0100
0010
0001
1000
0010
1000
0001
0010
0100
1000
0001
,
1000
0010
1000
0010
0100
0001
0100
0001
1000
0001
0010
0001
1000
0001
0100
0010
,
4000
0004
0000
0000
0000
0000
0000
0000
0000
0000
0000
0000
0000
0000
0000
0000
0000
0000
0000
0000
0000
0000
0000
0000
,
3003
0000
0000
0000
0000
0000
0000
0000
0000
0000
0000
0000
0000
0000
0000
1000
0001
0000
0010
0100
0000
1000
0001
0000
,
0010
0000
0100
0000
,
1000
0000
0001
0000
0001
0000
0001
0010
,
0100
1000
0001
1000
0010
0100
0001
0100
0010
1000
0001
1000
0100
0010
0100
1000
,
0001
0010
0001
1000
0010
1000
0001
0010
0100
0010
0001
1000
0010
0100
0010
1000
,
0001
0100
0001
0010
0001
1000
0100
1000
0010
1000
0001
0100
0010
0100
0001
1000
,
0100
0010
0001
1000
0001
0100
0010
1000
0001
0010
0100
0010
0001
1000
0100
1000
,
0001
0100
0010
1000
0001
1000
0100
1000
0001
0010
0100
0010
0001
1000
0010
0100
,
0001
1000
0001
1000
0100
0010
0001
1000
0010
1000
0001
0100
0010
0100
0001
0010
,
0100
1000
0010
1000
0001
1000
0010
1000
0100
0010
0001
0010
0100
1000
0010
0100
,
0001
0100
0010
1000
0001
1000
0100
1000
0001
1000
0001
0100
0001
1000
0010
0100
,
0001
1000
0001
1000
0100
0010
0100
1000
0001
1000
0001
0100
0010
1000
0001
0100
,
0001
0010
0100
1000
0001
0010
0001
1000
0010
0100
0001
1000
0100
0010
0100
1000
,
0010
0100
0001
1000
0010
1000
0001
1000
0100
0010
0001
1000
0100
1000
0001
0100
,
0010
0100
0001
1000
0100
1000
0001
0100
0010
1000
0001
1000
0010
0100
0001
1000
,
0001
0010
0100
0010
0001
1000
0001
1000
0001
0100
0001
0100
0010
1000
0010
0100
,
0001
1000
0001
0010
0100
1000
0001
1000
0010
0100
0001
1000
0001
0010
0100
1000
,
0001
0100
0010
1000
0001
1000
0100
0010
0100
1000
0001
0010
0001
1000
0010
0100
,
0010
0000
0000
0000
0000
0000
0100
0000
0000
0000
0000
0000
0010
0000
0000
1000
0010
0000
0100
0001
0000
1000
0010
0000
,
0100
0001
1000
0001
0010
0100
1000
0100
0010
0001
1000
0001
0100
0010
0100
0001
,
1000
0010
1000
0001
0010
0001
1000
0010
0100
0010
1000
0001
0010
0100
0010
0001
,
1000
0100
1000
0010
1000
0001
0100
0001
0010
0001
1000
0100
0010
0100
1000
0001
,
0100
0010
1000
0001
1000
0100
0010
0001
1000
0010
0100
0010
1000
0001
0100
0001
,
1000
0100
0010
0001
1000
0001
0100
0001
1000
0010
0100
0010
1000
0001
0010
0100
,
1000
0001
1000
0001
0100
0010
1000
0001
0010
0001
1000
0100
0010
0100
1000
0010
,
0100
0001
0010
0001
1000
0001
0010
0001
0100
0010
1000
0010
0100
0001
0010
0100
,
1000
0100
0010
0001
1000
0001
0100
0001
1000
0001
1000
0100
1000
0001
0010
0100
,
1000
0001
1000
0001
0100
0010
0100
0001
1000
0001
1000
0100
0010
0001
1000
0100
,
1000
0010
0100
0001
1000
0010
1000
0001
0010
0100
1000
0001
0100
0010
0100
0001
,
0010
0100
1000
0001
0010
0001
1000
0001
0100
0010
1000
0001
0100
0001
1000
0100
,
0010
0100
1000
0001
0100
0001
1000
0100
0010
0001
1000
0001
0010
0100
1000
0001
,
1000
0010
0100
0001
0010
0100
1000
0001
1000
0010
0100
0001
0010
0100
1000
0001
,
1000
0010
0100
0001
0010
0100
1000
0001
1000
0010
0100
0001
0010
0100
1000
0001
,
1000
0100
0010
0001
1000
0001
1000
0010
0100
0001
1000
0001
1000
0100
0010
0001
,
1000
0010
0100
0001
1000
0100
1000
0001
0100
0010
0100
0001
1000
0100
1000
0001
,
0010
0001
1000
0001
0100
0010
1000
0010
0100
0001
1000
0001
0010
0100
0010
0001
,
1000
0100
1000
0001
0100
0001
1000
0100
0010
0100
1000
0001
0100
0010
0100
0001
,
1000
0010
1000
0100
1000
0001
0010
0001
0100
0001
1000
0010
0100
0010
1000
0001
,
0010
0100
1000
0001
1000
0010
0100
0001
1000
0100
0010
0100
1000
0001
0010
0001
,
1000
0010
0100
0001
1000
0001
0010
0001
1000
0100
0010
0100
1000
0001
0100
0010
,
1000
0001
1000
0001
0010
0100
1000
0001
0100
0001
1000
0010
0100
0010
1000
0100
,
0010
0001
0100
0001
1000
0001
0100
0001
0010
0100
1000
0100
0010
0001
0100
0010
,
1000
0010
0100
0001
1000
0001
0010
0001
1000
0001
1000
0010
1000
0001
0100
0010
,
1000
0001
1000
0001
0010
0100
0010
0001
1000
0001
1000
0010
0100
0001
1000
0010
,
1000
0100
0010
0001
1000
0100
1000
0001
0100
0010
1000
0001
0010
0100
0010
0001
,
0100
0010
1000
0001
0100
0001
1000
0001
0010
0100
1000
0001
0010
0001
1000
0010
,
0100
0010
1000
0001
0010
0001
1000
0010
0100
0001
1000
0001
0100
0010
1000
0001
,
1000
0100
0010
0001
0100
0010
1000
0001
1000
0100
0010
0001
0100
0010
1000
0001
,
1000
0100
0010
0001
0100
0010
1000
0001
1000
0100
0010
0001
0100
0010
1000
0001
,
1000
0010
0100
0001
1000
0001
1000
0100
0010
0001
1000
0001
1000
0010
0100
0001
,
1000
0100
0010
0001
1000
0010
1000
0001
0010
0100
0010
0001
1000
0010
1000
0001
,
0010
0001
1000
0001
0100
0010
1000
0010
0100
0001
1000
0001
0010
0100
0010
0001
,
1000
0100
1000
0001
0100
0001
1000
0100
0010
0100
1000
0001
0100
0010
0100
0001
,
1000
0010
1000
0100
1000
0001
0010
0001
0100
0001
1000
0010
0100
0010
1000
0001
,
0010
0100
1000
0001
1000
0010
0100
0001
1000
0100
0010
0100
1000
0001
0010
0001
,
1000
0010
0100
0010
1000
0001
0010
0001
1000
0100
0010
0001
1000
0100
1000
0010
,
0100
0001
0100
0010
0100
0001
1000
0100
0010
0001
1000
0001
1000
0100
1000
0100
,
0010
0100
1000
0001
1000
0010
0100
0001
1000
0001
0100
0010
1000
0001
0010
0100
,
0010
0001
1000
0010
1000
0001
0010
0100
1000
0001
1000
0010
0100
0001
1000
0001
,
1000
0100
0010
0100
1000
0010
1000
0001
0010
0100
0010
0001
1000
0001
0100
0010
,
1000
0001
1000
0100
0010
0001
1000
0001
0100
0001
1000
0001
1000
0100
0010
0001
,
1000
0100
1000
0000
0001
0100
0001
0000
1000
0010
1000
0000
0001
0010
0001
0000
,
1000
0010
0000
1000
0001
0000
0010
0100
0000
1000
0001
0000
4000
0000
0000
0000
,
3001
0100
0010
0100
0001
1000
0001
0100
0010
0100
0001
1000
0100
1000
0001
1000
,
0010
1000
0001
0100
0001
0010
0100
1000
0001
0100
0010
1000
0001
0010
0100
0010
,
0001
1000
0010
0100
0001
1000
0001
0100
0010
0100
0001
1000
0100
1000
0010
1000
,
0001
1000
0010
0100
0001
1000
0100
0010
0001
1000
0010
0100
0001
1000
0010
1000
,
0001
1000
0100
0010
0100
1000
0001
0010
0001
1000
0100
0010
0001
0100
0001
0010
,
0001
1000
0001
0100
0010
1000
0001
0010
0001
1000
0010
0100
0001
0100
0010
1000
,
0100
1000
0001
0010
0001
1000
0100
1000
0001
1000
0010
0100
0001
1000
0100
1000
,
0010
0100
0001
1000
0010
1000
0010
0100
0001
1000
0100
1000
0001
0100
0010
1000
,
0100
0010
0001
1000
0010
0100
0001
1000
0001
1000
0100
0010
0001
1000
0100
1000
,
0010
0100
0001
1000
0100
0010
0001
1000
0001
1000
0010
0100
0001
1000
0010
1000
,
0100
0010
0001
1000
0010
0100
0001
1000
0001
1000
0100
0010
0001
1000
0100
1000
,
0010
0100
0001
1000
0100
0010
0100
1000
0001
0010
0001
1000
0001
1000
0010
1000
,
0100
0010
0001
1000
0010
0100
0001
1000
0001
1000
0100
0010
0001
1000
0100
1000
,
0010
0100
0001
1000
0100
0010
0001
1000
0001
1000
0010
0100
0001
1000
0010
1000
,
0100
0010
0001
1000
0010
0100
0001
1000
0001
1000
0100
0010
0001
1000
0100
1000
,
0010
0100
0001
1000
0010
0100
0010
1000
0001
0100
0001
1000
0001
1000
0100
1000
,
0010
0100
0001
1000
0100
0010
0001
1000
0001
0100
0010
0100
0001
1000
0010
1000
,
0100
0010
0001
1000
0010
0100
0001
1000
0001
0010
0100
0010
0001
1000
0100
1000
,
0010
0100
0001
1000
0100
0010
0001
1000
0001
0100
0010
0100
0001
1000
0010
1000
,
0100
0010
0001
1000
0010
0100
0010
1000
0001
0100
0001
1000
0001
1000
0100
1000
,
0010
0100
0001
1000
0100
0010
0001
1000
0001
0100
0010
0100
0001
1000
0010
1000
,
0100
0010
0001
1000
0010
0100
0001
1000
0001
0010
0100
0010
0001
1000
0100
1000
,
0010
0100
0001
1000
0100
0010
0001
1000
0001
0100
0010
0100
0001
1000
0010
1000
,
0100
0010
0001
1000
0010
0100
0010
1000
0001
0100
0001
1000
0001
0010
0100
1000
,
0010
1000
0001
1000
0010
0100
0001
1000
0001
0010
0100
0010
0001
1000
0100
1000
,
0010
0100
0001
1000
0100
0010
0001
1000
0001
0100
0010
0100
0001
1000
0010
1000
,
0100
0010
0001
1000
0010
0100
0001
1000
0001
0010
0100
0010
0001
1000
0100
1000
,
0010
0100
0001
1000
0100
0010
0001
1000
0001
0100
0010
0100
0001
1000
0010
1000
,
0100
0010
0100
1000
0001
0010
0100
1000
,
0001
1000
0010
0100
0010
1000
0001
0100
,
0001
0010
0100
1000
0001
0100
0010
1000
0001
1000
0100
0010
0100
1000
0001
0010
,
0001
0000
0000
0000
0200
0300
0000
0000
0200
0300
0000
0000
0200
0300
0000
0000
,
0210
0000
0320
2030
0000
0000
0000
0000
,
0000
3000
0200
0000
0320
0000
0032
0003
,
0020
0032
0203
0302
0023
0000
0032
2003
,
0000
3020
0000
0230
0000
0300
0000
0002
,
2003
0000
3200
0320
0000
0000
0030
0002
,
0203
0000
0320
2030
0000
0000
0000
3000
,
0020
2030
3200
2300
3020
0230
0000
0302
,
0000
0000
0000
0000
0003
0000
0020
0230
,
2300
3000
1100
0000
0001
0001
0100
0000
,
1000
0000
1100
0000
0001
0001
0100
0000
,
0010
0000
1010
0000
0001
0001
0010
0000
,
1000
0000
0101
0000
1000
1000
0100
0000
,
0001
0000
1100
0000
0001
0001
0010
0000
,
0100
0000
0110
0000
1000
1000
0001
0000
,
0200
0000
0000
0300
,
0000
0000
0001
0000
0001
0000
0001
1000
,
0010
1000
0001
1000
0100
0010
0001
0010
0100
1000
0001
1000
0010
0100
0010
1000
,
0001
0100
0001
1000
0100
1000
0001
0100
0010
0100
0001
1000
0100
0010
0100
1000
,
0001
0010
0001
0100
0001
1000
0010
1000
0100
1000
0001
0010
0100
0010
0001
1000
,
0010
0100
0001
1000
0001
0010
0100
1000
0001
0100
0010
0100
0001
1000
0010
1000
,
0001
0010
0100
1000
0001
1000
0010
1000
0001
0100
0010
0100
0001
1000
0100
0010
,
0001
1000
0001
1000
0010
0100
0001
1000
0100
1000
0001
0010
0100
0010
0001
0100
,
0010
1000
0100
1000
0001
1000
0100
1000
0010
0100
0001
0100
0010
1000
0100
0010
,
0001
0010
0100
1000
0001
1000
0010
1000
0001
1000
0001
0010
0001
1000
0100
0010
,
0001
1000
0001
1000
0010
0100
0010
1000
0001
1000
0001
0010
0100
1000
0001
0010
,
0001
0100
0010
1000
0001
0100
0001
1000
0100
0010
0001
1000
0010
0100
0010
1000
,
0100
0010
0001
1000
0100
1000
0001
1000
0010
0100
0001
1000
0010
1000
0001
0010
,
0100
0010
0001
1000
0010
1000
0001
0010
0100
1000
0001
1000
0100
0010
0001
1000
,
0001
0010
0100
1000
0010
0100
0001
1000
0001
0010
0100
1000
0010
0100
0001
1000
,
0001
0010
0100
1000
0010
0100
0001
1000
0001
0010
0100
1000
0010
0100
0001
1000
,
0001
0100
0010
1000
0001
1000
0001
0010
0100
1000
0001
1000
0001
0100
0010
1000
,
0001
0010
0100
1000
0001
0100
0001
1000
0100
0010
0100
1000
0001
0100
0001
1000
,
0100
0010
0001
1000
0010
0100
0001
0100
0010
1000
0001
1000
0100
0010
0100
1000
,
0001
0010
0001
1000
0010
1000
0001
0010
0100
0010
0001
1000
0010
0100
0010
1000
,
0001
0100
0001
0010
0001
1000
0100
1000
0010
1000
0001
0100
0010
0100
0001
1000
,
0100
0010
0001
1000
0001
0100
0010
1000
0001
0010
0100
0010
0001
1000
0100
1000
,
0001
0100
0010
1000
0001
1000
0100
1000
0001
0010
0100
0010
0001
1000
0010
0100
,
0001
1000
0001
1000
0100
0010
0001
1000
0010
1000
0001
0100
0010
0100
0001
0010
,
0100
1000
0010
1000
0001
1000
0010
1000
0100
0010
0001
0010
0100
1000
0010
0100
,
0001
0100
0010
1000
0001
1000
0100
1000
0001
1000
0001
0100
0001
1000
0010
0100
,
0001
1000
0001
1000
0100
0010
0100
1000
0001
1000
0001
0100
0010
1000
0001
0100
,
0001
0010
0100
1000
0001
0010
0001
1000
0010
0100
0001
1000
0100
0010
0100
1000
,
0001
0100
0001
0000
1000
0100
1000
0000
0001
0010
0001
0000
1000
0010
1000
0000
,
0001
0010
0000
0001
1000
0000
0100
0010
0000
0001
1000
0000
0004
0000
0000
0000
,
0013
0100
1000
0001
0100
0010
1000
0001
1000
0001
0010
0100
1000
0001
0010
0001
,
0100
0010
1000
0001
0010
0100
1000
0001
1000
0001
0100
0010
1000
0100
1000
0001
,
0010
0100
1000
0001
0100
0010
1000
0001
1000
0001
0010
0100
1000
0001
0010
0001
,
0100
0010
1000
0001
0010
0100
0010
0001
1000
0100
1000
0001
1000
0001
0100
0001
,
0010
0100
1000
0001
0100
0010
1000
0001
1000
0001
0010
0100
1000
0001
0010
0001
,
0100
0010
1000
0001
0010
0100
1000
0001
1000
0001
0100
0010
1000
0001
0100
0001
,
0010
0100
1000
0001
0100
0010
1000
0001
1000
0001
0010
0100
1000
0001
0010
0001
,
0100
0010
1000
0001
0100
0010
0100
0001
1000
0010
1000
0001
1000
0001
0010
0001
,
0100
0010
1000
0001
0010
0100
1000
0001
1000
0010
0100
0010
1000
0001
0100
0001
,
0010
0100
1000
0001
0100
0010
1000
0001
1000
0100
0010
0100
1000
0001
0010
0001
,
0100
0010
1000
0001
0010
0100
1000
0001
1000
0010
0100
0010
1000
0001
0100
0001
,
0010
0100
1000
0001
0100
0010
0100
0001
1000
0010
1000
0001
1000
0001
0010
0001
,
0100
0010
1000
0001
0010
0100
1000
0001
1000
0010
0100
0010
1000
0001
0100
0001
,
0010
0100
1000
0001
0100
0010
1000
0001
1000
0100
0010
0100
1000
0001
0010
0001
,
0100
0010
1000
0001
0010
0100
1000
0001
1000
0010
0100
0010
1000
0001
0100
0001
,
0010
0100
1000
0001
0100
0010
0100
0001
1000
0010
1000
0001
1000
0100
0010
0001
,
1000
0000
0001
0000
1000
0000
0001
0000
0010
0000
0100
1000
0000
0001
1000
0100
,
0010
0000
0001
0000
1000
0000
0010
0000
0100
0000
0001
0100
0000
0010
1000
0001
,
1000
0000
0010
0000
0100
0000
0010
0000
1000
0000
0001
0010
0000
0100
1000
0001
,
0100
0000
0001
0000
1000
0000
0001
0000
0100
0010
0000
1000
0001
0000
0010
0100
,
1000
0000
0001
0000
1000
0000
0001
0000
0100
0000
0010
1000
0000
0001
1000
0010
,
0100
0000
0001
0000
1000
0000
0100
0000
0010
0000
0001
0010
0000
0100
1000
0001
,
1000
0000
0100
0000
0010
0000
0100
0000
1000
0000
0001
0100
0000
0010
1000
0001
,
0010
0000
0001
0000
1000
0000
0001
0000
0010
0100
0000
0010
0001
0000
1000
0010
,
0100
0000
0000
0000
0002
0003
0000
0000
0002
0003
0000
0000
1000
0000
0000
0000
0020
0030
0000
0000
0020
0030
0000
0000
0100
0000
0000
0000
0001
0000
0000
0000
,
1000
0000
0000
0000
0200
0300
0000
0000
0200
0300
0000
0000
1000
0000
0000
0000
0001
0000
0000
0000
0010
0000
0000
0000
0001
0000
0000
0000
0100
0000
0000
0000
,
0010
1000
0001
0100
0001
1000
0100
1000
,
0010
0000
0100
0000
0001
0000
1000
0000
0001
0010
0000
0001
1000
0000
0010
0100
,
0001
1000
0100
0010
0100
1000
0010
0100
,
0001
1000
0001
1000
0001
1000
0001
1000
,
0001
1000
0001
1000
0001
1000
0001
1000
,
0001
0100
0010
0100
0001
1000
0010
0100
0001
1000
0001
0010
0100
1000
0001
0200
,
0000
0000
0000
0000
,
0000
0000
0000
0000
,
0300
0000
0000
0000
;

//---------------dance-single - 16+ (D4RK)----------------
#NOTES:
     dance-single:
     16+ (D4RK):
     Hard:
     16:
     1.000,1.000,0.121,0.139,1.000,3289.000,39.000,45.000,8.000,0.000:
0000
0000
0000
0000
,
0000
0000
0000
0000
,
0000
0000
0000
0000
,
1000
0000
0010
0000
0100
0001
0100
0000
0010
1000
0010
0000
1000
0001
1000
0000
,
0001
0000
0010
0000
0100
1000
0100
0000
0010
0001
0010
0000
0001
1000
0001
0000
,
1000
0000
0010
0000
0100
0001
0100
0000
0010
1000
0010
0000
1000
0001
1000
0000
,
0001
0000
0010
0000
0100
1000
0100
0000
0010
0001
0010
0000
0001
1000
0001
0000
,
1000
0000
0100
0000
0010
0001
0010
0000
0100
1000
0100
0000
1000
0001
1000
0000
,
0001
0000
0100
0000
0010
1000
0010
0000
0100
0001
0100
0000
0001
1000
0001
0000
,
1000
0000
0100
0000
0010
0001
0010
0000
0100
1000
0100
0000
1000
0001
1000
0000
,
0001
0000
0100
0000
0010
1000
0010
0000
0100
0001
0100
0000
0001
1000
0001
1000
,
0001
0010
0100
1000
0000
0001
0100
0000
0001
0100
0010
1000
0000
0001
0010
0000
,
0001
0010
0100
1000
0000
0001
0100
0000
0001
0100
0010
1000
0000
0001
1000
0000
,
1000
0100
0010
0001
0000
1000
0010
0000
1000
0010
0100
0001
0000
1000
0100
0000
,
1000
0100
0010
0001
0000
1000
0010
0000
1000
0010
0100
0001
0000
1000
0001
0000
,
0001
0010
0100
1000
0000
0001
0100
0000
0001
0100
0010
1000
0000
0001
0010
0000
,
0001
0010
0100
1000
0000
0001
0100
0000
0001
0100
0010
1000
0000
0001
1000
0000
,
1000
0100
0010
0001
0000
1000
0010
0000
1000
0010
0100
0001
0000
1000
0100
0000
,
100M
0100
0010
0001
0000
1000
0010
0000
1M00
0010
0400
0000
0304
0000
4003
0000
,
310M
0010
0001
0100
0010
1000
0010
1000
0001
0010
0100
1000
0001
0100
0001
0100
,
0010
1000
0001
0010
0100
1000
0100
1000
0001
0100
0010
1000
0001
0010
0001
0010
,
0100
1000
0001
0100
0010
1000
0010
1000
0001
0010
0100
1000
0001
0100
0001
0100
,
0010
1000
0001
0010
0100
1000
0100
1000
0001
0100
0010
1000
0001
0010
0001
0010
,
0100
1000
0001
1000
0010
0100
0001
0100
0001
1000
0100
0010
0001
1000
0010
1000
,
0010
0100
0001
1000
0100
0010
0001
0010
0001
1000
0010
0100
0001
1000
0100
1000
,
0100
0010
0001
1000
0010
0100
0001
0100
0001
1000
0100
0010
0001
1000
0010
1000
,
0010
0100
0001
1000
0100
0010
0001
1000
0001
0100
0010
1000
0001
0000
1000
0000
,
0001
1000
0001
0100
0010
1000
0010
1000
0001
0010
0100
1000
0001
0010
0001
0010
,
0100
1000
0001
0100
0010
1000
0001
1000
0100
0010
0001
0100
0001
0100
0010
1000
,
0100
0010
0100
0010
0001
1000
0001
0100
0010
1000
0001
0100
0010
1000
0010
1000
,
0001
0010
0100
1000
0010
0100
0010
0100
0001
1000
0001
0010
0100
1000
0001
0100
,
0001
0010
0100
0010
0001
1000
0010
0100
0010
1000
0001
1000
0010
1000
0001
1000
,
0100
0010
0100
1000
0001
1000
0100
0010
0001
1000
0100
1000
0010
1000
0001
1000
,
0010
0100
0001
0100
0010
1000
0010
1000
0001
0100
0001
1000
0100
0010
0100
0010
,
M001
0000
0010
0100
1000
0010
0100
0001
0100
0010
4000
0000
3040
0000
4030
0000
,
3001
0010
0100
1000
0010
0100
0001
0010
0100
0010
0001
1000
0001
0010
0100
1000
,
0010
0100
0010
0100
0001
0100
0001
0100
0001
1000
0001
1000
0100
1000
0100
1000
,
0001
0100
0010
0100
0001
0010
0100
1000
0010
0100
0010
1000
0001
0010
0100
1000
,
0001
0100
0001
0100
0010
1000
0010
1000
0001
1000
0001
1000
0001
0010
0001
0010
,
0100
1000
0001
0100
0010
0100
0001
0010
0100
1000
0001
0100
0010
0100
0001
0010
,
0100
1000
0100
1000
0001
1000
0001
1000
0010
0100
0010
0100
0001
0100
0001
0100
,
0010
1000
0001
0010
0100
0010
0001
0100
0010
1000
0001
0010
0100
0010
0001
0100
,
0010
1000
0010
1000
0001
1000
0001
1000
0001
0010
0001
0010
0100
0000
1000
0000
,
0001
0100
0010
1000
0100
0010
0001
0100
0010
0100
0001
1000
0001
0100
0010
1000
,
0100
0010
0100
0010
0001
0010
0001
0010
0001
1000
0001
1000
0010
1000
0010
1000
,
0001
0010
0100
0010
0001
0100
0010
1000
0100
0010
0100
1000
0001
0100
0010
1000
,
0001
0010
0001
0010
0100
1000
0100
1000
0001
1000
0001
1000
0001
0100
0001
0100
,
0010
1000
0001
0010
0100
0010
0001
0100
0010
1000
0001
0010
0100
0010
0001
0100
,
0010
1000
0010
1000
0001
1000
0001
1000
0100
0010
0100
0010
0001
0010
0001
0010
,
0004
4000
0000
0000
0000
0000
0000
0000
0000
0000
0000
0000
0000
0000
0000
0000
0000
0000
0000
0000
0000
0000
0000
0000
,
0000
0000
0000
0000
0000
0000
0000
0000
0000
0000
0003
0000
,
3001
0100
0010
1000
,
0001
0010
0100
1000
,
0100
0010
0001
1000
,
0010
0100
0001
1000
,
0100
0010
0001
0100
,
0010
1000
0001
0100
,
0010
1000
0010
0100
,
0001
0000
1000
0000
0010
0000
0100
0001
,
1001
0101
0000
0011
0000
1001
0000
1010
,
0000
1100
0000
0011
0000
1001
0000
1010
,
0000
0110
0000
0101
0000
1010
0000
1001
,
0000
1100
0000
0011
0000
1010
0000
0010
,
0100
0001
1000
0100
0010
0100
1000
0001
0100
0010
1000
0001
1000
0010
0100
0001
,
1000
0001
0010
0100
0010
0001
1000
0001
0100
0010
0100
0001
1000
0100
0010
0100
,
4000
0004
0000
0000
0000
0000
0000
0000
0000
0000
0000
0000
0000
0000
0000
0000
0000
0000
0000
0000
0000
0000
0000
0000
,
0000
0000
0000
3003
,
1000
0010
0100
0000
0001
0100
0010
0000
1000
0100
0010
0000
0001
0010
0100
0000
,
1000
0001
0100
0000
0010
1000
0001
0000
0010
0100
1000
0000
0010
0100
0001
0000
,
1000
0001
0010
0000
0100
1000
0010
0000
1000
0010
0100
0000
0001
0100
0010
0000
,
1000
0100
0010
0000
0001
0010
0100
0000
1000
0001
0100
0000
0010
1000
0001
0000
,
0010
0100
1000
0000
0010
0100
0001
0000
1000
0001
0010
0000
0100
1000
0010
0000
,
1000
0001
0010
0000
0001
0100
0010
0000
1000
0010
0100
0000
0001
0010
0100
0000
,
1000
0100
0010
0000
0001
1000
0010
0000
0100
0001
1000
0000
0100
0010
0001
0000
,
0100
0010
1000
0000
0001
1000
0100
0000
0010
0001
0100
0000
0010
0000
1000
0000
,
0M11
0000
0010
0000
0001
0100
0010
0000
1000
0010
0100
0000
0001
0010
0100
0000
,
1000
0100
0010
0000
0001
1000
0010
0000
0100
0001
1000
0000
0100
0010
0001
0000
,
0100
0010
1000
0000
0001
1000
0100
0000
0010
0001
0100
0000
0001
0100
0010
0000
,
1000
0010
0100
0000
0001
0010
0100
0000
1000
0100
0010
0000
0001
1000
0010
0000
,
0100
0001
1000
0000
0100
0010
0001
0000
0100
0010
1000
0000
0001
1000
0100
0000
,
0010
0001
0100
0000
0001
1000
0100
0000
1000
0010
0100
0000
0001
0100
0010
0000
,
1000
0010
0100
0001
1000
0010
0100
0001
1000
0100
0010
0001
1000
0100
0010
0001
,
4000
0004
0000
0000
0000
0000
0000
0000
0000
0000
0000
0000
0000
0000
0000
0000
0000
0000
0000
0000
0000
0000
0000
0000
,
3003
0000
1000
0000
,
1000
0000
0000
0000
0000
0000
0000
0000
0000
0000
0000
0000
0000
0000
0000
0000
0002
0000
0000
0000
0000
0000
0000
0000
0000
0000
0000
0000
0000
0000
0000
0003
0002
0000
0000
0000
0000
0000
0000
0000
0000
0000
0000
0000
0000
0000
0000
0003
0002
0000
0000
0000
0000
0000
0000
0000
0023
0000
0000
0000
0000
0000
0000
0000
,
0130
1000
0001
1000
0010
0100
0001
0100
0010
1000
0001
1000
0100
0010
0100
1000
,
0001
0010
0001
1000
0010
1000
0001
0010
0100
0010
0001
1000
0010
0100
0010
1000
,
0001
0100
0001
0010
0001
1000
0100
1000
0010
1000
0001
0100
0010
0100
0001
1000
,
0100
0010
0001
1000
0001
0100
0010
1000
0001
0010
0100
0010
0001
1000
0100
1000
,
0001
0100
0010
1000
0001
1000
0100
1000
0001
0010
0100
0010
0001
1000
0010
0100
,
0001
1000
0001
1000
0100
0010
0001
1000
0010
1000
0001
0100
0010
0100
0001
0010
,
0100
1000
0010
1000
0001
1000
0010
1000
0100
0010
0001
0010
0100
1000
0010
0100
,
0001
0100
0010
1000
0001
1000
0100
1000
0001
1000
0001
0100
0001
1000
0010
0100
,
0001
1000
0001
1000
0100
0010
0100
1000
0001
1000
0001
0100
0010
1000
0001
0100
,
0001
0010
0100
1000
0001
0010
0001
1000
0010
0100
0001
1000
0100
0010
0100
1000
,
0010
0100
0001
1000
0010
1000
0001
1000
0100
0010
0001
1000
0100
1000
0001
0100
,
0010
0100
0001
1000
0100
1000
0001
0100
0010
1000
0001
1000
0010
0100
0001
1000
,
0001
0010
0100
0010
0001
1000
0001
1000
0001
0100
0001
0100
0010
1000
0010
0100
,
0001
1000
0001
0010
0100
1000
0001
1000
0010
0100
0001
1000
0001
0010
0100
1000
,
0001
0100
0010
1000
0001
1000
0100
0010
0100
1000
0001
0010
0001
1000
0010
0100
,
0010
0000
0000
0000
0000
0000
0000
0000
0000
0000
0000
0000
0000
0000
0000
0000
0000
0000
0000
0000
0000
0000
0000
0000
0000
0000
0000
0000
0000
0000
0000
0000
0000
0000
0000
0000
0000
0000
0000
0000
0000
0000
0000
0000
0000
0000
0000
0000
0200
0000
0000
0000
0000
0000
0000
0000
0000
0000
0000
0000
0000
0000
0000
0000
0000
0000
0000
0000
0000
0000
0000
0000
0000
0000
0000
0000
0000
0000
0000
0000
0000
0000
0000
0000
0000
0000
0000
0000
0000
0000
0000
0000
0000
0000
0300
0000
0200
0000
0000
0000
0000
0000
0000
0000
0000
0000
0000
0000
0000
0000
0000
0000
0000
0000
0000
0000
0000
0000
0000
0000
0000
0000
0000
0000
0000
0000
0000
0000
0000
0000
0000
0000
0000
0000
0000
0000
0000
0000
0000
0000
0000
0000
0000
0000
0310
0000
0000
0000
0000
0000
0000
0000
0000
0000
0000
0000
0000
0000
0000
0000
0000
0000
0000
0000
0000
0000
0000
0000
0010
0000
0000
0000
0000
0000
0000
0000
0000
0000
0000
0000
0000
0000
0000
0000
0000
0000
0000
0000
0000
0000
0000
0000
,
1000
0001
1000
0001
0010
0100
1000
0100
0010
0001
1000
0001
0100
0010
0100
0001
,
1000
0010
1000
0001
0010
0001
1000
0010
0100
0010
1000
0001
0010
0100
0010
0001
,
1000
0100
1000
0010
1000
0001
0100
0001
0010
0001
1000
0100
0010
0100
1000
0001
,
0100
0010
1000
0001
1000
0100
0010
0001
1000
0010
0100
0010
1000
0001
0100
0001
,
1000
0100
0010
0001
1000
0001
0100
0001
1000
0010
0100
0010
1000
0001
0010
0100
,
1000
0001
1000
0001
0100
0010
1000
0001
0010
0001
1000
0100
0010
0100
1000
0010
,
0100
0001
0010
0001
1000
0001
0010
0001
0100
0010
1000
0010
0100
0001
0010
0100
,
1000
0100
0010
0001
1000
0001
0100
0001
1000
0001
1000
0100
1000
0001
0010
0100
,
1000
0001
1000
0001
0100
0010
0100
0001
1000
0001
1000
0100
0010
0001
1000
0100
,
1000
0010
0100
0001
1000
0010
1000
0001
0010
0100
1000
0001
0100
0010
0100
0001
,
0010
0100
1000
0001
0010
0001
1000
0001
0100
0010
1000
0001
0100
0001
1000
0100
,
0010
0100
1000
0001
0100
0001
1000
0100
0010
0001
1000
0001
0010
0100
1000
0001
,
1000
0010
0100
0001
0010
0100
1000
0001
1000
0010
0100
0001
0010
0100
1000
0001
,
1000
0010
0100
0001
0010
0100
1000
0001
1000
0010
0100
0001
0010
0100
1000
0001
,
1000
0100
0010
0001
1000
0001
1000
0010
0100
0001
1000
0001
1000
0100
0010
0001
,
0100
0010
0100
0010
1000
0001
0100
0010
1000
0001
0100
0010
1000
0001
1000
0001
,
0010
0001
1000
0001
0100
0010
1000
0010
0100
0001
1000
0001
0010
0100
0010
0001
,
1000
0100
1000
0001
0100
0001
1000
0100
0010
0100
1000
0001
0100
0010
0100
0001
,
1000
0010
1000
0100
1000
0001
0010
0001
0100
0001
1000
0010
0100
0010
1000
0001
,
0010
0100
1000
0001
1000
0010
0100
0001
1000
0100
0010
0100
1000
0001
0010
0001
,
1000
0010
0100
0001
1000
0001
0010
0001
1000
0100
0010
0100
1000
0001
0100
0010
,
1000
0001
1000
0001
0010
0100
1000
0001
0100
0001
1000
0010
0100
0010
1000
0100
,
0010
0001
0100
0001
1000
0001
0100
0001
0010
0100
1000
0100
0010
0001
0100
0010
,
1000
0010
0100
0001
1000
0001
0010
0001
1000
0001
1000
0010
1000
0001
0100
0010
,
1000
0001
1000
0001
0010
0100
0010
0001
1000
0001
1000
0010
0100
0001
1000
0010
,
1000
0100
0010
0001
1000
0100
1000
0001
0100
0010
1000
0001
0010
0100
0010
0001
,
0100
0010
1000
0001
0100
0001
1000
0001
0010
0100
1000
0001
0010
0001
1000
0010
,
0100
0010
1000
0001
0010
0001
1000
0010
0100
0001
1000
0001
0100
0010
1000
0001
,
1000
0100
0010
0001
0100
0010
1000
0001
1000
0100
0010
0001
0100
0010
1000
0001
,
1000
0100
0010
0001
0100
0010
1000
0001
1000
0100
0010
0001
0100
0010
1000
0001
,
1000
0010
0100
0001
1000
0001
1000
0100
0010
0001
1000
0001
1000
0010
0100
0001
,
1000
0100
0010
0001
1000
0001
0010
0100
1000
0001
0010
0100
1000
0010
1000
0001
,
0010
0001
1000
0001
0100
0010
1000
0010
0100
0001
1000
0001
0010
0100
0010
0001
,
1000
0100
1000
0001
0100
0001
1000
0100
0010
0100
1000
0001
0100
0010
0100
0001
,
1000
0010
1000
0100
1000
0001
0010
0001
0100
0001
1000
0010
0100
0010
1000
0001
,
0010
0100
1000
0001
1000
0010
0100
0001
1000
0100
0010
0100
1000
0001
0010
0001
,
1000
0010
0100
0010
1000
0001
0010
0001
1000
0100
0010
0001
1000
0100
1000
0010
,
0100
0001
0100
0010
0100
0001
1000
0100
0010
0001
1000
0001
1000
0100
1000
0100
,
0010
0100
1000
0001
1000
0010
0100
0001
1000
0001
0100
0010
1000
0001
0010
0100
,
0010
0001
1000
0010
1000
0001
0010
0100
1000
0001
1000
0010
0100
0001
1000
0001
,
1000
0100
0010
0100
1000
0010
1000
0001
0010
0100
0010
0001
1000
0001
0100
0010
,
1000
0001
1000
0100
0010
0001
1000
0001
0100
0001
1000
0001
1000
0100
0010
0001
,
1000
0100
1000
0000
0001
0100
0001
0000
1000
0010
1000
0000
0001
0010
0001
0000
,
1000
0010
0100
0001
0010
0100
1000
0010
0100
0001
0010
0100
4000
0000
0000
0000
,
3001
0100
0010
0000
1000
0010
0100
0000
0001
0010
0100
0000
1000
0100
0010
0000
,
0001
1000
0010
0000
0100
0001
1000
0000
0100
0010
0001
0000
0100
0010
1000
0000
,
0001
1000
0100
0000
0010
0001
0100
0000
0001
0100
0010
0000
1000
0010
0100
0000
,
0001
0010
0100
0000
1000
0100
0010
0000
0001
1000
0010
0000
0100
0001
1000
0000
,
0100
0010
0001
0000
0100
0010
1000
0000
0001
1000
0100
0000
0010
0001
0100
0000
,
0001
1000
0100
0000
1000
0010
0100
0000
0001
0100
0010
0000
1000
0100
0010
0000
,
0100
0010
0001
1000
0010
0100
0001
1000
0001
1000
0100
0010
0001
1000
0100
1000
,
0010
0100
0001
1000
0100
0010
0001
1000
0001
1000
0010
0100
0001
0000
0010
0000
,
M100
0010
0001
1000
0010
0100
0001
1000
0001
1000
0100
0010
0001
1000
0100
1000
,
0010
0100
0001
1000
0100
0010
0001
1000
0001
1000
0010
0100
0001
1000
0010
1000
,
0100
0010
0001
1000
0010
0100
0001
1000
0001
1000
0100
0010
0001
1000
0100
1000
,
0010
0100
0001
1000
0100
0010
0100
1000
0001
0010
0001
1000
0001
1000
0010
1000
,
0100
0010
0001
1000
0010
0100
0001
1000
0001
1000
0100
0010
0001
1000
0100
1000
,
0010
0100
0001
1000
0100
0010
0001
1000
0001
1000
0010
0100
0001
1000
0010
1000
,
0100
0010
0001
1000
0010
0100
0001
1000
0001
1000
0100
0010
0001
1000
0100
1000
,
0010
0100
0001
1000
0010
0100
0010
1000
0001
0100
0001
1000
0001
1000
0100
1000
,
0010
0100
0001
1000
0100
0010
0001
1000
0001
0100
0010
0100
0001
1000
0010
1000
,
0100
0010
0001
1000
0010
0100
0001
1000
0001
0010
0100
0010
0001
1000
0100
1000
,
0010
0100
0001
1000
0100
0010
0001
1000
0001
0100
0010
0100
0001
1000
0010
1000
,
0100
0010
0001
1000
0010
0100
0010
1000
0001
0100
0001
1000
0001
1000
0100
1000
,
0010
0100
0001
1000
0100
0010
0001
1000
0001
0100
0010
0100
0001
1000
0010
1000
,
0100
0010
0001
1000
0010
0100
0001
1000
0001
0010
0100
0010
0001
1000
0100
1000
,
0010
0100
0001
1000
0100
0010
0001
1000
0001
0100
0010
0100
0001
1000
0010
1000
,
0100
0010
0001
1000
0010
0100
0010
1000
0001
0100
0001
1000
0001
0010
0100
1000
,
0010
1000
0001
1000
0010
0100
0001
1000
0001
0010
0100
0010
0001
1000
0100
1000
,
0010
0100
0001
1000
0100
0010
0001
1000
0001
0100
0010
0100
0001
1000
0010
1000
,
0100
0010
0001
1000
0010
0100
0001
1000
0001
0010
0100
0010
0001
1000
0100
1000
,
0010
0100
0001
1000
0100
0010
0001
1000
0001
0100
0010
0100
0001
1000
0010
1000
,
0001
0100
0010
1000
0001
0010
0100
1000
,
0001
0010
0001
1000
0010
0100
0001
1000
,
0010
0100
0001
1000
0010
0100
0001
0010
0100
1000
0001
0010
0100
1000
0001
0100
,
0010
0000
0000
0000
0000
0000
0000
0000
0000
0000
0000
0000
0000
0000
0000
0000
0000
0000
0000
0000
0000
0000
0000
0000
0000
0000
0000
0000
0000
0000
0000
0000
0000
0000
0000
0000
0000
0000
0000
0000
0000
0000
0000
0000
0000
0000
0000
0000
2000
0000
0000
0000
0000
0000
0000
0000
0000
0000
0000
0000
0000
0000
0000
0000
0000
0000
0000
0000
0000
0000
0000
0000
0000
0000
0000
0000
0000
0000
0000
0000
0000
0000
0000
0000
0000
0000
0000
0000
0000
0000
0000
0000
0000
0000
3000
0000
2000
0000
0000
0000
0000
0000
0000
0000
0000
0000
0000
0000
0000
0000
0000
0000
0000
0000
0000
0000
0000
0000
0000
0000
0000
0000
0000
0000
0000
0000
0000
0000
0000
0000
0000
0000
0000
0000
0000
0000
0000
0000
0000
0000
0000
3000
0000
0000
2000
0000
0000
0000
0000
0000
0000
0000
0000
0000
0000
0000
0000
0000
0000
0000
0000
0000
0000
0000
0000
0000
0000
0000
0000
0000
0000
0000
0000
0000
0000
0000
0000
0000
0000
0000
0000
0000
0000
0000
0000
0000
0000
0000
0000
0000
0000
0000
,
3020
0000
0230
0302
0000
0000
0000
0000
,
0000
0000
0000
0000
0000
0000
0000
0000
0000
0000
0000
0000
0000
0000
0000
0000
0203
0000
0000
0000
0000
0000
0000
0000
0000
0000
0000
0000
0000
0000
0000
0300
0020
0000
0000
0000
0000
0000
0000
0000
0000
0000
0000
0000
0000
0000
0000
0000
2030
0000
0000
0000
0000
0000
0000
0000
0000
0000
0000
0000
0000
0000
0000
0000
,
3002
2003
3002
2003
3002
0000
0023
0230
,
0000
2300
0000
3002
0000
0003
0000
0200
,
0320
0000
0000
0000
0000
0000
0000
0000
0000
0000
0000
0000
0000
0000
0000
0000
0000
0000
0000
0000
0000
0000
0000
0000
0000
0000
0000
0000
0000
0000
0000
0000
0000
0000
0000
0000
0000
0000
0000
0000
0000
0000
0000
0000
0000
0000
0000
0000
2030
0000
0000
0000
0000
0000
0000
0000
0000
0000
0000
0000
0000
0000
0000
0000
0000
0000
0000
0000
0000
0000
3000
0000
2000
0000
0000
0000
0000
0000
0000
0000
0000
0000
0000
0000
0000
0000
0000
0000
0000
0000
0000
0000
0000
0000
0000
0000
0000
0000
0000
0000
0000
0000
0000
0000
0000
0000
0000
0000
0000
0000
0000
0000
0000
0000
0000
0000
0000
0000
0000
0000
0000
0000
0000
0000
0000
0000
0000
0000
0000
0000
0000
0000
0000
0000
0000
0000
0000
0000
0000
0000
0000
0000
0000
0000
0000
0000
0000
0000
0000
0000
0000
0000
0000
0000
0000
0000
0000
0000
0000
0000
0000
0000
0000
0000
0000
0000
0000
0000
3001
0000
0000
0000
0000
0000
0000
0000
0000
0000
0000
0000
0000
0000
0000
0000
0000
0000
0000
0000
0000
0000
0000
0000
,
0200
0000
0000
0000
0000
0000
0000
0000
0000
0000
0000
0000
0000
0000
0000
0000
0320
0000
0000
0000
0000
0000
0000
0030
0020
0000
0000
0000
0000
0000
0000
0000
0000
0000
0000
0000
0000
0000
0000
0000
0000
0000
0000
0000
0000
0000
0000
0000
0000
0000
0000
0000
0000
0000
0000
0000
0000
0000
0000
0000
0000
0000
0000
0000
,
2030
3002
2003
3002
2003
3002
0000
0023
,
0000
0000
0000
0000
0000
0030
0200
2300
,
3010
0100
0101
0001
0010
0100
1100
1000
,
0010
0100
0101
0001
0010
0100
1100
1000
,
0100
0010
0011
0001
0100
0010
1010
1000
,
0100
0010
0011
0001
0100
0010
1010
1000
,
0010
0100
0101
0001
0010
0100
1100
1000
,
0010
0100
0101
0001
0010
0100
1100
1000
,
0100
0010
0011
0001
0100
0010
1010
1000
,
0100
0000
0000
0000
0000
0000
0000
0000
0010
0000
0000
0000
0000
0000
0000
0000
0002
0000
0000
0000
0000
0000
0000
0000
0000
0000
0000
0000
0000
0000
0000
0003
0002
0000
0000
0000
0000
0000
0000
0000
0000
0000
0000
0000
0000
0000
0000
0003
0002
0000
0000
0000
0000
0000
0000
0000
2003
0000
0000
0000
0000
0000
0000
0000
,
3001
1000
0001
1000
0010
0100
0001
0100
0010
1000
0001
1000
0100
0010
0100
1000
,
0001
0010
0001
1000
0010
1000
0001
0010
0100
0010
0001
1000
0010
0100
0010
1000
,
0001
0100
0001
0010
0001
1000
0100
1000
0010
1000
0001
0100
0010
0100
0001
1000
,
0100
0010
0001
1000
0001
0100
0010
1000
0001
0010
0100
0010
0001
1000
0100
1000
,
0001
0100
0010
1000
0001
1000
0100
1000
0001
0010
0100
0010
0001
1000
0010
0100
,
0001
1000
0001
1000
0100
0010
0001
1000
0010
1000
0001
0100
0010
0100
0001
0010
,
0100
1000
0010
1000
0001
1000
0010
1000
0100
0010
0001
0010
0100
1000
0010
0100
,
0001
0100
0010
1000
0001
1000
0100
1000
0001
1000
0001
0100
0001
1000
0010
0100
,
0001
1000
0001
1000
0100
0010
0100
1000
0001
1000
0001
0100
0010
1000
0001
0100
,
0001
0010
0100
1000
0001
0010
0001
1000
0010
0100
0001
1000
0100
0010
0100
1000
,
0010
0100
0001
1000
0010
1000
0001
1000
0100
0010
0001
1000
0100
1000
0001
0100
,
0010
0100
0001
1000
0100
1000
0001
0100
0010
1000
0001
1000
0010
0100
0001
1000
,
0001
0010
0100
0010
0001
1000
0001
1000
0001
0100
0001
0100
0010
1000
0010
0100
,
0001
1000
0001
0010
0100
1000
0001
1000
0010
0100
0001
1000
0001
0010
0100
1000
,
0001
0100
0010
1000
0001
1000
0100
0010
0100
1000
0001
0010
0001
1000
0010
0100
,
0010
1000
0001
0010
0100
1000
0001
0010
0100
1000
0001
0010
0001
0100
0001
1000
,
0001
1000
0001
1000
0100
0010
0001
0010
0100
1000
0001
1000
0010
0100
0010
1000
,
0001
0100
0001
1000
0100
1000
0001
0100
0010
0100
0001
1000
0100
0010
0100
1000
,
0001
0010
0001
0100
0001
1000
0010
1000
0100
1000
0001
0010
0100
0010
0001
1000
,
0010
0100
0001
1000
0001
0010
0100
1000
0001
0100
0010
0100
0001
1000
0010
1000
,
0001
0010
0100
1000
0001
1000
0010
1000
0001
0100
0010
0100
0001
1000
0100
0010
,
0001
1000
0001
1000
0010
0100
0001
1000
0100
1000
0001
0010
0100
0010
0001
0100
,
0010
1000
0100
1000
0001
1000
0100
1000
0010
0100
0001
0100
0010
1000
0100
0010
,
0001
0010
0100
1000
0001
1000
0010
1000
0001
1000
0001
0010
0001
1000
0100
0010
,
0001
1000
0001
1000
0010
0100
0010
1000
0001
1000
0001
0010
0100
1000
0001
0010
,
0001
0100
0010
1000
0001
0100
0001
1000
0100
0010
0001
1000
0010
0100
0010
1000
,
0001
10M1
1000
1M01
,
0001
0000
0000
1000
0000
0000
0010
0000
0000
0100
0000
0000
0001
0000
0000
1000
0000
0000
0100
0000
0000
0010
0000
0000
0001
0000
0000
1000
0000
0000
0010
0000
0000
0100
0000
0000
0004
0000
0400
0000
0000
0000
0003
0000
0300
0000
0000
0000
,
0010
1000
0010
1000
0100
0010
0001
1000
0001
0100
0010
1000
0100
0010
0001
1000
,
0001
0100
0010
1000
0100
0010
0001
1000
0001
0100
0010
1000
0100
0010
0001
1000
,
0001
0010
0100
1000
0001
1000
0001
0100
0010
1000
0001
1000
0001
0010
0100
1000
,
0010
0100
0010
0100
0001
1000
0010
0100
0001
1000
0010
0100
0001
1000
0001
1000
,
0100
1000
0001
1000
0010
0100
0001
0100
0010
1000
0001
1000
0100
0010
0100
1000
,
0001
0010
0001
1000
0010
1000
0001
0010
0100
0010
0001
1000
0010
0100
0010
1000
,
0001
0100
0001
0010
0001
1000
0100
1000
0010
1000
0001
0100
0010
0100
0001
1000
,
0100
0010
0001
1000
0001
0100
0010
1000
0001
0010
0100
0010
0001
1000
0100
1000
,
0001
0100
0010
1000
0001
1000
0100
1000
0001
0010
0100
0010
0001
1000
0010
0100
,
0001
1000
0001
1000
0100
0010
0001
1000
0010
1000
0001
0100
0010
0100
0001
0010
,
0100
1000
0010
1000
0001
1000
0010
1000
0100
0010
0001
0010
0100
1000
0010
0100
,
0001
0100
0010
1000
0001
1000
0100
1000
0001
1000
0001
0100
0001
1000
0010
0100
,
0001
1000
0001
1000
0100
0010
0100
1000
0001
1000
0001
0100
0010
1000
0001
0100
,
0001
0010
0100
1000
0001
0010
0001
1000
0010
0100
0001
1000
0100
0010
0100
1000
,
0010
0100
0001
1000
0010
1000
0001
1000
0100
0010
0001
1000
0100
1000
0001
0100
,
0010
0100
0001
1000
0100
1000
0001
0100
0010
1000
0001
1000
0010
0100
0001
1000
,
0001
0100
0010
0000
1000
0010
0100
0000
0001
0010
0100
0000
1000
0100
0010
0000
,
0001
1000
0010
0000
0100
0001
1000
0000
0100
0010
0001
0000
0100
0010
1000
0000
,
0001
1000
0100
0000
0010
0001
0100
0000
0001
0100
0010
0000
1000
0010
0100
0000
,
0001
0010
0100
0000
1000
0100
0010
0000
0001
1000
0000
0001
1000
0000
0001
0010
,
0100
0010
0001
0000
0100
0010
1000
0000
0001
1000
0100
0000
0010
0001
0100
0000
,
0001
1000
0100
0000
1000
0010
0100
0000
0001
0100
0010
0000
1000
0100
0010
0000
,
0001
0010
0100
0000
1000
0001
0100
0000
0010
1000
0001
0000
0010
0100
1000
0000
,
0010
0100
0001
0000
1000
0001
0010
0000
0100
1000
0000
0100
1000
0000
0001
0100
,
0010
1000
0001
0000
1000
0010
0100
0000
0001
0100
0010
0000
1000
0100
0010
0000
,
0001
0010
0100
0000
1000
0001
0100
0000
0010
1000
0001
0000
0010
0100
1000
0000
,
0010
0100
0001
0000
1000
0001
0010
0000
0100
1000
0010
0000
1000
0010
0100
0000
,
0001
0100
0010
0000
1000
0100
0010
0000
0001
0010
0000
0100
1000
0000
0001
0100
,
0010
1000
0001
0000
0010
0100
1000
0000
0010
0100
0001
0000
1000
0001
0100
0000
,
0001
1000
0001
1000
0001
1000
0001
1000
,
0001
1000
0001
1000
0001
1000
0001
1000
,
0001
0100
0010
0100
0001
1000
0010
0100
0001
1000
0001
0010
0100
1000
0001
0200
,
0000
0000
0000
0000
,
0000
0000
0000
0000
,
0300
0000
0000
0000
;
