#TITLE:Through the Fire and Flames;
#SUBTITLE:;
#ARTIST:Dragonforce;
#TITLETRANSLIT:;
#SUBTITLETRANSLIT:;
#ARTISTTRANSLIT:;
#CREDIT:B. Abear;
#BANNER:Bn-Fire.png;
#BACKGROUND:Bg-Fire.png;
#LYRICSPATH:;
#CDTITLE:;
#MUSIC:Through The Fire And Flames.ogg;
#OFFSET:-1.140;
#SAMPLESTART:95.863;
#SAMPLELENGTH:20.000;
#SELECTABLE:YES;
#BPMS:0.000=200.000,729.000=100.000,763.000=169.999,891.000=199.999,1155.000=99.999,1183.000=199.999;
#STOPS:440.000=2.100
;
#BGCHANGES:;
// cache tags:
#FIRSTBEAT:16.000;
#LASTBEAT:1372.667;
#SONGFILENAME:Songs/Dragonforce/Through The Fire And Flames/Through the Fire and Flames.sm;
#HASMUSIC:1;
#HASBANNER:1;
#MUSICLENGTH:444.055;
// end cache tags

//---------------dance-single - B. Abear----------------
#NOTES:
     dance-single:
     B. Abear:
     Challenge:
     15:
     1.000,1.000,0.218,0.356,1.000,3553.000,97.000,158.000,132.000,7.000:



0000
0000
0000
0000
,
0000
0000
0000
0000
,
0000
0000
0000
0000
,
0000
0000
0000
0000
,
0022
0000
0000
0000
,
0000
0000
0000
0033
,
1001
0000
0000
0000
,
1020
0000
0000
0000
,
0130
0100
0001
1000
0100
0100
0010
0001
,
1000
0000
1000
0000
0001
0000
0100
0000
0010
0000
0010
0000
0100
0001
1000
0100
,
0010
0010
0001
1000
0001
0100
0010
0010
,
1000
0001
0010
0001
0100
0100
0010
1000
,
2020
0000
0000
0000
,
0000
0000
0000
3030
,
1001
0001
1000
0100
0010
0001
0010
0100
,
1100
0101
1001
0000
,
0001
0100
0001
0000
1000
0000
0100
1000
0100
0000
0010
0000
0001
1000
0001
0000
,
0100
0001
0100
0000
0010
0000
0100
0001
0100
0000
0010
0000
1000
0100
1000
0000
,
0001
0010
0001
0000
1000
0000
0010
0100
0010
0000
0100
0000
0001
0100
0001
0000
,
1000
0100
1000
0000
0010
0000
0100
0010
0100
0000
0001
0000
1000
0100
1000
0000
,
0001
0010
0001
0000
0100
0000
0010
0100
0010
0000
1000
0000
0001
0100
0001
0000
,
1000
0001
1000
0000
0010
0000
0100
0010
0100
0000
0001
0000
1000
0100
1000
0000
,
0100
1000
0100
1000
0001
0100
0001
0100
0010
1000
0010
1000
0001
0010
0001
0010
,
0001
0100
0010
1000
0100
0010
0001
1000
0001
0100
0010
1000
0001
1000
0100
0010
,
0001
1000
0001
0000
1000
0000
0100
1000
0100
0000
0010
0000
0001
1000
0001
0000
,
0100
0001
0100
0000
0010
0000
0100
0001
0100
0000
0010
0000
1000
0100
1000
0000
,
0001
0010
0001
0000
1000
0000
0010
0100
0010
0000
0100
0000
0001
0100
0001
0000
,
1000
0100
1000
0000
0010
0000
0100
0010
0100
0000
0001
0000
1000
0100
1000
0000
,
0001
0010
0001
0000
0100
0000
0010
0100
0010
0000
1000
0000
0001
0100
0001
0000
,
1000
0001
1000
0000
0010
0000
0100
0010
0100
0000
0001
0000
1000
0100
1000
0000
,
0001
0100
0010
1000
0001
1000
0100
0010
0001
1000
0001
0100
0010
0100
0001
1000
,
0002
0000
0000
0000
4000
0000
0000
0000
0000
0000
0000
0000
0003
3000
0000
0000
,
1001
0001
0100
0100
0010
0010
0100
0100
,
0001
0001
1000
1000
0100
0100
0010
0010
,
0011
0001
1000
1000
0010
0010
0100
0100
,
0010
0010
1000
1000
0001
0001
0010
0010
,
0110
0100
1000
1000
0001
0001
0100
0100
,
0010
0010
1000
1000
0001
0001
1000
1000
,
0001
0100
0010
0000
1000
0100
0010
0000
0110
0000
2001
0000
0000
0000
3001
0000
,
0100
0010
1000
0001
0100
0001
1000
0001
1000
0010
0100
0010
1000
0001
1000
0100
,
0010
0000
0001
0000
1000
0001
1000
0000
0001
0000
1000
0000
0001
0010
0001
0000
,
1000
0000
0010
0000
1000
0010
1000
0000
0010
0000
0100
0000
0010
0100
0010
0000
,
1000
0000
0100
0000
0010
0001
0010
0000
0001
0000
1000
0000
0001
0100
0001
0000
,
0010
0000
0001
0000
1000
0100
1000
0000
0001
0000
0100
0000
0010
1000
0010
0000
,
0100
0000
0010
0000
1000
0001
1000
0000
0001
0000
0010
0000
0001
1000
0001
0000
,
0100
0000
0001
0000
1000
0010
1000
0000
0001
0000
1000
0000
0001
0010
0001
0000
,
1000
0000
0010
0000
0100
0001
0100
0000
0010
0000
1000
0000
0001
0010
0001
0000
,
1000
0100
0010
0001
1000
0001
0100
0001
0100
0001
1000
0100
0010
0001
1000
0001
,
0100
0000
0001
0000
1000
0100
1000
0000
0001
0000
1000
0000
0010
0100
0010
0000
,
0100
0000
0001
0000
1000
0100
1000
0000
0001
0000
0010
0000
0100
0010
0100
0000
,
1000
0000
0001
0000
1000
0100
1000
0000
0001
0000
1000
0000
0010
0100
0010
0000
,
1000
0000
0100
0000
0010
0001
0010
0000
0001
0000
0100
0000
0001
1000
0001
0000
,
0100
0000
0010
0000
1000
0100
1000
0000
0001
0000
1000
0000
0010
0100
0010
0000
,
1000
0000
0100
0000
0010
0001
0010
0000
0001
0000
1000
0000
0001
0100
0001
0000
,
1000
0010
1000
0010
0100
0001
0100
0001
1000
0100
1000
0100
0010
0001
0010
0001
,
1000
1001
0000
1001
0000
1001
0001
0100
,
0001
0100
0010
1000
0001
1000
0100
1000
0001
0100
0001
1000
0100
0010
0001
1000
,
0010
1000
0001
1000
0100
0010
0001
1000
0100
0010
0100
0010
0001
1000
0001
0100
,
0010
1000
0001
1000
0001
0100
0010
1000
0001
1000
0001
0100
0010
1000
0001
0010
,
0100
1000
0001
0010
0001
1000
0001
0100
0001
1000
0100
1000
0001
0010
0001
1000
,
0010
1000
0010
0100
0001
0100
0010
1000
0001
1000
0100
0010
0001
0010
0100
1000
,
0001
0100
0010
0100
0001
1000
0001
0010
0100
1000
0100
0010
0001
1000
0001
1000
,
0200
0000
0010
0010
0010
0010
0010
0010
,
0310
1001
0101
1100
,
0001
0000
0100
0000
0010
1000
0001
0000
0010
0000
0001
0000
0100
0010
1000
0000
,
0001
0000
0100
0000
0010
1000
0001
0000
1000
0000
0100
0000
1000
0001
0010
0000
,
0100
0000
1000
0000
0001
1000
0010
0000
1000
0000
0010
0000
0100
0001
1000
0000
,
0001
0000
0010
0000
0100
1000
0001
0000
1000
0000
0001
0000
0010
0001
0100
0000
,
0010
0000
1000
0000
0010
1000
0001
0000
0010
0000
0001
0000
1000
0100
0010
0000
,
0001
0000
0100
0000
0010
0100
0001
0000
1000
0000
0001
0000
1000
0100
0010
0000
,
0100
0000
1000
0000
0100
1000
0010
0000
1000
0000
0001
0000
0010
0001
1000
0000
,
0010
1000
0010
1000
0001
0100
0001
0100
0010
1000
0010
1000
0001
0100
0001
0100
,
0010
0000
1000
0000
0001
0100
0010
0000
1000
0000
0100
0000
1000
0001
0100
0000
,
0010
0000
1000
0000
0001
0100
0010
0000
0100
0000
0001
0000
1000
0100
0010
0000
,
0001
0000
1000
0000
0100
0010
0001
0000
1000
0000
0010
0000
1000
0001
0100
0000
,
0010
0000
1000
0000
0001
0010
0100
0000
0010
0000
0001
0000
1000
0001
0100
0000
,
0001
0100
0001
1000
0100
1000
0001
0100
0001
0100
0010
1000
0001
1000
0100
0010
,
0001
1000
0001
0100
0010
1000
0001
1000
0100
1000
0001
0010
0100
0010
0001
0100
,
0010
1000
0010
1000
0002
0000
0013
0001
0010
0001
2000
0000
3001
0100
0002
0000
,
2000
0000
0000
0000
0000
0000
0000
3003
,
0001
0000
1000
0000
0010
1000
0100
0000
0010
0000
0001
0000
1000
0001
0100
0000
,
0010
0000
0100
0000
0001
1000
0100
0000
0010
0000
0100
0000
1000
0001
0010
0000
,
0001
0000
1000
0000
0100
1000
0010
0000
0100
0000
0001
0000
0010
0100
1000
0000
,
0001
0000
0100
0000
0010
1000
0100
0000
0010
0000
0001
0000
0100
0001
1000
0000
,
0001
0100
0010
1000
0001
1000
0100
0010
0001
0100
0001
1000
0100
0010
0100
1000
,
0001
0100
0010
1000
0001
1000
0001
0010
0100
1000
0010
0100
0010
0100
0001
1000
,
0001
0010
0100
1000
0001
0100
0010
1000
0001
1000
0100
0010
0001
1000
0001
0100
,
0001
1000
0010
1000
0002
0000
0013
0001
0010
0001
2000
0000
3010
0100
0020
0000
,
1030
0000
0100
0000
0010
0001
0100
0000
0010
0000
0100
0000
0001
1000
0100
0000
,
0010
0000
0001
0000
0100
0001
0010
0000
0100
0000
1000
0000
0010
0100
0001
0000
,
1000
0000
0100
0000
0010
0001
1000
0000
0001
0000
0100
0000
0010
1000
0100
0000
,
0010
0000
0001
0000
0100
0001
0010
0000
0001
0000
0100
0000
0010
1000
0001
0000
,
1000
0100
1000
0100
0010
0001
0100
0001
0100
0010
1000
0001
1000
0001
0100
0010
,
0100
M000
0000
00M0
0000
0M00
0000
000M
0000
M000
0000
0000
0000
0M00
0000
00M0
,
0001
0100
0002
0000
0000
0000
1003
0100
1000
0000
0001
0000
0100
0000
0010
0000
,
1000
0100
2000
0000
0000
0000
3001
0010
0001
0000
0100
0000
0010
0000
1000
0000
,
0001
0010
0002
0000
0000
0000
1003
0100
1000
0000
0010
0000
0100
0000
0001
0000
,
1000
0100
0001
0200
0000
0000
0000
0300
,
1000
0000
0020
0000
0000
0000
0130
0000
0001
0000
1000
0100
1000
0000
0010
0000
,
0100
0000
0001
0000
0100
0000
0002
0000
0000
0000
0023
0000
0130
1000
0001
0000
,
0100
0010
1000
0001
0100
0001
1000
0100
1000
0010
0100
0001
1000
0100
0010
0001
,
1000
0010
0100
0001
1000
0010
0100
0001
1000
0100
1000
0001
0100
0001
1000
0001
,
1000
0100
0020
0000
0000
0000
0031
0100
0010
0000
1000
0000
0001
0000
1000
0000
,
0100
1000
0002
0000
0000
0000
0103
0010
1000
0000
0001
0000
0100
0000
0010
0000
,
0100
0001
0010
0000
0100
1000
0010
0000
1000
0001
0100
0000
0001
1000
0100
0000
,
0010
0000
0001
0000
0100
0000
2000
0000
0000
0000
0000
3000
0000
0000
0000
0000
,
0100
0001
2000
0000
0000
0000
3001
0010
0100
0000
1000
0000
0001
0000
0100
0000
,
0010
1000
0200
0000
0000
0000
0310
0001
1000
0000
0001
0000
0100
0000
0001
0000
,
1000
0100
0010
0001
1000
0100
0010
0001
1000
0010
0100
0001
1000
0010
0100
0001
,
2000
0000
0000
0000
0000
0000
3001
0000
0000
0100
0000
0000
0002
0000
0000
0000
0000
0000
0003
0000
0000
0000
0000
0000
1001
0000
0000
0000
0000
0000
0000
0000
0101
0000
0000
0000
0000
0000
0000
0000
1010
0000
0000
0000
0000
0000
0000
0000
,
2002
0000
3003
0000
0000
0000
0101
0000
0000
0000
0000
0000
0001
0000
0000
1000
0000
0000
1001
0000
0000
1001
0000
0000
,
0001
0100
0010
1000
0001
0100
0110
0110
,
0010
1000
0100
0010
0001
1000
1100
1100
,
0100
0010
0100
1000
0001
0100
0101
0101
,
0001
1000
0100
1000
0001
0010
0011
0011
,
0001
0000
0100
0000
0010
1000
0001
0100
0001
1000
0100
1000
0001
0010
0001
1000
,
0010
0100
0010
4000
0004
0000
00M0
0000
0000
00M0
0000
0000
0M00
0000
0000
0000
,
0000
3003
0M00
0000
2002
00M0
0000
0000
0000
0M00
0000
0000
00M0
3003
0000
0000
,
M000
0000
000M
0000
1001
0000
1000
0000
0100
0010
0001
0000
0010
0000
0100
0000
,
1000
0001
0100
0000
0010
0000
1000
0000
0010
1000
0001
0000
0100
0000
0001
0000
,
0010
0100
1000
0000
0100
0000
0010
0000
0001
1000
0100
0000
1000
0000
0010
0000
,
0100
0001
1000
0000
0001
0000
0010
0000
0100
1000
0001
0000
0100
0000
0010
0000
,
0100
0001
0100
0000
0010
0000
1000
0000
0001
0010
0100
0000
0010
0000
0001
0000
,
1000
0100
0010
0000
0100
0000
1000
0000
0010
1000
0001
0000
1000
0000
0010
0000
,
0100
0001
1000
0000
0001
0000
0010
0000
0100
1000
0010
0000
1000
0000
0001
0000
,
1000
0001
0010
0000
0001
0100
0001
0100
0010
1000
0010
1000
0001
0010
0001
0010
,
0100
1000
0100
1000
0001
0100
0001
1000
0010
1000
0100
0010
0001
1000
0001
0100
,
0010
0100
0010
1000
0001
0010
0001
0010
0001
1000
0010
1000
0001
0100
0010
1000
,
0100
0010
0001
1000
0001
0010
0001
0010
0100
1000
0100
0010
0001
1000
0001
0100
,
0010
0000
0000
1000
0000
0000
0001
0000
0000
0010
0000
0000
0100
0000
0000
0000
0000
0000
1100
0000
0000
0000
0000
0000
0000
0000
1001
0000
0000
0000
0000
0000
0000
0000
0101
0000
0000
0000
0000
0000
0000
0000
1001
0000
0000
0000
0000
0000
,
0000
0000
0011
0000
0000
0000
0000
0000
0000
0000
0000
0000
0001
0000
0000
1000
0000
0000
0010
0000
0000
1000
0000
0000
0001
0000
0000
0010
0000
0000
0100
0000
0000
1000
0000
0000
0001
0000
0000
1000
0000
0000
0010
0000
0000
1000
0000
0000
,
0100
0010
0001
1000
0001
0010
0100
0010
0001
1000
0010
1000
0001
0010
0100
1000
,
0001
0100
0010
1000
0001
0010
0001
0010
0001
0010
0001
0010
0001
0010
0001
0010
,
0001
0010
0001
0010
0001
0000
00MM
0000
1001
0000
0M0M
0000
1010
0000
MM00
0000
,
0011
0000
0000
0000
0010
0000
0100
0000
1000
0010
1000
0000
0001
0000
0100
0000
,
0010
1000
0010
0000
0100
0000
0001
0000
0010
0001
0010
0000
0100
0000
1000
0000
,
0001
1000
0001
0000
0100
0000
0010
0000
1000
0010
1000
0000
0001
0000
0010
0000
,
0100
1000
0100
0000
0010
0000
0001
0000
1000
0010
1000
0000
0001
0000
0100
0000
,
0010
0100
0010
0000
1000
0000
0001
0000
0010
0100
0010
0000
0001
0000
1000
0000
,
0100
1000
0100
0000
1000
0000
0001
0000
0100
0010
0100
0000
0001
0000
1000
0000
,
0010
1000
0010
0000
0100
0000
0001
0000
0010
0001
0010
0000
0100
0000
1000
0000
,
0001
0010
0001
0000
1000
0010
1000
0010
0100
0001
0100
0001
1000
0100
1000
0100
,
0010
0001
0010
0001
1000
0000
0010
0000
0100
0001
0100
0000
0010
0000
1000
0000
,
0001
0010
0001
0000
1000
0000
0100
0000
1000
0001
1000
0000
0001
0000
0100
0000
,
0010
0100
0010
0000
1000
0000
0001
0000
0010
0001
0010
0000
0100
0000
1000
0000
,
0001
1000
0001
0000
0100
0000
0010
0000
1000
0010
1000
0000
0001
0000
0010
0000
,
0001
0010
0001
0000
0010
0100
1000
0001
1000
0010
1000
0010
0100
0001
1000
0001
,
1000
0010
0100
0001
1000
0100
0010
0001
1000
0010
0100
0001
1000
0001
0010
0001
,
0010
0001
1000
0010
1000
0001
0010
0100
1000
0001
0100
0001
1000
0100
0010
0001
,
0010
0001
0010
0100
4000
0000
0000
0000
0000
0000
0000
0000
0000
0000
0000
0000
,
0000
0000
3000
0000
0001
0000
1000
0000
0001
1000
0100
0000
0010
0000
0001
0000
,
1000
0001
0100
0000
0001
0000
0100
0000
0010
0100
0001
0000
1000
0000
0100
0000
,
0010
0001
1000
0000
0001
0000
1000
0000
0001
0100
0010
0000
0100
0000
0001
0000
,
1000
0001
0100
0000
0001
0000
1000
0000
0100
0010
0001
0000
0010
0000
0100
0000
,
1000
0001
0100
0000
0001
1000
0001
1000
0010
0100
0010
1000
0001
0010
0100
0010
,
0001
1000
0001
0100
0001
1000
0100
0010
0001
1000
0001
1000
0010
0100
0001
1000
,
0100
0010
0100
1000
0001
1000
0001
0010
0100
1000
0001
0100
0010
1000
0001
1000
,
0010
1000
0001
0010
0100
1000
0100
1000
0001
0010
0001
0010
0001
1000
0001
1000
,
0010
1000
0010
1000
0001
0000
0010
0000
0001
1000
0010
0000
1000
0000
0010
0000
,
0100
0001
0010
0000
0100
0000
1000
0000
0001
1000
0001
0000
1000
0000
0010
0000
,
0100
0001
1000
0000
0001
0000
0010
0000
0001
1000
0100
0000
1000
0000
0010
0000
,
0100
0001
0100
0000
0010
0000
1000
0000
0100
0010
0001
0000
0010
0000
0100
0000
,
1000
0010
0100
0000
0001
0100
0001
0100
0010
1000
0010
1000
0001
0010
0001
0010
,
0100
0000
0000
1000
0000
0000
0100
0000
0000
1000
0000
0000
1001
0000
0000
0000
00M0
0000
0000
0000
0000
0000
0000
0000
0000
0000
0000
0000
M000
0000
0000
0000
0000
0000
0000
0000
000M
0000
0000
0000
0000
0000
0000
0000
0M00
0000
0000
0000
,
0000
0000
0000
0000
00M0
0000
0000
0000
0M00
0000
0000
0000
0001
0000
0000
0000
0000
0000
0200
0000
0000
0000
0000
0000
0000
0000
0000
0000
0000
0000
0310
0000
0000
1000
0000
0000
0001
0000
0000
0000
0000
0000
1000
0000
0000
0000
0000
0000
,
0100
0000
0010
0000
0001
0000
2000
0000
0000
0000
3100
0010
0001
0000
0100
0000
,
0020
0000
0000
0000
1030
0000
0002
0000
0000
0000
0103
0001
0010
0000
0100
0000
,
1000
0000
0001
0000
0100
0010
1000
0000
0001
0000
2000
0000
0000
0000
0000
0000
,
0000
0000
3000
0000
0001
0010
0002
0000
0000
0000
0023
0000
0000
0000
0130
0000
,
1000
0001
0100
0010
0100
0020
0000
1030
,
0100
0010
0001
0000
1000
0100
1000
0000
0001
0000
0100
0001
0100
0000
0010
0000
,
1000
0100
1000
0000
0001
0100
0010
1000
0100
0010
0001
1000
0010
0100
0001
1000
,
0100
0010
0001
1000
0010
0100
0001
0000
1000
0000
0100
0000
0010
0001
0010
0000
,
0001
1000
0001
0000
0100
0010
1000
0000
0001
0000
1000
0000
0100
1000
0100
0000
,
0010
0100
0010
0000
0001
0100
0001
0100
0010
1000
0100
1000
0001
0100
0010
0100
,
0001
1000
0001
0010
0100
1000
0001
0100
0010
1000
0002
0000
0000
0000
0000
0000
,
0003
0000
0000
0000
0010
0000
0002
0000
0000
0000
1003
0010
0100
0001
1000
0100
,
0010
0000
0001
0000
0100
0000
0020
0000
0000
0000
1030
0001
0100
0000
0010
0000
,
2000
0000
0000
0000
3100
0010
0100
0010
0001
1000
0001
1000
0010
0100
0010
0100
,
0001
0000
0000
1000
0000
0000
0001
0000
0000
1000
0000
0000
0001
0000
0000
0100
0000
0000
0001
0000
0000
0000
0000
0000
1000
0000
0000
0100
0000
0000
1000
0000
0000
0000
0000
0000
1100
0000
0000
0000
0000
0000
0000
0000
1001
0000
0000
0000
,
0000
0000
0101
0000
0000
0000
0110
0000
0000
0000
M000
0000
000M
0000
0000
0000
0000
0M00
0000
0000
0000
00M0
0000
0000
,
0000
0000
M000
0000
0000
000M
0000
0000
0M00
00M0
0000
0000
0000
M000
0000
0M00
0000
000M
0000
0000
0000
0M00
0000
0000
,
1010
0000
0000
0000
0000
0000
0110
0000
0000
M000
0000
0000
0M20
0000
0000
000M
0000
0000
2030
0M00
0000
0000
0000
00M0
,
3002
0000
0M00
0000
0000
0000
0003
0000
0000
1001
0000
0000
1100
0000
00M0
0000
0000
0000
0000
0000
0000
0000
0M00
0000
2000
0000
0000
0000
0000
0000
0000
0000
000M
0000
0000
0000
3020
0000
0000
0000
0000
0000
M000
0000
0000
0000
0000
0000
,
0230
0000
000M
0000
0000
0000
1310
0000
0000
0000
0000
0000
1M01
0000
0000
0000
0000
0000
0000
0000
00M0
0000
0000
0000
0002
0000
0000
0000
0M00
0000
M000
0000
0000
0000
0000
0000
0023
0000
0000
0000
000M
0000
0000
0000
0200
0030
M000
0000
,
0000
0000
0320
0000
0000
M000
0032
0000
0M00
0000
0000
0000
0000
00M0
0M00
0000
M000
0000
0000
0000
0M00
0000
0000
0000
,
00M3
0000
0000
1010
0000
0000
1001
0M00
0000
0000
0000
000M
2000
0000
0000
00M0
0000
0000
3200
0000
000M
M000
0000
0000
,
0320
0000
0000
1M31
0000
0000
0101
M000
0000
0000
0000
000M
0200
0000
0000
0000
00M0
M000
0302
0000
0000
00M0
0000
0000
,
2003
0000
0M00
0000
0000
0000
3000
0000
0000
0101
0000
0000
1001
0000
00M0
0000
0000
0000
0000
0000
M000
0000
0000
0000
0002
0000
0000
0000
0M00
0000
0000
0000
0000
0000
0000
0000
2003
0000
00M0
0000
0000
0000
0000
0000
020M
3000
0000
0000
,
0000
0000
0000
0000
0000
0000
0000
0000
0000
0000
0000
0000
0000
0000
0000
0000
0320
0000
0000
0000
0000
0000
0000
0000
M000
0000
0000
0000
0000
0000
0000
0000
0000
0000
0000
0000
0000
0000
0000
0000
0000
0000
0000
0000
0000
0000
0000
0000
2032
0000
0000
0000
0000
0000
0000
0000
0M00
0000
0000
0000
0000
0000
0000
0000
0000
0000
0000
0000
0000
0000
0000
0000
00M0
0000
0000
0000
0000
0000
0000
0000
0000
0000
0000
0000
0000
0000
0000
0000
0M00
0000
0000
0000
0000
0000
0000
0000
0000
0000
0000
0000
0000
0000
0000
0000
00M0
0000
0000
0000
0000
0000
0000
0000
0M00
0000
0000
0000
0000
0000
0000
0000
0000
0000
0000
0000
0000
0000
0000
0000
0000
0000
0000
0000
3003
0000
0000
0000
0000
0000
0000
0000
0000
0000
0000
0000
0001
0000
0000
0000
0000
0000
0100
0000
0000
0000
0000
0000
0001
0000
0000
0000
0000
0000
0000
0000
0000
0000
0000
0000
0100
0000
0000
0000
0000
0000
0000
0000
0000
0000
0000
0000
0010
0000
0000
0000
0000
0000
1000
0000
0000
0000
0000
0000
,
0010
0000
1000
0000
0001
1000
0001
0000
1000
0100
1000
0100
0010
0001
0010
0001
1000
0010
1000
0010
0100
0001
0100
0001
1000
0000
0001
0000
0100
0000
0000
0000
,
0100
0000
0010
1000
0001
0000
1000
0000
0100
0000
0010
0000
0001
0100
0010
1000
,
0001
0100
0001
1000
0100
1000
0100
0010
0001
1000
0001
0100
0001
1000
0100
0000
,
0100
0000
0010
0001
1000
0000
0001
0000
0100
0000
0010
0000
0100
0001
1000
0001
,
1000
0010
0100
0001
1000
0001
1000
0100
0010
0001
1000
0001
1000
0100
0010
0000
,
0010
0000
0001
1000
0010
0000
0100
0000
0001
0000
1000
0000
0001
0100
0001
1000
,
0100
1000
0001
0010
0001
1000
0001
1000
0100
0010
0001
1000
0001
0100
0010
0000
,
0010
0000
1000
0001
1000
0000
0100
0000
0010
0000
0001
0000
1000
0010
1000
0010
,
0100
0001
0100
0001
1000
0100
1000
0100
0010
0001
0010
0001
1000
0000
0002
0000
,
0000
1003
0100
0000
0010
0000
0001
0000
0200
0000
0300
0000
0010
0000
2000
0000
,
0000
0000
3001
0000
0100
0010
1000
0001
2000
0000
3000
0000
0001
1000
0010
0100
,
0001
1000
0100
0010
0001
1000
0001
1000
0010
0100
0010
1000
0010
0100
0001
1000
,
0100
0010
0001
1000
0001
0100
0001
1000
0001
1000
0010
0100
0001
0000
0002
0000
,
0000
1003
0100
0000
0020
0000
0000
0032
0000
0000
0203
0000
0320
0000
0000
2030
,
0000
0000
3002
0000
1003
0100
1000
0100
0020
0000
0030
0000
0001
0100
0001
0100
,
0010
1000
0010
1000
0001
0010
0001
0010
0100
1000
0100
1000
0001
0100
0010
0100
,
0001
1000
0100
0010
0001
1000
0001
1000
0100
0010
0002
0000
1003
0010
1000
0010
,
0100
0001
1000
0001
0100
0010
1000
0100
0020
0000
0000
0000
0031
0100
0001
0100
,
0010
1000
0010
1000
0001
0010
0001
0010
0100
1000
0100
1000
0001
0100
0010
1000
,
0100
0010
0001
1000
0001
1000
0010
0100
0002
0000
0000
0000
1003
0100
1000
0001
,
0000
0100
0001
0000
1000
0000
0010
0100
0000
0001
1000
0000
0001
0100
0010
1000
,
0100
1000
0100
0010
0001
1000
0001
0100
0020
0000
0000
0000
1030
0010
1000
0010
,
0100
0001
0100
0001
1000
0100
1000
0100
0010
0001
0010
0001
1000
0010
0100
0001
,
1000
0100
1000
0010
0100
0001
1000
0100
0020
0000
0000
0000
0031
1000
0100
0010
,
0000
0001
0100
0000
0010
0000
1000
0001
0000
0100
0001
0000
1000
0100
1000
0100
,
0010
0000
0001
0000
0100
0000
0010
1000
0000
0001
0100
0000
0001
0000
0000
1000
,
0000
0000
0100
0000
0040
0000
0000
0000
0000
0030
0000
0000
0001
1000
0100
1000
,
0010
0100
0001
0100
0001
1000
0100
1000
0010
0100
0001
0100
0010
1000
0100
0010
,
0001
1000
0001
0100
0010
1000
0100
0010
0002
0000
0000
0000
2003
0000
0000
3102
,
0000
0000
2003
0000
3002
0000
0000
1203
0000
0000
0320
0000
0031
0100
0010
1000
,
0002
0000
0000
0000
1003
0100
0010
0001
0200
0000
0000
0000
0310
1000
0001
0100
,
0001
1000
0100
1000
0010
0100
0001
1000
0100
0010
0001
1000
0100
1000
0001
0100
,
0010
0100
0001
1000
0100
0010
0001
1000
0001
0100
0010
1000
1001
0000
1000
0000
,
0010
1000
0100
0010
0001
0010
0011
0001
,
0100
0000
0010
0000
1000
0000
0001
0000
1000
0000
0000
0000
2100
0000
0000
3100
,
0010
0000
0001
0000
1000
0000
0010
0000
0100
0000
0001
0000
1000
0001
0100
0001
,
1000
0100
1000
0001
0010
0001
1000
0100
0020
0000
0000
0000
0130
0000
1000
0001
,
0100
0000
0001
0000
1000
0000
0100
0000
0010
0000
0001
0000
0101
0000
0100
0010
,
1000
0000
0001
0000
1000
0000
0100
0000
0020
0000
0000
0000
1031
0000
0001
0100
,
0001
0000
1000
0000
0100
0000
0010
0000
0001
0000
1000
0000
0001
0010
0100
1000
,
0001
1000
0001
0100
0010
0100
0001
1000
0200
0000
0320
0000
0031
1000
0010
0100
,
0001
1000
0100
1000
0002
0000
2003
0000
3002
0000
0203
0000
1301
0000
0000
0000
,
0001
0000
0100
0000
0000
0000
0000
0000
0000
0000
0000
0000
0010
0000
1000
0000
0000
0000
0000
0000
0000
0000
0000
0000
0001
0000
1000
0000
0000
0000
0000
0000
0000
0000
0000
0000
0100
0000
0000
1000
0000
0000
0001
0000
0000
0100
0000
0000
,
0001
1000
0100
0010
0001
1000
0001
0100
0010
1000
0001
1000
0001
1000
0001
0010
,
0001
1000
0001
1000
0100
0010
0001
1000
0020
0000
0000
0000
0130
0001
1000
0010
,
0100
0001
1000
0001
0100
0010
0100
0001
1000
0100
1000
0100
0010
0001
1000
0100
,
1000
0010
0100
0001
0200
0000
0000
0000
0000
0000
0310
1000
0001
0100
0001
1000
,
0100
1000
0001
0010
0001
1000
0010
1000
0001
0100
0001
1000
0100
1000
0001
0010
,
0001
1000
0010
1000
0001
0100
0001
1000
0100
0010
0001
1000
0001
0100
0010
1000
,
0001
1000
0100
0010
0001
1000
0001
0100
0010
1000
0010
0100
0001
1000
0100
0010
,
0001
1000
0001
1000
0010
0100
0001
0100
0010
0100
0001
1000
0002
0000
0000
0000
,
0013
0000
0002
0000
0000
0000
0103
0000
0010
0000
1000
0000
0001
0100
0001
1000
,
0200
2300
3020
0230
0302
0000
1003
2000
,
0000
3001
0100
0010
2000
0000
3100
0200
,
0000
0000
0310
0000
0001
0000
0100
0000
0020
0000
0000
0000
0030
0000
0100
0001
,
1000
0001
1000
0001
0010
0001
1000
0001
0100
0010
1000
0001
0010
0001
1000
0010
,
0100
0001
1000
0100
1000
0100
0010
0001
0020
0000
0000
0000
0031
0100
0001
0100
,
0010
1000
0010
1000
0001
0010
0001
0010
0100
1000
0100
1000
0001
1000
0001
1000
,
0010
0100
0010
0100
0020
0000
0000
0000
0200
0000
0330
0000
0010
1000
0001
0100
,
0001
1000
0010
0100
0001
0100
0010
0100
0001
1000
0100
0010
0001
0000
0100
0000
,
0000
0000
0010
0000
1000
0000
0001
0000
0100
0000
0000
0000
0010
1000
0001
0100
,
0001
1000
0100
0010
0001
0100
0001
0100
0010
1000
0001
1000
0100
0010
0001
0000
,
1000
0000
0001
0000
0100
0000
0010
0000
0100
0000
0001
0000
1000
0010
1000
0010
,
0100
0010
0100
0010
0100
0001
0100
0001
1000
0100
1000
0100
0010
0001
0200
0000
,
0320
0000
2030
0000
3001
0100
0001
0000
1000
0000
0100
0000
0010
0001
0010
0000
,
0001
0000
1000
0000
0040
0000
0000
0000
0000
0000
0000
0030
0100
0001
0100
0001
,
1000
0100
1000
0100
0010
0001
0010
0001
1000
0010
1000
0010
0200
0000
0000
0000
,
0000
0000
0302
0000
0000
0000
0000
0000
0000
0000
1003
0100
0010
0000
0001
0000
,
0100
0000
0020
0000
0000
0000
0030
0000
1000
0001
1000
0000
0001
0000
1000
0000
,
0100
0000
0001
0000
0100
0000
0010
0000
0100
0000
1000
0000
0001
0100
0010
0000
,
0100
0001
2000
0000
0000
3000
0000
0000
,
0101
0000
0000
0000
0000
0000
0000
0000
0000
0000
0000
0000
1100
0000
0000
0000
0000
0000
0000
0000
0101
0000
0000
0000
0000
0000
0000
0000
0000
0000
0100
0000
0000
0010
0000
0000
2000
0000
0000
0000
0000
0000
0000
0000
0002
0000
0000
0000
,
0000
0000
0000
0000
0000
0000
0000
0000
0000
3003
0000
0000
0000
0000
0000
0000
0000
0000
0101
0000
0000
0000
0000
0000
0000
0000
0110
0000
0000
0000
0000
0000
0000
0000
0000
0000
1010
0000
0000
0000
0000
0000
1000
0000
0000
0000
0000
0000
,
0001
0100
0001
0000
1000
0000
0100
0000
0020
0000
0002
0000
0000
0000
0000
0033
,
2000
0000
0200
3000
0310
0000
0000
0000
2002
0000
3003
0000
0001
0000
0100
0000
,
0010
1000
0010
0000
0100
0000
0001
0000
1000
0100
1000
0000
0001
0000
1000
0000
,
0001
0000
0000
0100
0000
0000
0010
0000
1000
0000
0100
0000
0020
0000
0000
0000
0000
0000
0032
0000
0000
0000
0000
0000
,
0203
0000
0320
0000
2030
0000
3001
0002
,
0000
0000
0000
0103
0000
0000
0010
0000
0000
0020
0000
0000
0000
0000
0000
1030
0000
0000
0100
0000
0010
0000
0001
0000
,
1000
0001
0100
0001
1000
0100
0010
0100
1000
0001
0100
0010
,
1000
0000
0000
0000
0001
0000
0000
0000
1000
0000
0000
0000
0100
0000
0000
0000
0010
0000
0000
0000
0001
0000
0000
0000
1000
0000
0000
0000
0010
0000
0000
0000
0100
0000
0000
0000
0001
0000
0000
0100
0000
0000
0001
0000
0000
0100
0000
0000
,
0010
1000
0010
1000
0001
0010
0001
0010
0100
1000
0100
1000
0001
0010
0001
0010
,
0100
1000
0100
1000
0001
0100
0001
0100
0010
1000
0010
1000
0001
0000
0100
0000
,
0010
1000
0001
0000
1000
0000
0100
0000
0010
0001
1000
0000
0001
0000
0100
0000
,
0010
1000
0100
0000
0010
0000
0001
0000
1000
0100
0010
0000
0001
0000
0100
0000
,
0010
1000
0001
0000
1000
0000
0100
0000
0010
0001
0100
0000
0010
0000
0100
0000
,
0001
1000
0200
0000
0000
0000
0000
0000
0000
0000
0000
0300
1000
0001
0100
0001
,
1000
0100
0010
0001
1000
0001
1000
0010
0100
0001
0100
0010
1000
0001
0100
0001
,
1000
0001
0100
0010
1000
0001
1000
0100
0010
0001
1000
0100
0010
0001
0010
0001
,
1000
0010
1000
0010
0100
0001
0100
0001
1000
0100
1000
0100
0010
0001
0010
0001
,
1000
0010
1000
0010
0100
0001
0100
0001
1000
0100
1000
0100
0010
0001
0010
0000
,
0001
0100
0001
0000
1000
0010
1000
0000
0001
0100
0001
0000
1000
0010
0100
0001
,
1000
0001
1000
0100
0010
0001
1000
0010
0100
0001
0100
0010
1000
0000
0001
0000
,
1000
0001
0100
0001
0100
0010
1000
0001
1000
0001
0010
0001
0100
0010
1000
0001
,
0100
0010
1000
0001
1000
0001
0100
0010
2000
0000
0000
0000
3001
0000
0100
0000
,
1000
0200
0000
0302
0000
1003
0100
0200
,
0000
0000
0310
0000
0001
0000
0100
0000
0010
1000
0001
0100
0001
1000
0100
0010
,
0001
0100
0001
0100
0010
1000
0001
0100
0010
1000
0001
1000
0100
0010
0001
0100
,
0001
0000
0000
0100
0000
0000
0010
0000
0000
1000
0000
0000
0001
0000
0000
0100
0000
0000
0001
0000
0000
1000
0000
0000
0100
0000
0000
0010
0000
0000
0001
0000
0000
1000
0000
0000
0002
0000
0000
0000
00M0
0000
0000
0000
0000
0000
0000
0000
,
M000
0000
0M00
00M0
0000
M000
0000
00M0
0000
2003
0M00
0000
,
000M
0000
00M0
0000
0M00
0000
0000
000M
0000
3020
M000
0000
,
0M00
0000
000M
0000
0000
M000
0000
0000
000M
0230
0000
M000
,
0000
00M0
0000
000M
0000
M000
0000
0000
00M0
0302
0000
0M00
,
00M0
0000
M000
0000
0M00
0000
M000
0000
00M0
2M03
0000
000M
,
0000
0M00
0000
00M0
000M
0000
0000
0M00
0000
3200
000M
0000
,
M000
0000
0000
0000
00M0
0000
0000
0000
0000
0000
0000
0000
0000
0000
0000
0000
000M
0000
0000
0000
0000
0000
0000
0000
M000
0000
0000
0000
0000
0000
0000
0000
M000
0000
0000
0000
0340
0000
0000
0004
0000
0000
0000
0000
0000
0000
0000
0000
,
0000
0000
0000
0000
0000
0000
0000
0000
0000
0000
0033
0000
1000
0100
1000
0100
,
0010
0001
0010
0001
1000
0010
1000
0010
0100
0001
0100
0001
1000
0000
0010
0000
,
0100
0001
0100
0000
0010
0000
1000
0000
0100
1000
0100
0000
0010
0000
0001
0000
,
1000
0001
1000
0000
0010
0000
0100
0000
0001
0100
0001
0000
1000
0000
0010
0000
,
0100
0001
0100
0000
0010
0000
1000
0000
0100
0010
0100
0000
0010
0000
0001
0000
,
1000
0001
1000
0000
0010
0000
0100
0000
0001
0100
0001
0000
1000
0100
0010
0001
,
1000
0001
1000
0010
0100
0001
0100
0010
1000
0001
1000
0100
0010
0001
1000
0001
,
0100
0010
1000
0001
1000
0100
0010
0001
1000
0010
1000
0001
1000
0100
0010
0001
,
1000
0001
0100
0010
1000
0001
0100
0010
1000
0100
0010
0001
1000
0100
1000
0100
,
0010
0001
0010
0001
1000
0010
1000
0010
0100
0001
0100
0001
1000
0000
0010
0000
,
0100
0001
1000
0000
0100
0000
0010
0000
0001
1000
0100
0000
0010
0000
0001
0000
,
1000
0010
0100
0000
0001
0000
0100
0000
0010
1000
0001
0000
1000
0100
0010
0001
,
1000
0001
0100
0001
1000
0010
1000
0001
1000
0100
0010
0100
1000
0100
0010
0001
,
0010
0100
1000
0010
1000
0001
0100
0001
0100
0010
1000
0100
0010
0001
0010
0001
,
1000
0001
1000
0001
1000
0010
1000
0010
1000
0001
1000
0001
0100
M000
0000
0M00
,
0000
0000
000M
0000
0M00
0000
0000
00M0
0000
0000
M000
0000
0001
0100
0001
0000
,
1000
0000
0100
1000
0100
0000
0010
0000
0001
1000
0001
0000
0100
0001
0100
0000
,
0010
0000
0100
0001
0100
0000
0010
0000
1000
0100
1000
0000
0001
0010
0001
0000
,
1000
0000
0010
0100
0010
0000
0100
0000
0001
0100
0001
0000
1000
0100
1000
0000
,
0010
0000
0100
0010
0100
0000
0001
0000
1000
0100
1000
0000
0001
0010
0001
0000
,
0100
0000
0010
0100
0010
0000
1000
0000
0001
0100
0001
0000
1000
0001
1000
0000
,
0010
0000
0100
0010
0100
0000
0001
0000
1000
0100
1000
0000
0001
0100
0001
0000
,
1000
0000
0100
0010
0100
0000
0010
0000
0001
1000
0001
0000
1000
0100
0010
0001
,
1000
0001
1000
0010
0100
0001
1000
0100
0010
0001
0100
0001
1000
0100
1000
0100
,
0010
0001
0010
0001
1000
0001
1000
0001
0100
0001
0100
0001
1000
0100
1000
0100
,
0010
0001
0010
0001
1000
0010
1000
0010
0100
0001
0100
0001
1000
0100
1000
0100
,
0010
0100
0010
0100
0010
0001
0010
0001
1000
0001
1000
0001
1000
0010
1000
0010
,
0100
0001
0100
0001
1000
0100
1000
0100
0010
0001
0010
0001
1000
0001
1000
0001
,
0100
0010
0100
0010
1000
0001
1000
0001
1000
0100
1000
0100
0010
0001
0010
0001
,
1000
0010
1000
0010
0100
0001
0100
0001
1000
0100
1000
0100
0010
0001
1000
0001
,
0100
0010
1000
0100
0010
0001
1000
0001
1000
0100
0010
0001
1000
0010
0100
0010
,
1000
0100
1000
0100
1000
0100
1000
0100
1000
0100
1000
0100
2000
0000
3001
0000
,
0001
0001
0010
0001
1000
0001
0100
0001
,
0001
1000
0001
0001
1000
0100
0010
0100
,
0100
0100
1000
0100
0010
0100
0001
0100
,
0010
0100
0100
1000
0010
0100
0101
1001
,
1100
1001
0000
1001
0000
0101
0000
1001
,
0000
0000
0101
0000
0110
0000
1010
0000
1001
0000
0000
0000
1000
0100
1000
0001
,
0100
0001
1000
0010
1000
0001
0010
0001
1000
0100
1000
0001
0010
0001
1000
0010
,
1000
0001
0100
0001
1000
0100
1000
0001
0100
0001
1000
0010
1000
0001
0010
0001
,
1000
0100
1000
0001
0100
0001
1000
0010
1000
0001
0100
0001
1000
0100
1000
0001
,
0010
0001
1000
0010
1000
0001
0100
0001
1000
0100
1000
0001
0010
0001
1000
0100
,
1000
0001
0100
0001
1000
0010
1000
0001
0010
0001
1000
0100
1000
0001
0010
0001
,
1000
0010
1000
0001
0100
0001
1000
0100
1000
0001
0100
0000
0101
0000
0001
0000
,
1000
0100
1100
1000
0001
0100
0210
0000
,
0000
0000
0000
0000
0020
0000
0000
0000
0000
0000
0000
0330
1000
0010
0100
0001
,
1000
0000
0000
1001
0000
0101
0000
0110
0000
2020
0000
0000
,
0000
0000
3030
0000
0000
0000
0000
0000
0000
0000
0000
0000
;
