#TITLE:Evans;
#SUBTITLE:jubeat O.S.T;
#ARTIST:DJ Yoshitaka;
#TITLETRANSLIT:;
#SUBTITLETRANSLIT:;
#ARTISTTRANSLIT:;
#CREDIT:ALICE_;
#BANNER:Evans.png;
#BACKGROUND:Evans.jpg;
#LYRICSPATH:;
#CDTITLE:cdtitle.png;
#MUSIC:Evans.mp3;
#OFFSET:-0.260;
#SAMPLESTART:61.192;
#SAMPLELENGTH:19.400;
#SELECTABLE:YES;
#BPMS:0.000=185.000,284.000=370.000,286.000=185.000;
#STOPS:;
#BGCHANGES:;
// cache tags:
#FIRSTBEAT:4.000;
#LASTBEAT:325.000;
#SONGFILENAME:Songs/alice 4th complete step/Evans/Evans.sm;
#HASMUSIC:1;
#HASBANNER:1;
#MUSICLENGTH:109.409;
// end cache tags

//---------------dance-single - Copied from----------------
#NOTES:
     dance-single:
     Copied from:
     Challenge:
     18:
     1.000,1.000,1.000,0.612,1.000,870.000,366.000,67.000,0.000,33.000:
0000
0000
0000
0000
,
1001
0100
0010
0001
0100
0010
1000
0001
,
0100
1001
0010
0100
0011
0100
1010
0100
,
1001
0010
0100
1000
0010
0001
0010
0100
,
1000
0000
0001
0000
0010
0000
0001
0000
1000
0000
0100
0000
1000
0000
0010
0000
0200
0000
0300
0000
0001
0010
0100
1000
0020
0000
0030
0000
1000
0100
0010
0001
,
1100
0010
1010
0001
0100
0010
1000
0010
,
0100
1001
0010
0100
0011
1000
1100
0010
,
1001
0010
0100
0011
1001
0010
0100
1010
,
1100
0000
1110
0000
0001
0000
1000
0000
0101
0000
0000
1011
0000
0000
1111
0000
,
1000
0100
1010
0001
1010
0100
1001
0010
,
1010
0000
0100
0000
1001
0000
0010
0000
0100
0001
1010
0000
0101
0000
0010
0000
,
0100
1000
0001
0000
0101
0000
0010
0000
0100
0001
1010
0000
1001
0000
0100
0000
,
1001
1111
0010
0100
1100
0010
0011
0100
,
1001
0010
1101
0010
0101
1000
1001
0110
,
1001
0000
1000
0000
0101
0000
0010
0000
0101
1000
0010
0000
1001
0000
0110
0000
,
1100
0010
0101
0010
0011
0100
1010
0100
,
1001
0000
0000
0000
1100
0000
0000
0000
0101
0000
0000
0000
0110
0000
0000
0000
2000
0000
3000
0000
0001
0100
1000
0010
0200
0000
0000
0300
1000
0100
0001
0010
,
0200
0000
0000
0000
,
0000
0000
0000
0000
0000
0000
0000
0300
,
1001
0000
0010
0100
0000
0001
0010
0000
0100
0010
1000
0100
0001
0010
0100
0010
,
1001
0000
0100
0010
0000
1000
0100
0000
0010
0100
0001
0000
1010
0000
1001
0000
,
0101
0000
1000
0010
0000
0100
0011
0000
0100
1010
0000
0100
1001
0000
1010
0000
,
0110
0000
1000
0001
0000
0100
0010
0001
0100
0010
1000
0000
0101
0000
1100
0001
,
1010
0000
0100
1001
0000
0100
0011
0000
1000
0001
0100
0000
0011
0000
1010
0000
,
1001
0000
0100
0011
0000
1000
0110
0000
1000
0001
0010
0000
0101
0000
1010
0000
,
1001
0000
0010
0101
0000
0100
1001
0000
0100
0011
0000
0000
0110
0000
1001
0000
,
0101
0000
1000
0001
0000
0100
0010
0000
0100
1001
0000
0100
1010
0000
0101
0000
,
1001
0000
1100
0010
0100
0001
1010
0000
0101
0010
1001
0100
0010
0100
0011
0000
,
1010
0000
0101
0010
1000
0100
1010
0000
0100
0010
1001
0000
0100
0000
0011
0000
,
1001
0000
1010
0100
0001
0100
1010
0000
0100
0010
0001
0100
1010
0000
0101
0000
,
0011
0000
1100
0010
0000
0100
1010
0001
0010
0100
1001
0000
0100
0000
0011
1000
,
0100
0000
0011
0100
0000
0010
1100
0000
1000
0001
0110
0000
1000
0000
0101
0000
,
0011
0000
1010
0100
0000
0010
0101
0000
0100
0001
1010
0000
1100
0000
0011
0000
,
1001
0000
0110
1000
0000
0100
0011
0000
0100
1000
0001
0000
0110
0000
1001
0000
,
0110
0000
0000
0000
0100
0000
1001
0000
0010
0000
0100
0000
0011
0000
0000
0000
0101
0000
0000
0000
1000
0100
0010
0001
1000
0000
0000
0000
0001
0010
0100
1000
,
0011
0000
0000
0000
0100
0000
0000
0000
0010
0000
0000
0000
1000
0000
0001
0100
,
1001
0000
0000
0000
0100
0000
0000
0000
0010
0000
0000
0000
1000
0000
0001
0100
,
1001
0000
0000
0000
0101
0000
0000
0000
0010
0000
0000
0000
1000
0000
0001
0100
,
1001
0000
0000
0000
0100
0000
0000
0000
0010
0000
0000
0000
1000
0000
0001
0100
,
1001
0000
0000
0000
0100
0000
0000
0000
1010
0000
0000
0000
0001
0000
0000
0000
1001
0000
0000
0000
0100
0000
0000
0000
1010
0000
0000
0000
0001
0010
0100
0010
,
1001
0000
0000
0000
0010
0000
0000
0000
0101
0000
0000
0000
0010
0000
0000
0000
1001
0000
0000
0000
0100
0000
0000
0000
0110
0000
0000
0000
0001
0010
0100
0010
,
1001
0000
0100
0000
0011
0000
0100
0000
1001
0000
0010
0000
1100
0000
0010
1000
,
1001
0000
0100
0000
1010
0000
0100
0000
1001
0000
0010
0000
0101
0000
0010
0001
,
1001
1101
1011
1111
0110
1110
0111
1111
,
1010
0000
0101
0000
1000
0000
0011
0000
1000
0000
0110
0000
1001
0000
0100
0000
0011
0000
1000
0000
0001
0010
0100
1000
0020
0000
0000
0030
1000
0010
0100
0001
,
2100
0010
0100
0010
0100
0010
0100
0010
0100
0010
0100
0010
0100
0010
3100
0010
,
1002
0100
0010
1000
0100
0010
0100
0013
1001
0100
1001
0010
1100
0001
1010
0100
,
0011
1000
0101
0010
1000
0100
0011
1000
0101
0010
1100
0001
0110
1001
0100
0010
,
0101
1000
0010
0101
0010
1000
0101
0010
1001
0100
0010
1001
0110
1000
0101
0010
,
1100
0001
1010
0100
0011
1000
0100
0011
1100
0010
1001
0100
1010
0001
0110
1000
,
0101
0000
1100
0011
0000
0110
1001
0000
1111
0000
0010
1101
0000
0010
1101
0000
,
1020
0000
0130
0001
1001
0010
0100
0001
1010
0100
0001
1000
0110
0001
1100
0010
,
0101
1000
0011
0100
0010
1001
0100
0011
1100
0001
1010
0001
0100
1010
0101
1000
,
0010
0100
1001
0010
0100
0001
1010
0100
0011
1000
0110
0001
1100
0011
0100
0010
,
1001
0110
1001
0000
1011
0000
0100
1010
0100
0000
0011
0100
1010
0100
1001
0000
,
1100
0010
0101
1000
0011
0100
1001
0010
0101
1000
0110
0001
1010
0101
1000
0110
,
1001
0010
0101
1000
0011
0100
1001
0010
0101
0010
1000
0110
1001
0010
0101
1000
,
0110
0001
1010
0100
1001
0010
0101
1000
0011
0100
1001
0010
1100
0001
0110
0001
,
1010
0100
1001
0010
1100
0001
0110
0001
1010
0101
1000
0011
1100
0010
1001
0100
,
0011
1000
0010
0100
1001
0010
1000
0110
1001
0100
1010
0001
0110
1000
0101
0010
,
1100
0010
1001
0100
0011
1000
0110
1001
0010
0100
1010
0001
1100
0010
0101
1000
,
0011
0100
1001
0100
1010
0001
0110
1000
0101
0010
1000
0001
0110
1000
0101
1000
,
0011
0100
0001
0100
1010
0000
0110
1001
0100
0010
1001
0100
0011
1000
0110
1000
,
0101
0000
0000
0000
0000
0000
0000
0000
0000
0000
0000
0000
0000
0000
0000
0000
2222
3333
0000
0000
0000
0000
0000
0000
0200
0000
0000
0000
0000
0000
0000
0000
0000
0000
0000
0000
0000
0000
0000
0000
0000
0000
0000
0000
0000
0000
0000
0000
0000
0000
0000
0000
0000
0000
0000
0000
0000
0000
0000
0000
0000
0000
0000
0000
,
0310
0000
0000
0000
0000
0000
0000
0000
0000
0000
0000
0000
0000
0000
0000
0000
0222
0333
0000
0000
0000
0000
0000
0000
1000
0000
0000
0000
0000
0000
0000
0000
2202
3303
0000
0000
0000
0000
0000
0000
0000
0000
0000
0000
0000
0000
0000
0000
2220
3330
0000
0000
0000
0000
0000
0000
0000
0000
0000
0000
0000
0000
0000
0000
,
2022
3033
0000
0000
0000
0000
0000
0000
0000
0000
0000
0000
0000
0000
0000
0000
1100
0000
0000
0000
0000
0000
0000
0000
0000
0000
0000
0000
0000
0000
0000
0000
0222
0333
0000
0000
0000
0000
0000
0000
0000
0000
0000
0000
0000
0000
0000
0000
0101
0000
0000
0000
0000
0000
0000
0000
0010
0000
0000
0000
0000
0000
0000
0000
,
2220
3330
0000
0000
0000
0000
0000
0000
0001
0000
0000
0000
0000
0000
0000
0000
0222
0333
0000
0000
0000
0000
0000
0000
0010
0000
0000
0000
0000
0000
0000
0000
2200
3300
0000
0000
0000
0000
0000
0000
0000
0000
0000
0000
2220
3330
0000
0000
0000
0000
0000
0000
0000
0000
0000
0000
0222
0333
0000
0000
0000
0000
0000
0000
,
2001
0000
0000
0000
0000
0000
0000
0000
0000
0000
0000
0000
0000
0000
0000
0000
0100
0000
0000
0000
0000
0000
0000
0000
0010
0000
0000
0000
0000
0000
0000
0000
3110
0000
0000
0000
0000
0000
0000
0000
0000
0000
0000
0000
0000
0000
0000
0000
2022
3033
0000
0000
0000
0000
0000
0000
0000
0000
0000
0000
0000
0000
0000
0000
,
2202
3300
0000
0000
0000
0000
0000
0000
0000
0000
0000
0000
0000
0000
0000
0000
0100
0000
0000
0000
0000
0000
0000
0000
0010
0000
0000
0000
0000
0000
0000
0000
0113
0000
0000
0000
0000
0000
0000
0000
0000
0000
0000
0000
0000
0000
0000
0000
2202
3303
0000
0000
0000
0000
0000
0000
0000
0000
0000
0000
0000
0000
0000
0000
,
2002
3003
0000
0000
0000
0000
0000
0000
0100
0000
0000
0000
0000
0000
0000
0000
0010
0000
0000
0000
0000
0000
0000
0000
1010
0000
0000
0000
0000
0000
0000
0000
2002
3003
0000
0000
0000
0000
0000
0000
0010
0000
0000
0000
0000
0000
0000
0000
0100
0000
0000
0000
0000
0000
0000
0000
1000
0000
0000
0000
0000
0000
0000
0000
,
0101
1000
0101
0010
1100
0001
1100
0010
1001
0100
1010
0001
1100
0001
0010
0100
,
2000
0000
0000
0000
0000
0000
0000
0000
3101
0010
1100
0001
1010
0100
1001
0010
,
1100
0001
0110
0001
1010
0100
1001
0010
1100
0011
0100
0001
1010
0100
1000
0011
,
1100
0010
1001
0100
0011
1000
0101
0010
1001
0010
0100
0001
1010
0100
1001
0010
,
1100
0001
1010
0001
0110
0000
1111
0000
1100
0001
0110
0001
1010
0101
1010
0000
,
1001
0000
0000
0000
0110
0000
0001
0000
0110
0000
0000
0000
1000
0001
0010
0001
0200
0000
0000
0000
0310
0000
0000
0000
2100
0000
0000
0000
3001
0010
0100
0010
,
0002
0000
0000
0003
1000
0100
0010
0100
1001
0000
0000
0000
0101
0000
0000
0000
0010
0000
1000
0000
0100
0000
1000
0000
1010
0000
0001
0000
0110
0000
0000
0000
,
1100
0000
0000
0000
0110
0000
1000
0000
0101
0000
0000
0000
1000
0100
0010
0001
2100
0000
3000
0000
0001
0010
0100
1000
0012
0000
0003
0000
1000
0100
0001
0010
,
2100
0000
3000
0000
0001
0100
1000
0010
0200
0000
0311
0000
1000
0000
0101
0000
0010
0000
1100
0000
0001
0000
0110
0000
1001
0000
0100
0000
1010
0000
0001
0000
,
1100
0011
1000
0110
2002
0000
0000
0000
0000
0000
0000
0000
0000
0000
0000
0000
,
0000
0000
0000
0000
,
0000
3003
0000
0000
;

//---------------dance-single - ----------------
#NOTES:
     dance-single:
     :
     Hard:
     9:
     0.759,0.882,0.905,0.110,0.384,470.000,99.000,12.000,0.000,0.000:
0000
0000
0000
0000
,
1000
0100
0010
0001
0000
0000
0000
0000
,
0000
0101
0000
0000
1100
0000
0110
0000
,
0001
0100
0010
1000
0000
0000
0000
0000
,
0001
0100
0001
0100
0001
0010
0001
0100
,
1001
0100
0010
0001
1000
0000
0010
0000
,
0100
0001
1000
0000
0101
0000
1100
0000
,
1001
0010
0100
1000
0001
0000
0100
0000
,
1000
0000
1000
0000
0010
0000
0000
0000
0100
0000
0000
0001
0000
0000
1000
0000
,
0001
0000
1010
0010
0100
0010
1000
0001
,
0100
0001
0010
0001
1000
0010
0100
0001
,
1001
0100
0010
0001
0010
0100
0010
0001
,
1000
0010
0100
0000
1001
0000
0110
0000
,
1001
0000
0101
1000
0100
0000
0010
0001
,
0100
0000
0001
1000
0010
0100
0001
0010
,
0100
1001
0010
1001
,
0100
1000
0100
0001
1000
0010
1000
0001
,
0200
0000
0000
0000
,
0000
0000
0000
0000
0000
0000
0000
0300
,
1000
0000
0000
0100
0000
0000
1000
0000
0000
0010
0000
0000
0001
0000
0010
0000
,
0100
0000
0000
0001
0000
0000
1000
0000
0000
0001
0000
0000
0010
0000
0001
0000
,
1000
0000
0000
0010
0000
0000
0100
0000
0000
0001
0000
0000
0001
0000
1000
0000
,
0100
0000
0000
0010
0000
0000
0100
0000
0000
0001
0000
0000
1000
0000
0100
0000
,
0001
0000
0000
0100
0000
0000
1000
0000
0000
0010
0000
0000
0100
0000
0001
0000
,
1000
0000
0000
0010
0000
0000
0001
0000
0000
0010
0000
0000
0100
0000
0001
0000
,
0010
0000
0000
0100
0000
0000
1000
0000
0000
1000
0000
0000
0001
0000
0010
0000
,
0100
0000
0000
0100
0000
0000
0010
0000
0000
0100
0000
0000
1000
0000
0001
0000
,
0101
0000
0000
1000
0000
0000
0010
0000
0000
0100
0000
0000
0100
0000
0001
0000
,
0010
0000
0000
0100
0000
0000
1000
0000
0000
0010
0000
0000
0100
0000
0001
0000
,
1000
0000
0000
0001
0000
0000
0100
0000
0000
0100
0000
0000
0001
0000
1000
0000
,
0100
0000
0000
0010
0000
0000
0100
0000
0000
0100
0000
0000
1000
0000
0010
0000
,
0001
0000
0000
0010
0000
0000
0100
0000
0000
0100
0000
0000
0001
0000
1000
0000
,
0100
0000
0000
0001
0000
0000
0100
0000
0000
0100
0000
0000
1000
0000
0010
0000
,
0001
0000
0000
0010
0000
0000
0100
0000
0000
0100
0000
0000
0001
0000
1000
0000
,
0010
0000
0000
0010
0000
0000
0100
0000
0000
0100
0000
0000
0001
0000
1000
0000
,
0110
0000
1000
0000
0100
0000
0010
0001
,
0000
0000
1000
0000
0010
0000
0100
0001
,
0000
0000
1000
0000
0100
0000
0010
0001
,
0000
0000
1000
0000
0010
0000
0100
0001
,
0000
0000
1000
0010
0000
0000
0100
0001
,
0000
0000
0010
0001
0000
0000
1000
0100
,
0010
0010
0001
0001
,
1000
1000
0010
0010
,
0100
0100
0001
0001
1000
1000
0010
0010
,
0100
0001
1000
0001
0100
0001
1000
0001
0100
0010
0100
0010
0100
0010
0100
0010
,
2000
0000
0000
0000
,
3001
0000
0010
0000
0001
0000
0000
0100
0000
0000
0010
0000
1000
0000
0001
0000
,
1001
0000
0000
0101
0000
0000
1100
0000
0000
0110
0000
0000
1000
0000
0001
0000
,
0101
0000
0000
1100
0000
0000
0011
0000
0000
1010
0000
0000
0100
0000
0001
0000
,
1001
0000
0000
1100
0000
0000
0011
0000
0000
1001
0000
0000
0010
0000
0100
0000
,
0101
0000
1000
0000
0100
0000
0000
0000
1001
0000
0000
0110
0000
0000
1001
0000
,
0101
0000
0000
1010
0000
0000
0101
0000
0000
0011
0000
0000
0100
0000
1000
0000
,
1010
0000
0000
0101
0000
0000
1100
0000
0000
0110
0000
0000
1000
0000
0001
0000
,
0011
0000
0000
0110
0000
0000
1001
0000
0000
1100
0000
0000
1010
0000
0100
0000
,
0001
1000
0001
0000
0100
0000
1001
0000
0000
0000
0010
0000
1000
0000
0100
0000
,
1001
0000
0000
0101
0000
0000
1100
0000
0000
0110
0000
0000
1000
0000
0001
0000
,
0101
0000
0000
1100
0000
0000
0011
0000
0000
1010
0000
0000
0100
0000
0001
0000
,
1001
0000
0000
1100
0000
0000
0011
0000
0000
1001
0000
0000
0010
0000
0100
0000
,
0101
0000
0000
0000
1001
0000
0000
0000
1100
0000
0000
0001
0000
0000
0010
0000
,
0100
0000
0000
1010
0000
0000
0101
0000
0000
0011
0000
0000
0100
0000
1000
0000
,
1010
0000
0000
0101
0000
0000
1100
0000
0000
0110
0000
0000
1000
0000
0001
0000
,
0011
0000
0000
0110
0000
0000
1001
0000
0000
1100
0000
0000
1010
0000
0100
0000
,
0001
1000
0001
0000
0100
0000
0001
0000
0000
0000
1000
0000
0010
0000
0100
0000
,
0001
0000
1010
0100
0001
0100
0010
1000
,
0100
1100
0101
1010
,
0011
0000
1000
0000
0101
0000
1000
0010
,
0100
0000
0001
0000
1000
0000
0000
0000
1100
0000
0000
0010
0000
0000
0100
0000
,
1001
0000
0010
0100
0001
0000
0101
0000
,
0011
0000
0100
1000
0010
0000
0100
0000
,
0001
0001
1000
0001
1000
1000
0001
0010
,
0100
0100
0010
1001
0000
0001
0100
0010
,
2000
0000
0000
3000
0101
1000
0010
0100
,
0001
0000
1000
0000
1001
0000
0000
0110
0000
0000
1010
0000
0000
0101
0000
0000
,
1000
0000
0001
0000
0011
0000
0000
1100
0000
0000
1010
0000
0000
1001
0000
0000
,
0100
0000
0010
0000
1000
0000
1100
0000
0001
0000
0100
0000
0001
0010
0001
0000
,
1000
0010
1000
1001
0200
0300
0001
0020
,
0031
0200
0301
1001
0020
0030
1000
1010
,
1000
0200
1300
0002
0103
0020
1030
0002
,
0013
0000
0110
0000
1000
0001
0100
0001
1000
0001
0100
0001
1000
0010
1000
0010
,
0100
0001
0100
0001
0020
0000
0000
0000
0000
0000
0000
0000
0000
0000
0000
0000
,
0000
0000
0000
0000
0000
0000
0000
0030
0000
0000
0000
0000
0000
0000
0000
0000
;
