#TITLE:The Dark Eternal Night v2;
#SUBTITLE:;
#ARTIST:Dream Theater;
#TITLETRANSLIT:;
#SUBTITLETRANSLIT:;
#ARTISTTRANSLIT:;
#CREDIT:;
#BANNER:;
#BACKGROUND:;
#LYRICSPATH:;
#CDTITLE:shinerccc.png;
#MUSIC:tdenv2.ogg;
#OFFSET:-2.540;
#SAMPLESTART:55.100;
#SAMPLELENGTH:12.000;
#SELECTABLE:YES;
#BPMS:0.000=106.000,109.000=131.500,178.750=108.000,213.500=131.500,277.250=108.000,294.000=131.500,303.000=136.000,314.750=131.500,319.500=110.000,398.500=114.500;
#STOPS:398.500=1.300
;
#BGCHANGES:;
// cache tags:
#FIRSTBEAT:0.000;
#LASTBEAT:486.500;
#SONGFILENAME:Songs/new cedric/The Dark Eternal Night v2/steps.sm;
#HASMUSIC:1;
#HASBANNER:0;
#MUSICLENGTH:256.128;
// end cache tags

//---------------dance-single - by Shiner----------------
#NOTES:
     dance-single:
     by Shiner:
     Challenge:
     15:
     1.000,1.000,1.000,0.238,1.000,1706.000,331.000,61.000,111.000,5.000:


1001
1000
0200
0300
0000
0000
0100
0100
0110
0010
0010
0010
0011
0001
0001
0001
,
0101
0100
0020
0030
1001
0000
1000
0100
0010
0100
1000
0100
1000
0010
0200
0300
,
0101
0001
2002
3003
0000
0000
0000
1000
0100
0001
0101
0000
1001
0000
1010
0000
,
1010
0010
0002
0003
1001
0000
1000
0010
0110
0000
0101
0001
0010
0100
2000
3000
,
1100
0000
0000
0010
0000
0000
0002
0000
0000
0003
0000
0000
1001
0000
0000
0000
0000
0000
0100
0000
0001
0000
0010
0000
0110
0000
0000
0000
1100
0000
0000
0000
1010
0000
0000
0000
0110
0000
0000
0000
0000
0000
0010
0000
1000
0000
0100
0000
,
0010
0000
0100
0000
0110
0100
1000
0000
0011
0000
0010
0001
0110
0100
0010
0100
,
1100
1000
0001
1000
1010
0010
0100
0000
0101
0000
0000
0001
0011
0010
0110
0000
,
1100
0000
0000
0000
1001
0000
0001
0000
1001
0000
1000
0000
1010
0000
0000
0000
1010
0000
0110
0000
0101
0000
0000
0000
0000
0100
0001
1000
0000
0000
0000
0000
,
1001
0000
1100
0100
0110
0000
0011
0000
1001
0001
0100
0000
0000
0000
0001
0001
,
1000
0000
0100
0000
0010
0000
0100
0000
0010
0000
0001
0000
0020
0000
0000
0000
0030
0000
1000
0000
0010
0000
0001
0000
0100
0000
0001
0000
0010
0000
0002
0000
0000
0000
0003
0000
0010
0000
0000
0100
0000
0000
2000
0000
0000
3000
0000
0000
,
0011
0001
0010
0110
0100
1000
1010
0010
0100
0101
0001
0010
0110
0100
0010
0100
,
1001
0001
0010
0110
0100
1000
1010
0010
1000
1100
0100
0010
0011
0001
0010
0001
,
1001
1000
0001
1000
0100
0010
0011
0010
0011
0001
0010
0100
0110
0010
0110
0100
,
0110
0010
0100
1000
0010
0100
0101
0001
0101
0100
0010
1000
1100
0100
1100
1000
,
1100
0100
0010
0001
0110
0100
1000
0001
1001
0001
0010
1100
0010
0001
0011
0010
,
0100
1010
0010
0001
1001
1000
0010
0100
0011
0010
0100
0101
0001
0010
0110
0100
,
1000
0101
0010
1000
0110
0100
0010
0100
1001
0001
1000
0001
1100
0100
0110
0010
,
0110
0100
1000
0001
0101
0100
0101
0001
0101
0100
0010
0001
0010
1000
1100
0100
,
1100
1000
0100
0010
0011
0001
0011
0010
0011
0001
0100
1000
1100
0100
0100
0001
,
0001
0000
0000
0010
0000
0000
0010
0000
0000
0100
0000
0000
0010
0100
0000
0100
0000
0000
0000
0000
0000
0100
0000
0000
0000
0000
0000
0100
0000
0000
0110
0000
0000
0000
0000
0000
0011
0000
0000
0000
0000
0000
0000
0000
0101
0000
0000
0000
,
0010
1000
0100
0000
1100
0000
0000
0010
0011
0000
0001
0000
1001
0000
0000
1000
,
1010
0000
0000
0000
0000
0000
0000
0000
0000
0000
0000
0000
0000
0000
0000
0000
0000
0000
0000
0000
0000
0000
0000
0000
0100
0000
0000
0000
0000
0000
0000
0000
0000
0000
0000
0000
0010
0000
0000
0000
0000
0000
1000
0000
0000
0000
0000
0000
0001
0000
0000
0000
0000
0000
0000
0000
0000
0000
0000
0000
0010
0000
0000
0000
0000
0000
0000
0000
0000
0000
0000
0000
0000
0000
0000
0000
0000
0000
0000
0000
0000
0000
0000
0000
0010
0000
0000
0000
0000
0000
0000
0000
0000
0000
0000
0000
0000
0000
0000
0000
0000
0000
0000
0000
0000
0010
0000
0000
0000
0000
0000
0000
0100
0000
0000
0000
0000
0000
0000
0000
1000
0000
0000
0000
0000
0000
0000
0000
0000
0000
0000
0000
0000
0000
0000
0000
0000
0000
0000
0000
0000
0000
0000
0000
1001
0000
0000
0000
0000
0000
0000
0000
0000
0000
0000
0000
0000
0000
0000
0000
0000
0000
0000
0000
0000
0000
0000
0000
0000
0000
0000
0000
0000
0000
0000
0000
0000
0000
0000
0000
0011
0000
0000
0000
0000
0000
0000
0000
0000
0000
0000
0000
,
0010
0000
1100
0000
0100
0000
0000
0000
1001
0000
0000
0000
0000
0000
0001
0000
1010
0000
0000
0000
0100
0000
0000
0000
1100
0000
0000
0000
0000
0000
1000
0100
,
0110
0000
0000
0000
0000
0000
0000
0000
0000
0000
0000
0000
0000
0000
0000
0000
0000
0000
0000
0000
0000
0000
0000
0000
0001
0000
0000
0000
0000
0000
0000
0000
0000
0000
0000
0000
0000
0000
0000
0000
0000
0000
0000
0000
0000
0000
0000
0000
0100
0000
0000
0000
0001
0000
0000
0000
0000
0000
0000
0000
0100
0000
0000
0000
0000
0000
0000
0000
0000
0000
0000
0000
0000
0000
0000
0000
0000
0000
0000
0000
0000
0000
0000
0000
0100
0000
0000
0000
0000
0000
0000
0000
0000
0000
0000
0000
0000
0000
0000
0000
0000
0000
0000
0000
0000
0000
0000
0000
0100
0000
0000
0000
0000
0000
0100
0000
0000
0000
0000
0000
0001
0000
0000
0000
0000
0000
0000
0000
0000
0000
0000
0000
0000
0000
0000
0000
0000
0000
0000
0000
0000
0000
0000
0000
1001
0000
0000
0000
0000
0000
0000
0000
0000
0000
0000
0000
0000
0000
0000
0000
0000
0000
0000
0000
0000
0000
0000
0000
0000
0000
0000
0000
0000
0000
0000
0000
0011
0000
0000
0000
0000
0000
0000
0000
0000
0000
0000
0000
0000
0000
0000
0000
,
0001
0000
0010
0000
0100
0000
1000
0000
0001
0000
0010
0000
0110
0000
0000
0000
0000
0000
0000
0000
1100
0000
0000
0000
10MM
0000
0000
0000
0000
0000
2000
0000
0000
0000
0000
0000
0011
0000
0000
3000
0000
0000
0000
0000
0000
1000
0000
0000
,
1001
0000
0001
0000
0011
0100
1000
0100
1000
0100
1000
0100
1001
0100
0001
0100
,
0001
0100
0001
0100
1010
0001
0100
0001
0100
0001
0100
0001
0110
0000
0110
0110
,
1001
1001
0110
0110
2001
0000
0000
0010
0000
0010
0000
0010
0000
0010
0001
0000
,
0002
0000
3000
1000
0000
1000
0000
1000
0100
0000
0200
0000
0003
0001
0000
0001
,
0000
0001
0000
0001
0010
0000
0020
0000
0300
1000
0000
1000
0000
1000
0000
1000
,
0100
0030
0110
0000
0100
0001
0000
0010
0000
0100
0000
1000
0100
1000
0010
0000
,
0100
0001
0000
0010
0000
0100
1000
1000
0001
0000
0100
0010
0000
0100
0000
0001
,
0000
0000
0010
0000
0100
0000
1000
0000
0100
0010
0100
0000
0010
0000
0001
0010
0001
0000
1000
0000
0001
1000
0001
0000
0100
0000
0010
0100
0010
0000
1000
0000
,
1100
0000
0100
0110
0000
0110
0000
0110
0000
0010
1001
0000
0011
0000
0010
0110
,
0000
0110
0000
0100
1001
0000
1010
0000
1000
1100
0000
1100
0000
1100
0000
0100
,
0110
0000
0100
1000
1000
0100
1000
1000
0010
0000
0100
0101
0000
0101
0000
0101
,
0000
0001
0110
0000
1010
0000
1000
1001
0000
1001
0000
0001
1100
0000
0110
0000
,
0010
MM11
0000
0011
0000
M012
0000
0100
0100
0000
0100
0000
0200
0000
0000
0010
,
0000
0020
0000
0000
1000
0000
1000
0333
0000
1001
0000
0001
0011
0000
0110
0000
,
1100
0000
1000
1000
1000
0110
0000
0010
0011
0000
0110
0000
0010
1001
0000
1010
,
0000
1000
1100
0000
0110
0000
0011
0000
0001
0001
0001
0010
0100
0100
0010
1000
,
1000
0010
0001
0100
0001
1000
0000
0010
0110
0000
1100
0000
0110
0000
0010
0010
,
0010
1000
0000
0100
1100
0000
0101
0000
0010
0101
0000
1001
0000
0001
0011
0000
,
1100
0000
0011
0000
0001
0001
0001
0010
0100
0010
0100
0100
1000
0010
1000
0010
,
0010
0100
1000
0100
1000
1000
0100
0010
0100
0010
0010
1MM1
1000
0010
0100
2000
,
3000
0100
0001
0010
0100
2000
0000
3010
0100
1000
0200
0300
0010
1000
0100
0010
,
0100
1000
0001
0100
0010
1010
1000
1100
0100
0010
0011
0001
1000
0010
0200
0000
,
0310
1000
0100
0010
0002
0000
0103
0010
0100
0002
0000
1003
0100
0010
0100
1000
,
0010
0100
1000
0100
0110
0010
0011
0010
1000
1100
0100
0110
0010
0001
1001
1000
,
0010
0100
2000
0000
3001
0010
1000
0100
0002
0000
1003
0010
0001
0200
0000
0310
,
0001
1000
0100
1000
0001
0010
0100
0001
0101
0100
1100
0001
0010
1010
0100
0010
,
0001
0020
0000
0031
1000
0100
0001
0020
0000
0031
1000
0010
0002
0003
0001
1000
,
0001
2000
3200
0320
0032
1003
1000
0001
0010
0001
0010
0100
0001
0010
0001
0010
,
0100
0001
0100
0010
0100
10MM
01MM
1000
0010
0100
1000
0100
0001
0010
0100
0100
,
0100
0100
1000
0010
0100
1000
0100
0001
0100
1000
0100
0100
0010
1000
0001
1000
,
0010
1000
0100
1000
0001
0001
0001
0001
0110
0000
0000
1001
0000
0000
0011
0000
,
1100
0000
1001
0000
0011
1001
0000
1010
0000
1100
0000
1000
0100
1000
0101
0000
,
0101
0110
0000
1010
0000
1010
1001
0000
0011
0000
1001
1010
0000
0011
0000
1010
,
0000
1000
0010
0100
0010
0001
0010
0100
0100
0001
1000
0010
1000
0001
MMM0
0000
,
1100
1100
1100
0011
,
0011
0000
0011
0110
0000
0110
0000
0110
,
0MM0
0000
M00M
0000
1001
0000
00M0
0000
0M00
0000
1001
0000
000M
M000
0000
0000
10M1
0000
0M00
0000
00M0
00M0
1001
0000
M000
0000
1001
0000
000M
0000
0000
0000
,
MMMM
0000
0000
0000
0000
0000
0000
0000
0000
0000
0000
1001
0001
1000
0010
0110
,
0100
0001
0100
0101
0001
1000
0001
1001
1000
0010
1000
1010
1000
0100
1000
1100
,
0100
0010
0001
1001
0001
0010
0100
0110
0010
0001
0100
0110
0010
1000
0000
0110
,
0000
0000
0110
0000
0000
0110
0000
0110
0000
2001
3001
0010
0100
0000
0100
0000
,
0100
0100
0000
0100
0000
2100
3100
0010
0001
0000
0001
0000
0001
0001
0000
0001
,
0000
0012
0103
0001
0010
0000
0010
0000
0010
0010
0000
0010
0000
1001
0000
1010
,
0000
0000
1100
0000
1001
0000
0011
0000
0000
0101
0000
0011
0000
0000
1001
0000
,
1010
0000
0000
0000
110M
0000
00M0
0000
0000
0000
1MM1
0000
0000
0000
0000
0000
1000
0000
0000
0000
1000
0000
0011
0000
0000
0000
0010
0000
0000
0000
0001
0010
,
0001
0000
0000
0000
0000
0000
0010
0000
0000
0000
0000
0000
0100
0000
0000
0000
0000
0000
0000
0000
0000
0000
0000
0000
0000
0000
0000
0000
0000
0000
0000
0000
0000
0000
0000
0000
0000
0000
0000
0000
0000
0000
0000
0000
0000
0000
0000
0000
1000
0000
0000
0000
0000
0000
0000
0000
0000
0000
0000
0000
0000
0000
0000
0000
0000
0000
0000
0000
0000
0000
0000
0000
1000
0000
0000
0000
0000
0000
0000
0000
0000
0000
0000
0000
0101
0000
0000
0000
0000
0000
0000
0000
0000
0000
0000
0000
0000
0000
0000
0000
0000
0000
0000
0000
0000
0000
0000
0000
0010
0000
0000
0000
0000
0000
0000
0000
0000
0000
0000
0000
0000
0000
0000
0000
0000
0000
0000
0000
0000
0000
0000
0000
0010
0000
0000
0000
0000
0000
0000
0000
0000
0000
0000
0000
0000
0000
0000
0000
0000
0000
0000
0000
0000
0000
0000
0000
0001
0000
0000
0000
1000
0000
0000
0000
0000
0000
0000
0000
0001
0000
0000
0000
0000
0000
0000
0000
0000
0000
0000
0000
0010
0000
0000
0000
0000
0000
0000
0000
0000
0000
0000
0000
,
0100
0000
0001
0000
0100
0000
1000
0000
0110
0000
0000
0000
0000
0000
0010
0000
0000
0000
0010
0000
1001
0000
0000
0000
0001
0010
0100
0010
0001
0010
0100
1000
,
0100
0000
0000
0000
0000
0000
0000
0000
0000
0100
0000
0000
0000
0000
0000
0100
0000
0000
1010
0000
0000
0000
0000
0000
0100
0000
0000
0000
0000
0000
0001
0000
0000
0000
0000
0000
0010
0001
0000
0010
0000
0000
0001
0000
0000
1000
0000
0000
,
0010
0100
0001
0010
0100
0010
0100
1000
0011
0000
0001
0110
0000
1100
0000
1010
,
0000
0100
0100
0100
0011
0000
0010
1010
0000
1001
0000
0011
0000
0010
0010
0010
,
1001
0000
0010
0101
0000
0110
0000
1100
0000
1000
1000
1000
0100
0010
0100
0010
,
0010
1000
0010
1000
0010
0010
0100
0001
0100
0001
0001
1001
0000
0000
0010
0110
,
0000
0000
0000
1010
0000
0010
0010
0101
0000
0000
0000
1001
0000
0000
0010
1100
,
0000
0000
0000
1000
0000
0000
1000
0000
0000
0101
0000
0000
0000
0000
0000
0000
0000
0000
0001
0000
0000
1010
0000
0000
0000
0000
0000
0000
0000
0000
0000
0000
0000
1100
0000
0000
0000
0000
0000
0000
0000
1000
0000
0001
0000
1001
0000
0000
,
0000
0000
0000
1001
0000
0000
0000
0000
1000
0000
0010
0000
1010
0000
0000
0000
0000
0000
1010
0000
0000
0000
0000
0100
0000
0010
0000
0110
0000
0000
0000
0000
0000
0110
0000
0000
0000
0000
0000
0000
0000
0000
1MM1
0000
0000
1000
0000
0000
,
0100
0010
0100
0001
0100
0010
0001
1000
0010
0100
1000
0100
0001
1000
0010
0100
,
0010
1000
0100
0010
0001
1000
0010
0001
0010
1000
0100
0010
1000
0010
0001
0100
,
0010
0000
0100
0000
0001
0010
0001
0010
0100
1000
0100
1000
0001
0000
0100
0000
0010
0000
0001
0000
0010
0000
0100
0000
0110
0000
0001
0000
1000
0000
0010
0000
,
0100
1000
0100
0010
1000
0100
0110
0110
0010
0001
1000
0100
0001
0100
1000
0010
,
0110
0000
0100
0000
0001
0000
0010
0000
0100
0000
0010
0001
0010
0000
0001
0010
0001
0010
0100
1000
0001
0100
0010
1000
0001
0010
0100
1000
0001
0000
0000
0000
,
10M1
0000
110M
M000
00M0
0110
0000
0M00
M011
00M0
1001
0000
011M
0000
00M0
1100
,
000M
M101
00M0
0110
M000
110M
0000
01M1
0000
M011
0M00
000M
0110
M000
000M
11M0
,
0000
0M11
00M0
101M
M000
0M00
10M1
000M
M110
000M
10M1
MM00
100M
0100
M010
0MM1
,
1000
0000
0000
001M
0000
0000
M100
0000
0000
001M
0000
0000
10M0
0000
0000
010M
0000
0000
M010
0000
0000
0M01
0000
0000
1M00
0000
0000
001M
0000
0000
M100
0000
0001
0000
0100
0000
001M
0000
0000
1000
0000
0000
010M
0000
0000
M010
0000
0000
,
0100
00M1
M100
0010
0M01
10M0
0001
M100
001M
100M
0100
M010
0M01
0010
1M00
001M
,
M100
0000
0000
M010
0000
0001
0M00
0010
0000
0001
0000
0000
1M00
0000
0000
0010
0000
0000
M001
0000
0000
0M10
0000
0000
1000
0000
0000
0100
0000
0000
0110
0000
0000
0010
0000
0000
0011
0000
0000
0001
0000
0000
1001
0000
0000
1000
0000
0000
,
0010
0110
0100
0001
0011
0010
0110
0100
1100
1000
0100
0110
0010
0011
0001
0101
,
0100
0110
0010
1010
0010
0110
0100
0001
1001
1000
0100
1100
0100
0110
0100
1100
,
1000
0001
0101
0010
0101
1000
0101
0010
1000
0100
0010
0001
0100
0010
1001
0001
,
0010
0100
1000
0010
0100
0001
0010
0100
1100
1000
0010
0100
0110
0100
0101
0001
,
1001
1000
1100
0100
0110
0010
0011
0001
1001
0001
1000
0100
0010
0100
0010
0100
,
1000
0100
0010
0100
0010
0100
1000
0100
0001
0100
1000
0010
0100
0010
0100
0010
,
1000
0000
0010
0000
0100
0000
0010
0000
0100
0000
0010
0000
1000
0000
0001
0010
0001
0000
1000
0000
1000
0000
0010
0000
1000
0100
0010
0000
0001
0000
0100
0000
,
0001
0010
0100
0000
1000
0000
0100
0000
1000
0010
0100
0000
0001
0000
0010
0000
0001
0100
0010
0000
1000
0000
0100
0000
0010
0001
0100
0000
0010
0000
1000
0000
,
0001
0100
0010
0000
1000
0000
0100
0000
0010
0001
1000
0000
0010
0000
1001
0000
0100
0000
0000
0000
2002
0000
3003
0000
0000
0000
0000
0000
0000
0000
0000
0000
,
0000
0000
0000
0000
,
0000
0110
0000
0110
0000
0000
0000
0000
,
0000
0000
0000
1001
0000
0000
0000
0000
0000
1001
0000
0000
0000
0000
0000
0000
0000
0000
1000
0010
1000
0010
1000
0010
,
1000
0100
0010
0001
1000
0001
0010
0100
1000
0001
0100
0010
0100
0010
1000
0100
0010
0001
1000
0100
1000
0100
1000
0100
,
1000
0100
0010
0001
0100
0001
0010
0100
1000
0001
0100
0010
1000
0001
0010
0100
0010
0001
1000
0001
0100
0010
0100
0001
,
1000
0100
0010
0001
1000
0010
1000
0001
0010
0100
1000
0010
1000
0100
0010
0100
1000
0010
1000
0100
1000
0100
1000
0100
,
1000
0010
0100
0001
0010
0100
0010
0100
0010
0001
0100
0010
1000
0001
0010
0100
0010
0100
1000
0010
0100
0001
0100
0010
,
2000
0000
0000
0000
0000
3000
0000
0000
1000
0001
0010
0100
1000
0010
0100
0010
1000
0100
0020
0000
0000
0000
0000
0000
,
0000
0000
0000
0000
0000
0000
0000
0000
0000
0000
0000
0000
2000
0000
0000
0000
0000
0000
0000
0000
0000
0000
0000
0000
0030
0000
0000
0000
0000
0000
0000
0000
0000
0000
0000
0000
3002
0000
0000
0000
0000
0000
0000
0000
0000
0000
0000
0000
0000
0000
0000
0000
0203
0000
0000
0000
0000
0000
0000
0000
0000
0000
0000
0000
0000
0000
0000
0000
0000
0000
0000
0000
2300
0000
0000
0000
0000
0000
0000
0000
0000
0000
0000
0000
0000
0000
0000
0000
3000
0000
0200
0000
0000
0000
0000
0000
0000
0000
0000
0000
0000
0000
0000
0000
0000
0000
0000
0000
0000
0000
0000
0000
0000
0000
0320
0000
0000
0000
0000
0000
0000
0000
0000
0000
0000
0000
0032
0000
0000
0000
0000
0000
0000
0000
0000
0000
0000
0000
0023
0000
0000
0000
0000
0000
0000
0000
0000
0000
0000
0000
0000
0000
0000
0000
0000
0000
0000
0000
0000
0000
0000
0000
0000
0000
0000
0000
0000
0000
0000
0000
0000
0000
0000
0000
0000
0000
0000
0000
0000
0000
0030
0000
0000
0000
0000
0000
0000
0000
0000
0000
0000
0000
,
0001
0010
0100
1000
0100
1000
0100
0010
0001
0010
0100
1000
0100
1000
0100
0010
0001
0010
0100
0010
0100
1000
0100
0010
0100
1000
0100
1000
0001
0010
0100
1000
,
0100
1000
1000
0001
0001
0010
0010
0001
0001
0100
0000
0100
0201
0000
0000
0000
,
1300
0000
0100
0000
0010
0000
1000
0000
0100
0000
0010
0000
0001
0000
0100
0000
0001
0000
0010
0100
1000
0000
0010
0000
0100
0000
0001
0000
0100
0000
0010
0000
,
1000
0000
0000
0000
0000
0000
0000
0000
0100
0000
0000
0000
0000
0000
0000
0000
0010
0000
0000
0000
0000
0000
0000
0000
0001
0000
0000
0000
0000
0000
0000
0000
0010
0000
0000
0000
0000
0000
0000
0000
0100
0000
0000
0000
0000
0000
0000
0000
0010
0000
0000
0000
0000
0000
0000
0000
0001
0000
0000
0000
0000
0000
0000
0000
1000
0000
0000
0000
0000
0000
0000
0000
0001
0000
0000
0000
0000
0000
0000
0000
0010
0000
0000
0000
0000
0000
0000
0000
0100
0000
0000
0000
0000
0000
0000
0000
1000
0000
0000
0000
0000
0000
0000
0000
0000
0000
0000
0000
0001
0000
0000
0000
0000
0000
0000
0000
0000
0000
0000
0000
0010
0000
0000
0000
0000
0000
0000
0000
0100
0000
0000
0000
0000
0000
0000
0000
1000
0000
0000
0000
0000
0000
0000
0000
0010
0000
0000
0000
0000
0000
0000
0000
0000
0000
0000
0000
0100
0000
0000
0000
0000
0000
0000
0000
0000
0000
0000
0000
0001
0000
0000
0000
0000
0000
0100
0000
0000
0000
0000
0000
0010
0000
0000
0000
0000
0000
1000
0000
0000
0000
0000
0000
,
0001
0000
0000
0000
0000
0000
0000
0000
0010
0000
0000
0000
0000
0000
0000
0000
0100
0000
0000
0000
0000
0000
0000
0000
1000
0000
0000
0000
0000
0000
0000
0000
0100
0000
0000
0000
0000
0000
0000
0000
0010
0000
0000
0000
0000
0000
0000
0000
0001
0000
0000
0000
0000
0000
0000
0000
0010
0000
0000
0000
0000
0000
0000
0000
0100
0000
0000
0000
0000
0000
0000
0000
1000
0000
0000
0000
0000
0000
0000
0000
0100
0000
0000
0000
0000
0000
0000
0000
0010
0000
0000
0000
0000
0000
0000
0000
0001
0000
0000
0000
0000
0000
0000
0000
1000
0000
0000
0000
0000
0000
0000
0000
0100
0000
0000
0000
0000
0000
0000
0000
0010
0000
0000
0000
0000
0000
0000
0000
0100
0000
0000
0000
0000
0000
0000
0000
1000
0000
0000
0000
0000
0000
0000
0000
0001
0000
0000
0000
0000
0000
0000
0000
1000
0000
0000
0000
0000
0000
0000
0000
0020
0000
0000
0000
0000
0000
0000
0000
0030
0000
0000
0000
0000
0000
1000
0000
0000
0000
0000
0000
0001
0000
0000
0000
0000
0000
0010
0000
0000
0000
0000
0000
,
0001
0000
0000
0000
0000
0000
0000
0010
0000
0000
0000
0000
0000
0000
0100
0000
0000
0000
0000
0000
0000
0010
0000
0000
0000
0000
0000
0001
0000
0000
0000
0000
0000
0000
0010
0000
0000
0000
0000
0000
0000
0001
0000
0000
0000
0000
0000
0000
1000
0000
0000
0000
0000
0000
0000
0001
0000
0000
0000
0000
0000
0000
0010
0000
0000
0000
0000
0000
0000
0100
0000
0000
0000
0000
0000
1000
0000
0000
0000
0000
0000
0000
0001
0000
0000
0000
0000
0000
0000
1000
0000
0000
0000
0000
0000
0000
0100
0000
0000
0000
0000
0000
0000
1000
0000
0000
0000
0000
0000
0000
0100
0000
0000
0000
0000
0000
0000
0010
0000
0000
0000
0000
0000
0100
0000
0000
0000
0000
0000
0000
1000
0000
0000
0000
0000
0000
0000
0001
0000
0000
0000
0000
0000
0000
0100
0000
0000
0000
0000
0000
0000
0000
0001
0000
0000
0000
0000
0000
0000
0000
1000
0000
0000
0000
0000
0000
0000
0000
0100
0000
0000
0000
0000
0000
0010
0000
0000
0000
0000
0000
0002
0000
0000
0000
0000
0000
0003
0000
0000
0000
0000
0000
,
1000
0000
0000
0000
0000
0000
0001
0000
0000
0000
0000
0000
1000
0000
0000
0000
0000
0000
0010
0000
0000
0000
0000
0000
0100
0000
0000
0000
0000
0000
0001
0000
0000
0000
0000
0000
1000
0000
0000
0000
0000
0000
0001
0000
0000
0000
0000
0000
1000
0000
0000
0000
0000
0000
0010
0000
0000
0000
0000
0000
0100
0000
0000
0000
0000
0000
0001
0000
0000
0000
0000
0000
1000
0000
0000
0000
0000
0000
0001
0000
0000
0000
0000
0000
1000
0000
0000
0000
0000
0000
0010
0000
0000
0000
0000
0000
0100
0000
0000
0000
0000
0000
0001
0000
0000
0000
0000
0000
1000
0000
0000
0000
0000
0000
0001
0000
0000
0000
0000
0000
1000
0000
0000
0000
0000
0000
0001
0000
0000
0000
0000
0000
0100
0000
0000
0000
0000
0000
0001
0000
0000
0000
0000
0000
1000
0000
0000
0000
0000
0000
0000
0000
0001
0000
0000
0000
0000
0000
0000
0000
0010
0000
0000
0000
0000
0000
0000
0000
0001
0000
0000
0000
0000
0000
0000
0000
0010
0000
0000
0000
0000
0000
0000
0000
0100
0000
0000
0000
0000
0000
0000
0000
,
0010
0000
0000
0000
0000
0000
0000
0000
0100
0000
0000
0000
0000
0000
0000
0000
1000
0000
0000
0000
0000
0000
0000
0000
0001
0000
0000
0000
0000
0000
0000
0000
1000
0000
0000
0000
0000
0000
0000
0000
0020
0000
0000
0000
0000
0000
0000
0000
2030
0000
0000
0000
0000
0000
0000
0000
0000
0000
0000
0000
0000
0000
0000
0000
0000
0000
0000
0000
0000
0000
0000
0000
3000
0000
0000
0000
0000
0000
0000
0000
0000
0000
0000
0000
1000
0000
0000
0000
0100
0000
0000
0000
0010
0000
0000
0000
0001
0000
0000
0000
0000
0000
0010
0000
0000
0000
0000
0000
0100
0000
0000
0000
0000
0000
1000
0000
0000
0000
0000
0000
0001
0000
0000
0000
0000
0000
0020
0000
0000
0000
0000
0000
0000
0000
0000
0000
0000
0000
0030
0000
0000
0000
0000
0000
0002
0000
0000
0000
0000
0000
0000
0000
0003
0000
0000
0000
0000
0000
0000
0000
0010
0000
0000
0000
0000
0000
0000
0000
0100
0000
0000
0000
0000
0000
1000
0000
0000
0000
0000
0000
0001
0000
0000
0000
0000
0000
0010
0000
0000
0000
0000
0000
,
0100
0010
0001
0010
0100
0010
0001
0010
0100
0010
0002
0003
1000
0100
1000
0001
1000
0100
1000
0001
0010
0100
0010
0001
0010
0100
0010
0001
1000
0100
1000
0001
,
0010
0100
0010
0001
0010
0100
0010
0100
0010
0001
0010
0001
1000
0100
1000
0001
0010
0100
0010
0001
0010
0100
0010
0001
1000
0001
0010
0100
0010
0100
0010
0100
,
1000
0000
0000
0000
0000
0000
0000
0001
0000
0000
0000
0000
0000
0000
1000
0000
0000
0000
0000
0000
0000
0100
0000
0000
0000
0000
0000
1000
0000
0000
0000
0000
0000
0000
0001
0000
0000
0000
0000
0000
0000
1000
0000
0000
0000
0000
0000
0000
0001
0000
0000
0000
0000
0000
0000
1000
0000
0000
0000
0000
0000
0000
0100
0000
0000
0000
0000
0000
0000
1000
0000
0000
0000
0000
0000
0001
0000
0000
0000
0000
0000
0000
1000
0000
0000
0000
0000
0000
0000
0100
0000
0000
0000
0000
0000
0000
1000
0000
0000
0000
0000
0000
0000
0001
0000
0000
0000
0000
0000
0000
1000
0000
0000
0000
0000
0000
0000
0001
0000
0000
0000
0000
0000
1000
0000
0000
0000
0000
0000
0000
0100
0000
0000
0000
0000
0000
0000
1000
0000
0000
0000
0000
0000
0000
0001
0000
0000
0000
0000
0000
0000
1000
0000
0000
0000
0000
0000
0000
0100
0000
0000
0000
0000
0000
0000
1000
0000
0000
0000
0000
0000
0001
0000
0000
0000
0000
0000
0000
1000
0000
0000
0000
0000
0000
0000
0001
0000
0000
0000
0000
0000
0000
,
1000
0000
0000
0000
0000
0000
0000
0100
0000
0000
0000
0000
0000
0000
1000
0000
0000
0000
0000
0000
0000
0001
0000
0000
0000
0000
0000
1000
0000
0000
0000
0000
0000
0000
0100
0000
0000
0000
0000
0000
0000
1000
0000
0000
0000
0000
0000
0000
0001
0000
0000
0000
0000
0000
1000
0000
0000
0000
0000
0000
0001
0000
0000
0000
0000
0000
1000
0000
0000
0000
0000
0000
0001
0000
0000
0000
0000
0000
0100
0000
0000
0000
0000
0000
0010
0000
0000
0000
0000
0000
0100
0000
0000
0000
0000
0000
0010
0000
0000
0000
0000
0000
0000
0100
0000
0000
0000
0000
0000
0000
0010
0000
0000
0000
0000
0000
0000
1000
0000
0000
0000
0000
0000
0010
0000
0000
0000
0000
0000
0000
0100
0000
0000
0000
0000
0000
0000
0010
0000
0000
0000
0000
0000
0000
0100
0000
0000
0000
0000
0000
0001
0000
0000
0000
0000
0000
0100
0000
0000
0000
0000
0000
0001
0000
0000
0000
0000
0000
0100
0000
0000
0000
0000
0000
0001
0000
0000
0000
0000
0000
0200
0000
0000
0000
0000
0000
0300
0000
0000
0000
0000
0000
,
2002
0000
0000
0000
0000
0000
0MM0
0000
3MM3
0M00
00M0
0000
0000
0000
0000
0000
;

//---------------dance-single - by Shiner----------------
#NOTES:
     dance-single:
     by Shiner:
     Hard:
     11:
     0.918,0.878,1.000,0.219,1.000,1297.000,292.000,56.000,56.000,1.000:

0000
0000
0110
1001
,
0101
0000
0110
0000
1001
0000
0000
0000
1100
0000
1000
0100
0001
0100
1000
0000
,
1100
0000
0011
0000
1001
0000
0000
1000
0100
0001
0101
0000
1001
0000
1010
0000
,
1010
0010
0002
0003
1001
0000
1000
0010
0110
0000
0101
0001
0010
0100
2000
3000
,
1100
0000
0000
1000
0000
0000
0002
0000
0000
0003
0000
0000
1001
0000
0000
0000
0000
0000
0100
0000
0001
0000
0010
0000
0100
0000
0000
0000
0100
0000
0000
0000
0100
0000
0000
0000
0110
0000
0000
0000
0000
0000
0010
0000
0001
0000
0100
0000
,
0010
0000
0100
0000
0110
0010
1000
0000
0011
0000
0010
0001
0110
0000
0010
0100
,
1100
0000
1000
0001
1010
0000
0110
0000
1100
0000
0000
1000
0100
0001
0010
0000
,
1000
0000
0000
0000
0001
0000
0100
0000
1000
0000
0010
0000
0100
0000
0000
0000
0110
0000
0100
0000
0001
0000
0000
0000
0000
0100
0001
1000
0000
0000
0000
0000
,
1001
0000
1000
0100
0110
0000
0011
0000
1001
0002
0203
0300
0000
0000
0001
0001
,
1000
0000
0100
0000
0010
0000
0100
0000
0010
0000
0001
0000
0020
0000
0000
0000
0030
0000
0100
0000
0010
0000
0001
0000
1000
0000
0100
0000
0010
0000
0002
0000
0000
0000
0003
0000
0010
0000
0000
0100
0000
0000
2000
0000
0000
3000
0000
0000
,
0010
1000
0100
0010
0001
0100
0010
1000
0100
0010
0001
0100
0110
0000
0000
0000
,
0001
0100
1000
0001
0010
1000
0001
0100
1000
0001
0010
1000
1010
0000
0000
0000
,
0011
0000
0000
0000
1001
0000
0011
0000
0011
0000
0010
0100
0110
0000
1010
0000
,
0011
0000
0100
0010
1000
0100
0110
0000
0011
0000
0100
0010
1100
0000
0011
0000
,
1010
1000
0100
0010
0110
0000
0000
0000
1001
0000
1000
1100
0000
0100
0110
0000
,
0010
1010
0000
0010
0011
0000
0000
0000
0011
0001
0010
0110
0010
0001
0011
0010
,
0100
0110
0010
0001
0011
0010
0100
1000
1001
0001
1000
0001
1000
0100
0001
0100
,
0001
0100
1000
0100
0010
0100
0010
0100
0010
0100
1000
0010
1000
0100
0001
0100
,
0001
0100
1000
0010
0100
0010
0100
0010
0100
0010
1000
0100
1100
0100
0100
0010
,
0010
0000
0000
0001
0000
0000
0001
0000
0000
0100
0000
0000
0010
0100
0000
0100
0000
0000
0000
0000
0000
0100
0000
0000
0000
0000
0000
0100
0000
0000
0110
0000
0000
0000
0000
0000
0011
0000
0000
0000
0000
0000
0000
0000
0101
0000
0000
0000
,
0010
1000
0100
0000
1100
0000
0000
0010
0011
0000
0001
0000
1001
0000
0000
1000
,
1010
0000
0000
0000
0000
0000
0000
0000
0000
0000
0000
0000
0000
0000
0000
0000
0000
0000
0000
0000
0000
0000
0000
0000
0100
0000
0000
0000
0000
0000
0000
0000
0000
0000
0000
0000
0010
0000
0000
0000
0000
0000
1000
0000
0000
0000
0000
0000
0001
0000
0000
0000
0000
0000
0000
0000
0000
0000
0000
0000
0010
0000
0000
0000
0000
0000
0000
0000
0000
0000
0000
0000
0000
0000
0000
0000
0000
0000
0000
0000
0000
0000
0000
0000
0010
0000
0000
0000
0000
0000
0000
0000
0000
0000
0000
0000
0000
0000
0000
0000
0000
0000
0000
0000
0000
0010
0000
0000
0000
0000
0000
0000
0100
0000
0000
0000
0000
0000
0000
0000
1000
0000
0000
0000
0000
0000
0000
0000
0000
0000
0000
0000
0000
0000
0000
0000
0000
0000
0000
0000
0000
0000
0000
0000
1001
0000
0000
0000
0000
0000
0000
0000
0000
0000
0000
0000
0000
0000
0000
0000
0000
0000
0000
0000
0000
0000
0000
0000
0000
0000
0000
0000
0000
0000
0000
0000
0000
0000
0000
0000
0011
0000
0000
0000
0000
0000
0000
0000
0000
0000
0000
0000
,
0000
0000
1100
0000
0000
0000
0000
0000
1001
0000
0000
0000
0000
0000
0001
0000
1010
0000
0000
0000
0100
0000
0000
0000
1100
0000
0000
0000
0000
0000
1000
0100
,
0010
0000
0000
0000
0000
0000
0000
0000
0000
0000
0000
0000
0000
0000
0000
0000
0000
0000
0000
0000
0000
0000
0000
0000
0001
0000
0000
0000
0000
0000
0000
0000
0000
0000
0000
0000
0000
0000
0000
0000
0000
0000
0000
0000
0000
0000
0000
0000
0100
0000
0000
0000
0001
0000
0000
0000
0000
0000
0000
0000
0100
0000
0000
0000
0000
0000
0000
0000
0000
0000
0000
0000
0000
0000
0000
0000
0000
0000
0000
0000
0000
0000
0000
0000
0100
0000
0000
0000
0000
0000
0000
0000
0000
0000
0000
0000
0000
0000
0000
0000
0000
0000
0000
0000
0000
0000
0000
0000
0100
0000
0000
0000
0000
0000
0001
0000
0000
0000
0000
0000
0100
0000
0000
0000
0000
0000
0000
0000
0000
0000
0000
0000
0000
0000
0000
0000
0000
0000
0000
0000
0000
0000
0000
0000
1001
0000
0000
0000
0000
0000
0000
0000
0000
0000
0000
0000
0000
0000
0000
0000
0000
0000
0000
0000
0000
0000
0000
0000
0000
0000
0000
0000
0000
0000
0000
0000
0011
0000
0000
0000
0000
0000
0000
0000
0000
0000
0000
0000
0000
0000
0000
0000
,
0001
0000
0010
0000
0100
0000
1000
0000
0001
0000
0010
0000
0100
0000
0000
0000
0000
0000
0000
0000
1100
0000
0000
0000
10MM
0000
0000
0000
0000
0000
2000
0000
0000
0000
0000
0000
0011
0000
0000
3000
0000
0000
0000
0000
0000
1000
0000
0000
,
1001
0000
0001
0000
0101
0001
0100
0001
0100
0001
0100
0001
0101
0100
0001
0100
,
0001
0100
0001
0100
0101
0001
0100
0001
0100
0001
0100
0001
0101
0000
0001
0001
,
0010
0010
0100
0100
2001
0000
0000
0010
0000
0010
0000
0010
0000
0010
0001
0000
,
0002
0000
3000
1000
0000
1000
0000
1000
0100
0000
0200
0000
0003
0001
0000
0001
,
0000
0001
0000
0001
0010
0000
0020
0000
0300
1000
0000
1000
0000
1000
0000
1000
,
0100
0030
0110
0000
0100
0001
0000
0010
0000
0100
0000
1000
0100
1000
0010
0000
,
0100
0001
0000
0010
0000
0100
1000
0001
0100
0000
0100
0010
0000
0100
0000
0001
,
0000
0010
0100
1000
1100
0000
0100
0110
0000
0010
0011
0000
0001
0011
0000
0100
,
1100
0000
0100
0010
0000
0100
0000
0010
0000
0010
0011
0000
0011
0000
0010
0100
,
0000
0010
0000
0100
1100
0000
1010
0000
1000
0100
0000
0100
0000
0100
0000
0100
,
0110
0000
0000
0000
1100
0000
0000
MM00
0000
0000
1100
0000
0000
MM00
0000
0000
0010
0000
0000
0000
0100
0000
0001
0000
0000
0000
0001
0000
0000
0000
0001
0000
,
0000
0100
0101
0000
1010
0000
1000
1001
0000
1001
0000
0001
1100
0000
0110
0000
,
0010
0011
0000
0011
0000
0010
0000
0100
0110
0000
1001
0000
1001
0000
0000
0011
,
0000
0011
0000
0000
1100
0000
1100
0000
0000
0001
0000
0010
0100
0000
1000
0000
,
0010
0000
1000
1000
1000
0100
0000
0010
0001
0000
0010
0000
0010
1000
0000
0010
,
0000
0001
0100
0000
1000
0000
0001
0000
1000
0100
0010
1000
0100
0100
1000
0100
,
0100
0010
0100
0001
0100
0010
0000
0010
0100
0000
1000
0000
0100
0000
0010
0010
,
0010
0001
0000
0100
0010
0000
0100
0000
0001
1000
0000
1010
0000
1000
0100
0000
,
0001
0000
0100
0000
1000
1000
1000
0100
0010
0100
0010
0010
0001
1000
0001
1000
,
1000
0010
0100
0010
0100
0100
0010
1000
0010
1000
1000
0MM2
0000
0000
0000
0000
,
0000
0003
0202
0000
0000
0000
0300
0023
2000
0030
0000
3200
0000
0000
0000
0020
,
0300
0000
2000
0030
0000
3001
0100
0001
0100
1000
0020
0000
0000
0000
0030
0000
,
0020
2030
3200
0000
0000
0010
2300
0000
0000
0001
3200
0000
0000
0000
2000
0300
,
0000
0020
3000
0000
0031
0010
0001
0010
0100
0001
0010
0001
0010
0100
0002
0000
,
0000
0000
0000
0103
1000
0002
0000
0000
0000
0103
0002
0000
0000
0000
0020
0003
,
0000
0000
2000
0030
0000
0002
3000
0000
1003
0010
1000
0010
0001
0200
0000
0000
,
0300
0000
0000
1000
0001
0020
0000
0000
1030
0200
0000
0000
0000
0302
0000
0000
,
0003
2000
3020
0230
0302
0003
0000
0001
0100
0001
0100
0010
0001
0100
0001
0100
,
0010
0001
0010
0100
0010
1M0M
010M
1000
0010
0100
1000
0100
0001
0010
0200
0000
,
0000
0300
1000
0010
0100
1000
0100
0001
0100
1000
0100
0100
0010
1000
0001
1000
,
0010
1000
0100
1000
0002
0000
0000
0003
0110
0000
0000
1001
0000
0000
0011
0000
,
1100
0000
1001
0000
0001
1001
0000
1010
0000
1100
0000
1000
0100
1000
0100
0000
,
0100
0010
0000
0011
0000
0001
1001
0000
0011
0000
1001
1010
0000
0110
0000
1010
,
0000
1000
0010
0100
0110
0MM0
0110
0MM0
0000
1001
M00M
1001
M00M
1001
100M
0100
,
001M
0000
0010
0100
0000
1000
0000
0001
0000
1000
0100
1000
1001
0000
0001
0010
,
0000
0000
0110
0000
0000
0000
1100
0000
0000
0000
1000
0100
0010
0000
0000
0000
0001
0000
0010
0000
0000
0000
0110
0000
0000
0000
1100
0000
0000
0000
0100
0000
,
0100
0100
M00M
0000
0000
M00M
0000
0000
M00M
0000
0000
M00M
0000
M00M
0000
0011
,
0000
0010
0110
0000
0100
1100
0000
0001
0000
1000
0000
1001
0000
1000
0000
0110
,
0000
0001
0000
0101
0000
1000
0000
1001
0000
0010
0000
1010
0000
0100
0000
1100
,
0000
0010
0000
1001
0000
0010
0000
0110
0000
0001
0000
0101
0000
1000
0000
1100
,
0000
0000
0110
0000
0000
0110
0000
0110
0000
2001
3001
0010
0100
0000
0100
0000
,
0100
0100
0000
0100
0000
2100
3100
0010
0001
0000
0001
0000
0001
0001
0000
0001
,
0000
0012
0103
0001
0010
0000
0010
0000
0010
0010
0000
0010
0000
1001
0000
1010
,
0000
0000
1100
0000
1001
0000
0011
0000
0000
0101
0000
0011
0000
0000
1001
0000
,
1010
0000
110M
00M0
0000
1MM1
0000
0000
0001
0000
0010
0110
0000
0000
0100
0000
,
1000
0010
0001
0010
1000
0000
0100
0000
0000
0000
0020
0002
0033
1001
0000
0001
,
0010
0001
0010
0100
0110
0000
0000
1010
0000
0110
1001
0000
0000
0101
0000
0110
,
0100
1000
0100
0001
0000
0020
0000
0000
0000
2030
0010
0000
0001
3000
0001
0100
,
0001
0100
1000
0001
0100
0001
0100
1000
0011
0000
0001
0010
0000
0100
0000
1000
,
0000
0100
1000
0100
0010
0000
0010
0001
0000
1000
0000
0100
0000
1000
0001
1000
,
0100
0000
0010
0100
0000
1000
0000
0001
0000
0010
0100
1000
0100
0010
0100
0010
,
0010
0001
0010
0001
0010
0010
0100
1000
0100
1000
1000
0001
0000
0000
0010
0100
,
0000
0000
0000
1010
0000
0000
0010
0110
0000
0000
0000
1001
0000
0000
0001
0100
,
0000
0000
0000
1000
0000
0000
0100
0000
0000
1100
0000
0000
0000
0000
0000
0000
0000
0000
0001
0000
0000
1010
0000
0000
0000
0000
0000
0000
0000
0000
0000
0000
0000
1100
0000
0000
0000
0000
0000
0000
0000
1000
0000
0001
0000
0010
0000
0000
,
0000
0000
0000
0010
0000
0000
0000
0000
0100
0000
0010
0000
0001
0000
0000
0000
0000
0000
0001
0000
0000
0000
0000
0100
0000
0010
0000
1000
0000
0000
0000
0000
0000
1000
0000
0000
0000
0000
0000
0000
0000
0000
1MM1
0000
0000
1000
0000
0000
,
0100
0010
0100
0001
0100
0010
0001
1000
0010
0100
1000
0100
0001
1000
0010
0100
,
0010
1000
0100
0010
0001
1000
0010
0001
0010
1000
0100
0010
1000
0010
0001
0100
,
0010
0000
0100
0000
0040
4000
0000
0000
0000
0000
0000
3030
1000
0000
0100
0000
0010
0000
0001
0000
0010
0000
0100
0000
0110
0000
0001
0000
1000
0000
0010
0000
,
0100
1000
0100
0010
1000
0100
0110
0110
0010
0001
1000
0100
0001
0100
1000
0010
,
0110
0000
0100
0000
0001
0000
0010
0000
0100
0000
0010
0001
0010
0000
0001
0000
0010
0000
0010
0000
0100
0000
0100
0000
1000
0000
1000
0000
1100
0000
0000
0000
,
1001
0000
0101
0000
0000
0110
0000
0000
0011
0000
1001
0000
0110
0000
0000
1100
,
0000
0101
0000
0110
0000
1100
0000
0101
0000
0011
0000
0000
0110
0000
0000
1100
,
0000
0011
0000
1010
0000
0000
1001
0000
0110
0000
1001
0000
1000
0100
0010
0001
,
1000
0000
0000
0010
0000
0000
0100
0000
0000
0010
0000
0000
1000
0000
0000
0100
0000
0000
0010
0000
0000
0001
0000
0000
1000
0000
0000
0010
0000
0000
0100
0000
0001
0000
0100
0000
0010
0000
0000
1000
0000
0000
0100
0000
0000
0010
0000
0000
,
0100
0001
0100
0010
0001
1000
0001
0100
0010
1000
0100
0010
0001
0010
1000
0010
,
0100
0000
0000
0010
0000
0001
0000
0010
0000
0001
0000
0000
1000
0000
0000
0010
0000
0000
0001
0000
0000
0010
0000
0000
1000
0000
0000
0100
0000
0000
0110
0000
0000
0000
0000
0000
0011
0000
0000
0000
0000
0000
1001
0000
0000
0000
0000
0000
,
0010
0110
0000
0001
0011
0000
0110
0000
1100
0000
0000
0110
0000
0011
0000
0101
,
0000
0110
0000
1010
0000
0110
0000
0001
1001
0000
0100
1100
0000
0110
0000
1100
,
1000
0001
0101
0001
0101
0100
0101
0001
1000
0100
0010
0001
0100
0010
1000
0001
,
0010
0100
1000
0010
0100
0001
0010
0100
1000
0100
0010
0100
0110
0000
0101
0000
,
1001
0000
1100
0000
0110
0000
0011
0000
1001
0000
1000
0100
0010
0100
0010
0100
,
1000
0100
0010
0100
0010
0100
1000
0100
0001
0100
1000
0010
0100
0010
0100
0010
,
1000
0000
0010
0000
0100
0000
0010
0000
0100
0000
0010
0000
1000
0000
0001
0010
0001
0000
1000
0000
0001
0000
1000
0000
0001
1000
0001
0000
0100
0000
0001
0000
,
0100
0001
0100
0000
0010
0000
0100
0000
0010
0100
0010
0000
1000
0000
0010
0000
1000
0010
1000
0000
0100
0000
0010
0000
0100
0010
0100
0000
0010
0000
0001
0000
,
1000
0001
1000
0000
0100
0000
0010
0000
0001
1000
0100
0000
0010
0000
0011
0000
0001
0000
0000
0000
2002
0000
3003
0000
0000
0000
0000
0000
0000
0000
0000
0000
,
0000
0000
0000
0000
,
0000
0110
0000
0110
0000
0000
0000
0000
,
0000
0000
0000
1001
0000
0000
0000
0000
0000
1001
0000
0000
0000
0000
0000
0000
0000
0000
1000
0010
1000
0010
1000
0010
,
1000
1010
0010
0110
0100
0101
0001
1001
,
1000
1100
0100
0110
0010
0011
0001
1001
,
1000
1001
0001
0011
0001
0101
0100
0110
,
1010
0011
0001
1001
1000
1100
0100
0110
,
0010
1001
0010
1001
0100
1001
0100
1001
,
0010
1100
0001
1100
0010
0101
0010
1001
,
0100
1010
0001
1100
0001
0110
1000
0011
,
0100
1001
0010
0101
1000
0011
0001
0011
,
0101
0001
0100
0001
0100
0001
0100
0001
0100
0001
0100
0001
0100
0001
0100
0001
,
1000
0100
1000
0100
1000
0100
1000
0100
1000
0100
1000
0100
1000
0100
1000
0100
,
0010
01M1
0001
110M
0010
11M0
0100
1M01
,
0001
M011
01M0
1001
M001
0110
1000
0M11
,
1000
1100
M100
1100
1M00
1100
M100
1M10
,
00M1
0011
001M
1M10
M1M0
1100
0MM1
0110
,
1001
1000
0100
0010
0100
1000
0001
0100
0010
0100
0001
0010
0100
1000
0100
0010
,
0001
0100
0001
0010
0100
1000
0100
0001
0100
1000
0010
0100
0010
1000
0100
0010
,
0001
0000
0000
0001
0010
0000
0000
0010
0100
0000
0000
0100
1000
0000
0000
1000
0100
0000
0000
0100
0010
0000
0000
0010
0001
0000
0000
0001
1000
0000
0000
1000
,
0010
0000
0000
0010
0100
0000
0000
0100
0001
0000
0000
0001
0100
0000
0000
0100
0010
0000
0000
0010
1000
0000
0000
1000
0100
0000
0000
0100
0001
0000
0000
0000
,
2002
0000
3003
0000
;
